<svg><defs><font id="Spaceland-TenOblique" horiz-adv-x="874" vert-adv-y="874"><font-face font-family="Spaceland en" font-weight="400" ascent="1010" descent="-310"/><glyph glyph-name="uni21" unicode="!" d="M-17 0H90l15 121H-3Zm34 201h89l70 499H69Z" horiz-adv-x="159" vert-adv-y="1000"/><glyph glyph-name="uni22" unicode="&quot;" d="m245 435 41 265h-99l-23-265Zm-130 0 41 265H57L34 435Z" horiz-adv-x="258" vert-adv-y="1000"/><glyph glyph-name="uni23" unicode="#" d="M370 193v90h-58l12 135h66v90h-58l16 192h-90l-16-192h-61l17 192h-90L91 508H25v-90h58L71 283H5v-90h58L47 0h90l16 193h61L198 0h90l16 193Zm-209 90 12 135h61l-12-135Z" horiz-adv-x="395" vert-adv-y="1000"/><glyph glyph-name="uni24" unicode="$" d="m91-4-12-98h81l12 98c34 1.33 62.5 12.83 85.5 34.5S294 80 298 114l16 125c2.67 21.33-.17 42.5-8.5 63.5S284.67 340 268 352l-100 89c-10 7.33-14 17-12 29l13 107c2 13.33 9.67 20 23 20h30c13.33 0 19-6.67 17-20l-15-120h117l16 129c4 34.67-3 62.67-21 84s-43.67 32.67-77 34l13 98h-82l-12-98c-33.33-2-61.33-13.67-84-35s-36-49-40-83L40 472c-2.67-21.33.17-42.5 8.5-63.5S69.33 371 86 359l100-88c9.33-8 13.33-18 12-30l-14-118c-2-13.33-9.67-20-23-20h-30c-13.33 0-19 6.67-17 20l14 120H12L-4 114c-4-34 2.67-61.67 20-83S58.33-2 91-4Z" horiz-adv-x="353" vert-adv-y="1000"/><glyph glyph-name="uni25" unicode="%" d="M26 465c-4-36 3.17-65 21.5-87s44.83-33 79.5-33h18c34.67 0 64 11 88 33s38 51 42 87l15 119c4.67 36-2.17 65-20.5 87s-44.83 33-79.5 33h-19c-34.67 0-63.83-11-87.5-33S46 620 42 584Zm279-349c-4-36 3-65 21-87s44.33-33 79-33h19c34.67 0 63.83 11 87.5 33s37.83 51 42.5 87l15 119c4 36-3 65-21 87s-44.33 33-79 33h-19c-34.67 0-63.83-11-87.5-33s-37.83-51-42.5-87ZM83 0h96l333 700h-96Zm59 431c-16 0-23 10-21 30l15 128c.67 8.67 3.83 15.83 9.5 21.5s12.17 8.5 19.5 8.5h10c16 0 23-10 21-30l-15-128c-.67-8.67-3.83-15.83-9.5-21.5S159.33 431 152 431ZM420 81c-16 0-23 10-21 30l16 128c.67 8.67 3.83 15.83 9.5 21.5s12.17 8.5 19.5 8.5h10c16 0 23-10 21-30l-16-128c-.67-8.67-3.83-15.83-9.5-21.5S437.33 81 430 81Z" horiz-adv-x="595" vert-adv-y="1000"/><glyph glyph-name="uni26" unicode="&amp;" d="M101-4h45c34.67 0 63.83 9.33 87.5 28s37.17 43.33 40.5 74l29 231h47l12 99H172c-16 0-23 10-21 30l14 112c.67 10.67 3.83 19.33 9.5 26 5.67 6.67 12.17 10 19.5 10h10c16 0 23-12 21-36l-11-87h107l13 106c4.67 34.67-2.17 62.5-20.5 83.5S268.67 704 234 704h-45c-34.67 0-63.83-10.5-87.5-31.5S63.67 623.67 59 589L46 476c-4.67-42 5.67-74.33 31-97-31.33-22-49.67-54.67-55-98L-1 98c-3.33-30.67 4.17-55.33 22.5-74S66.33-4 101-4Zm8 127 22 176c.67 8.67 3.83 15.83 9.5 21.5s12.17 8.5 19.5 8.5h35l-26-206c-2-19.33-11.33-29-28-29h-10c-16.67 0-24 9.67-22 29Z" horiz-adv-x="358" vert-adv-y="1000"/><glyph glyph-name="uni27" unicode="'" d="M34 435h81l41 265H57Z" horiz-adv-x="128" vert-adv-y="1000"/><glyph glyph-name="uni28" unicode="(" d="M-10 21c-4.67-36.67 2.33-66 21-88s45.33-33 80-33h29l11 90h-29c-8 0-14 2.83-18 8.5S78.67 11.67 80 21l74 608c.67 9.33 4 16.83 10 22.5 6 5.67 13 8.5 21 8.5h28l11 90h-29c-34.67 0-64-11-88-33s-38.33-51.33-43-88Z" horiz-adv-x="180" vert-adv-y="1000"/><glyph glyph-name="uni29" unicode=")" d="M-50-100h29c35.33 0 64.83 11 88.5 33s37.83 51.33 42.5 88l74 608c4.67 36.67-2.33 66-21 88s-45.33 33-80 33H54l-11-90h29c16.67 0 24-10.33 22-31L20 21C18.67 11.67 15.17 4.17 9.5-1.5 3.83-7.17-3-10-11-10h-28Z" horiz-adv-x="180" vert-adv-y="1000"/><glyph glyph-name="uni2a" unicode="*" d="m35 588 76-33-84-34 39-67 55 55-28-87h83l-7 86 41-54 56 67-76 35 83 32-39 67-53-52 28 88h-82l6-89-43 53Z" horiz-adv-x="250" vert-adv-y="1000"/><glyph glyph-name="uni2b" unicode="+" d="M30 305h92l1-96h90v96h92v90h-92v96h-90v-96H30Z" horiz-adv-x="335" vert-adv-y="1000"/><glyph glyph-name="uni2c" unicode="," d="M-42-120h89l68 241H8Z" horiz-adv-x="169" vert-adv-y="1000"/><glyph glyph-name="uni2d" unicode="-" d="M5 225h176l11 90H15Z" horiz-adv-x="216" vert-adv-y="1000"/><glyph glyph-name="uni2e" unicode="." d="M-17 0H90l15 121H-3Z" horiz-adv-x="159" vert-adv-y="1000"/><glyph glyph-name="uni2f" unicode="/" d="M-55-100h90l254 850h-90Z" horiz-adv-x="240" vert-adv-y="1000"/><glyph glyph-name="uni30" unicode="0" d="M1 116c-4.67-36 2.17-65 20.5-87S66.33-4 101-4h45c34.67 0 64 11 88 33s38 51 42 87l58 468c4.67 36-2.17 65-20.5 87s-44.83 33-79.5 33h-45c-34.67 0-63.83-11-87.5-33S63.67 620 59 584Zm130-22c-7.33 0-13 2.83-17 8.5s-5.33 12.83-4 21.5l55 452c3.33 20 13 30 29 30h10c7.33 0 13-2.83 17-8.5s5.33-12.83 4-21.5l-55-452c-3.33-20-13-30-29-30Z" horiz-adv-x="335" vert-adv-y="1000"/><glyph glyph-name="uni31" unicode="1" d="M143 548 75 0h108l86 700h-98c-3.33-26-15.33-46.83-36-62.5-20.67-15.67-46.67-23.17-78-22.5l-8-67Z" horiz-adv-x="277" vert-adv-y="1000"/><glyph glyph-name="uni32" unicode="2" d="m260 0 13 99H102l9 76c2.67 14.67 8 25.67 16 33l132 142c32 34 50 71.67 54 113l16 126c4.67 34.67-2.17 62.5-20.5 83.5S263.67 704 229 704h-45c-34.67 0-63.83-10.5-87.5-31.5S58.67 623.67 54 589L41 483h108l11 87c.67 10.67 3.83 19.33 9.5 26 5.67 6.67 12.17 10 19.5 10h10c16 0 23-12 21-36l-15-119c-2.67-14.67-8-25.67-16-33L57 276C25.67 244.67 7.33 207.67 2 165L-18 0Z" horiz-adv-x="324" vert-adv-y="1000"/><glyph glyph-name="uni33" unicode="3" d="M-6 98c-3.33-30.67 4.17-55.33 22.5-74S61.33-4 96-4h45c34.67 0 63.83 9.33 87.5 28s37.17 43.33 40.5 74l23 183c5.33 43.33-5.33 76-32 98 31.33 22 50 54.33 56 97l13 113c4.67 34.67-2.17 62.5-20.5 83.5S263.67 704 229 704h-45c-34.67 0-63.83-10.5-87.5-31.5S58.67 623.67 54 589L41 483h108l11 87c.67 10.67 3.83 19.33 9.5 26 5.67 6.67 12.17 10 19.5 10h10c16 0 23-12 21-36l-14-112c-.67-8.67-3.83-15.83-9.5-21.5S184.33 428 177 428h-38l-11-99h37c16 0 23-10 21-30l-22-176c-2-19.33-11.33-29-28-29h-10c-16.67 0-24 9.67-22 29l14 113H11Z" horiz-adv-x="330" vert-adv-y="1000"/><glyph glyph-name="uni34" unicode="4" d="m295 143 13 98h-39l56 459H174L-3 241l-13-98h165L131 0h108l17 143ZM90 241l88 234c8.67 20 18 49.67 28 89l2-1c-10.67-40.67-16.67-70.67-18-90l-29-232Z" horiz-adv-x="331" vert-adv-y="1000"/><glyph glyph-name="uni35" unicode="5" d="M-1 98c-4-30.67 3.33-55.33 22-74S66.33-4 101-4h45c34.67 0 63.83 10.67 87.5 32s37.83 49.33 42.5 84l25 209c4.67 38.67-.17 69.67-14.5 93S251 449 223 449h-38c-12 0-24.33-3.67-37-11l20 163h145l12 99H72L27 329h107l1 1c.67 8.67 3.67 15.67 9 21s11.67 8 19 8h11c16 0 23-10 21-30l-25-201c-.67-10.67-3.83-19-9.5-25s-12.17-9-19.5-9h-10c-16.67 0-24 9.67-22 29l14 113H15Z" horiz-adv-x="330" vert-adv-y="1000"/><glyph glyph-name="uni36" unicode="6" d="M-1 98c-3.33-30.67 4.17-55.33 22.5-74S66.33-4 101-4h45c34.67 0 64 10.67 88 32s38 49.33 42 84l24 194c4.67 38.67-.17 69.83-14.5 93.5S249.67 435 221 435h-37c-14 0-26.33-4-37-12l18 147c.67 10.67 3.83 19.33 9.5 26 5.67 6.67 12.17 10 19.5 10h10c16 0 23-12 21-36l-11-87h107l13 106c4.67 34.67-2.17 62.5-20.5 83.5S268.67 704 234 704h-45c-34.67 0-63.83-10.5-87.5-31.5S63.67 623.67 59 589Zm132-4c-16.67 0-24 9.67-22 29l24 192v1c3.33 19.33 13 29 29 29h10c16 0 23-10 21-30l-23-187c-.67-10.67-3.83-19-9.5-25s-12.17-9-19.5-9Z" horiz-adv-x="330" vert-adv-y="1000"/><glyph glyph-name="uni37" unicode="7" d="M-2 0h106l204 637 8 63H53l-12-99h152Z" horiz-adv-x="293" vert-adv-y="1000"/><glyph glyph-name="uni38" unicode="8" d="M-1 98c-3.33-30.67 4.17-55.33 22.5-74S66.33-4 101-4h45c34.67 0 63.83 9.33 87.5 28s37.17 43.33 40.5 74l23 183c5.33 43.33-5.33 76-32 98 31.33 22 50 54.33 56 97l13 113c4.67 34.67-2.17 62.5-20.5 83.5S268.67 704 234 704h-45c-34.67 0-63.83-10.5-87.5-31.5S63.67 623.67 59 589L46 476c-6-42 4.33-74.33 31-97-31.33-22-49.67-54.67-55-98Zm132-4c-16.67 0-24 9.67-22 29l22 176c.67 8.67 3.83 15.83 9.5 21.5s12.17 8.5 19.5 8.5h10c16 0 23-10 21-30l-22-176c-2-19.33-11.33-29-28-29Zm41 334c-16 0-23 10-21 30l14 112c.67 10.67 3.83 19.33 9.5 26 5.67 6.67 12.17 10 19.5 10h10c16 0 23-12 21-36l-14-112c-.67-8.67-3.83-15.83-9.5-21.5S189.33 428 182 428Z" horiz-adv-x="335" vert-adv-y="1000"/><glyph glyph-name="uni39" unicode="9" d="M-4 111c-4.67-34.67 2.17-62.5 20.5-83.5S61.33-4 96-4h45c34.67 0 63.83 10.5 87.5 31.5S266.33 76.33 271 111l60 491c3.33 31.33-4.17 56.17-22.5 74.5S263.67 704 229 704h-45c-34.67 0-63.83-10.67-87.5-32S58.67 622.67 54 588L31 404c-4.67-38.67.17-69.83 14.5-93.5S81.33 275 110 275h37c13.33 0 26 4 38 12l-20-157c-.67-10.67-3.83-19.33-9.5-26-5.67-6.67-12.17-10-19.5-10h-10c-16 0-23 12-21 36l11 87H9Zm163 254c-16 0-23 10-21 30l22 177c.67 10.67 3.83 19 9.5 25s12.17 9 19.5 9h10c16.67 0 24-9.67 22-29l-23-182v-1c-3.33-19.33-13-29-29-29Z" horiz-adv-x="330" vert-adv-y="1000"/><glyph glyph-name="uni3a" unicode=":" d="M-17 0H90l15 121H-3Zm44 359h107l15 121H42Z" horiz-adv-x="159" vert-adv-y="1000"/><glyph glyph-name="uni3b" unicode=";" d="M27 359h107l15 121H42Zm-79-479h89l68 241H-3Z" horiz-adv-x="159" vert-adv-y="1000"/><glyph glyph-name="uni3c" unicode="&lt;" d="M305 167v103l-147 80 147 80v103L20 369v-38Z" horiz-adv-x="335" vert-adv-y="1000"/><glyph glyph-name="uni3d" unicode="=" d="M30 380h275v90H30Zm0-60v-90h275v90Z" horiz-adv-x="335" vert-adv-y="1000"/><glyph glyph-name="uni3e" unicode="&gt;" d="M20 533V430l147-80-147-80V167l285 164v38Z" horiz-adv-x="335" vert-adv-y="1000"/><glyph glyph-name="uni3f" unicode="?" d="m149 457 15 120c2 13.33 9.67 20 23 20h30c13.33 0 19-6.67 17-20l-15-123c-1.33-7.33-4-13-8-17l-93-103c-5.33-5.33-7.67-11-7-17l-2-116h90l21 82c2.67 11.33 7 20 13 26l64 77c23.33 26 37 55.33 41 88l14 112c4 35.33-3.5 63.83-22.5 85.5S283.33 704 248 704h-65c-36 0-66.17-10.83-90.5-32.5S53.67 621.33 49 586L33 457ZM90 121 75 0h108l15 121Z" horiz-adv-x="343" vert-adv-y="1000"/><glyph glyph-name="uni40" unicode="@" d="M195-100h116l10 81H190c-34.67 0-60.83 13.83-78.5 41.5S87.67 86.33 93 131l31 257c5.33 41.33 20.17 74.67 44.5 100s53.83 38 88.5 38h113c34.67 0 61-10 79-30s25-46.67 21-80l-25-202c-2-20.67-5.83-37.67-11.5-51-5.67-13.33-11.83-20-18.5-20-12.67 0-17.33 16-14 48l29 239h-94l-3-27c-11.33 18-27.67 27-49 27h-38c-22.67 0-42-9.67-58-29s-25.67-44.67-29-76l-19-153c-4-31.33-.33-56.5 11-75.5S179.33 68 202 68h37c32.67 0 57.33 18 74 54 14-40 43.67-60 89-60 35.33 0 65 13.5 89 40.5S529.67 166 535 212l27 215c6.67 54.67-8.17 98.5-44.5 131.5S430 608 364 608h-83c-65.33 0-120.67-20.17-166-60.5S42.67 454.33 34 389L2 128C-6 59.33 7.67 4.17 43-37.5S129-100 195-100Zm44 278 18 142c2 13.33 9.67 20 23 20h20c13.33 0 19-6.67 17-20l-18-142c-1.33-13.33-8.67-20-22-20h-20c-13.33 0-19.33 6.67-18 20Z" horiz-adv-x="582" vert-adv-y="1000"/><glyph glyph-name="uni41" unicode="A" d="m70 0 35 150h82L185 0h108l-1 700H137L-37 0Zm59 249 52 225c5.33 25.33 10.67 55.67 16 91h2c-4.67-32.67-7-63-7-91l-3-225Z" horiz-adv-x="341" vert-adv-y="1000"/><glyph glyph-name="uni42" unicode="B" d="M176 0c35.33 0 65.17 10.17 89.5 30.5S304 77.33 308 110l19 160c6 44.67-9.33 76.33-46 95 38.67 19.33 60 50 64 92l18 139c3.33 31.33-4.67 56.5-24 75.5S292.33 700 257 700H78L-8 0Zm-56 99 27 215h50c13.33 0 19.33-6.67 18-20l-22-175c-1.33-13.33-8.67-20-22-20Zm62 502h45c14 0 20-6.67 18-20l-19-148c-1.33-13.33-8.67-20-22-20h-45Z" horiz-adv-x="363" vert-adv-y="1000"/><glyph glyph-name="uni43" unicode="C" d="M110-4h65c35.33 0 65.33 10.83 90 32.5s39 50.17 43 85.5l16 124H207l-13-115c-2-13.33-9.67-20-23-20h-30c-13.33 0-19 6.67-17 20l55 454c2 13.33 9.67 20 23 20h30c13.33 0 19-6.67 17-20l-15-120h117l16 129c4 35.33-3.5 63.83-22.5 85.5S298.33 704 263 704h-65c-36 0-66.17-10.83-90.5-32.5S68.67 621.33 64 586L6 114C1.33 78.67 8.67 50.17 28 28.5S74.67-4 110-4Z" horiz-adv-x="368" vert-adv-y="1000"/><glyph glyph-name="uni44" unicode="D" d="M-8 0h184c35.33 0 65.17 11 89.5 33s38.83 50.67 43.5 86l57 462c4.67 36-2.67 64.83-22 86.5S297.33 700 262 700H78Zm128 99 62 502h50c13.33 0 19.33-6.67 18-20l-57-462c-1.33-13.33-8.67-20-22-20Z" horiz-adv-x="373" vert-adv-y="1000"/><glyph glyph-name="uni45" unicode="E" d="M-8 0h228l12 99H120l25 202h102l12 98H157l25 202h111l13 99H78Z" horiz-adv-x="287" vert-adv-y="1000"/><glyph glyph-name="uni46" unicode="F" d="M-8 0h116l37 301h102l12 98H157l25 202h111l13 99H78Z" horiz-adv-x="277" vert-adv-y="1000"/><glyph glyph-name="uni47" unicode="G" d="M110-4h65c35.33 0 65.33 10.83 90 32.5s39 50.17 43 85.5l32 259H183l-11-99h40l-18-151c-2-13.33-9.67-20-23-20h-30c-13.33 0-19 6.67-17 20l55 454c2 13.33 9.67 20 23 20h30c13.33 0 19-6.67 17-20l-15-120h117l16 129c4 35.33-3.5 63.83-22.5 85.5S298.33 704 263 704h-65c-36 0-66.17-10.83-90.5-32.5S68.67 621.33 64 586L6 114C1.33 78.67 8.67 50.17 28 28.5S74.67-4 110-4Z" horiz-adv-x="368" vert-adv-y="1000"/><glyph glyph-name="uni48" unicode="H" d="M-8 0h116l37 301h70L178 0h117l86 700H264l-37-301h-70l37 301H78Z" horiz-adv-x="373" vert-adv-y="1000"/><glyph glyph-name="uni49" unicode="I" d="M-8 0h116l86 700H78Z" horiz-adv-x="186" vert-adv-y="1000"/><glyph glyph-name="uni4a" unicode="J" d="M-14 114c-4.67-35.33 2.67-63.83 22-85.5S54.67-4 90-4h65c35.33 0 65.33 10.83 90 32.5s39 50.17 43 85.5l73 586H244l-70-577c-2-13.33-9.67-20-23-20h-30c-13.33 0-19 6.67-17 20l13 111H1Z" horiz-adv-x="353" vert-adv-y="1000"/><glyph glyph-name="uni4b" unicode="K" d="m108 0 34 270L181 0h112l-65 359 146 341H262l-99-252 31 252H78L-8 0Z" horiz-adv-x="341" vert-adv-y="1000"/><glyph glyph-name="uni4c" unicode="L" d="m220 0 12 99H120l74 601H78L-8 0Z" horiz-adv-x="273" vert-adv-y="1000"/><glyph glyph-name="uni4d" unicode="M" d="M-13 0H95l58 476c3.33 23.33 5.67 54 7 92h2c-2-56-3-86.67-3-92l4-476h120l120 473c9.33 44.67 15.67 75.33 19 92h2c-8-44-13-74.67-15-92L351 0h107l86 700H370L254 208c-8-30-13-60.67-15-92h-2c4 56 6 86.67 6 92l4 492H73Z" horiz-adv-x="531" vert-adv-y="1000"/><glyph glyph-name="uni4e" unicode="N" d="m104 0 36 293c3.33 30 5 60 5 90l2 1c0-37.33 1.67-67.33 5-90L183 0h112l86 700H269l-36-293c-3.33-31.33-5-61.67-5-91l-2-1c0 37.33-1.67 67.33-5 90l-31 295H78L-8 0Z" horiz-adv-x="373" vert-adv-y="1000"/><glyph glyph-name="uni4f" unicode="O" d="M6 114C1.33 78.67 8.67 50.17 28 28.5S74.67-4 110-4h65c35.33 0 65.33 10.83 90 32.5s39 50.17 43 85.5l59 472c4 35.33-3.5 63.83-22.5 85.5S298.33 704 263 704h-65c-36 0-66.17-10.83-90.5-32.5S68.67 621.33 64 586Zm135-11c-13.33 0-19 6.67-17 20l55 454c2 13.33 9.67 20 23 20h30c13.33 0 19-6.67 17-20l-55-454c-2-13.33-9.67-20-23-20Z" horiz-adv-x="373" vert-adv-y="1000"/><glyph glyph-name="uni50" unicode="P" d="M-8 0h116l36 291h68c35.33 0 65.17 10.83 89.5 32.5s38.83 50.17 43.5 85.5l21 172c4.67 36-2.67 64.83-22 86.5S297.33 700 262 700H78Zm190 601h50c13.33 0 19.33-6.67 18-20l-21-172c-1.33-13.33-8.67-20-22-20h-51Z" horiz-adv-x="353" vert-adv-y="1000"/><glyph glyph-name="uni51" unicode="Q" d="M6 114C2 82.67 7.33 56.5 22 35.5S58.67 1.67 88-3l-4-36c-4.67-35.33 2.5-64 21.5-86s46.5-33 82.5-33h44l12 99h-27c-18.67 0-27 9.67-25 29l3 27c30.67 4 56.33 16.5 77 37.5S304.67 82 308 114l59 472c4 35.33-3.5 63.83-22.5 85.5S298.33 704 263 704h-65c-36 0-66.17-10.83-90.5-32.5S68.67 621.33 64 586Zm135-11c-13.33 0-19 6.67-17 20l55 454c2 13.33 9.67 20 23 20h30c13.33 0 19-6.67 17-20l-55-454c-2-13.33-9.67-20-23-20Z" horiz-adv-x="373" vert-adv-y="1000"/><glyph glyph-name="uni52" unicode="R" d="M-8 0h116l36 291h30L199 0h108l-27 308c37.33 21.33 59 55 65 101l21 172c4.67 36-2.67 64.83-22 86.5S297.33 700 262 700H78Zm190 601h50c13.33 0 19.33-6.67 18-20l-21-172c-1.33-13.33-8.67-20-22-20h-51Z" horiz-adv-x="360" vert-adv-y="1000"/><glyph glyph-name="uni53" unicode="S" d="M100-4h65c35.33 0 65.33 10.83 90 32.5s39 50.17 43 85.5l16 125c2.67 21.33-.17 42.5-8.5 63.5S284.67 340 268 352l-100 89c-10 7.33-14 17-12 29l13 107c2 13.33 9.67 20 23 20h30c13.33 0 19-6.67 17-20l-15-120h117l16 129c4 35.33-3.5 63.83-22.5 85.5S288.33 704 253 704h-65c-36 0-66.17-10.83-90.5-32.5S58.67 621.33 54 586L40 472c-2.67-21.33.17-42.5 8.5-63.5S69.33 371 86 359l100-88c9.33-8 13.33-18 12-30l-14-118c-2-13.33-9.67-20-23-20h-30c-13.33 0-19 6.67-17 20l14 120H12L-4 114c-4.67-35.33 2.67-63.83 22-85.5S64.67-4 100-4Z" horiz-adv-x="353" vert-adv-y="1000"/><glyph glyph-name="uni54" unicode="T" d="m324 601 12 99H48l-12-99h86L48 0h116l74 601Z" horiz-adv-x="298" vert-adv-y="1000"/><glyph glyph-name="uni55" unicode="U" d="M6 114C1.33 78.67 8.67 50.17 28 28.5S74.67-4 110-4h65c35.33 0 65.33 10.83 90 32.5s39 50.17 43 85.5l73 586H264l-70-577c-2-13.33-9.67-20-23-20h-30c-13.33 0-19 6.67-17 20l70 577H78Z" horiz-adv-x="373" vert-adv-y="1000"/><glyph glyph-name="uni56" unicode="V" d="m199 0 168 700H259L153 218c-5.33-25.33-10-55.67-14-91h-2c4.67 42 7 72.33 7 91l12 482H48L44 0Z" horiz-adv-x="329" vert-adv-y="1000"/><glyph glyph-name="uni57" unicode="W" d="m195 0 106 483c6 23.33 11 53.67 15 91h2c-4.67-44-7.33-74.33-8-91L299 0h155l163 700H509L407 218c-2-11.33-6.67-41.67-14-91h-2c4.67 31.33 7 61.67 7 91l16 482H251L149 218c-3.33-15.33-8.33-45.67-15-91h-2c5.33 36 8 66.33 8 91l16 482H48L40 0Z" horiz-adv-x="579" vert-adv-y="1000"/><glyph glyph-name="uni58" unicode="X" d="m74 0 57 154c10.67 26 18 55.67 22 89h2c-4-33.33-4.33-63-1-89L174 0h112l-59 359 140 341H255l-51-136c-10.67-31.33-17.67-61-21-89h-2c4 37.33 4 67 0 89l-16 136H53l57-341L-38 0Z" horiz-adv-x="334" vert-adv-y="1000"/><glyph glyph-name="uni59" unicode="Y" d="m49 700 46-446L63 0h117l32 255 155 445H257l-69-229c-6.67-22-12.67-52.33-18-91h-2c4.67 34.67 5.67 65 3 91l-12 229Z" horiz-adv-x="330" vert-adv-y="1000"/><glyph glyph-name="uni5a" unicode="Z" d="m209 0 12 99H92l193 520 10 81H54l-12-99h128L-22 81-32 0Z" horiz-adv-x="263" vert-adv-y="1000"/><glyph glyph-name="uni5b" unicode="[" d="M-25-100h156l11 90H76l82 670h67l10 90H79Z" horiz-adv-x="191" vert-adv-y="1000"/><glyph glyph-name="uni5c" unicode="\" d="m49 750 46-850h90l-46 850Z" horiz-adv-x="240" vert-adv-y="1000"/><glyph glyph-name="uni5d" unicode="]" d="m106-100 104 850H54l-11-90h66L27-10h-66l-11-90Z" horiz-adv-x="191" vert-adv-y="1000"/><glyph glyph-name="uni5e" unicode="^" d="M16 414h95l52 139 52-139h95L182 700h-37Z" horiz-adv-x="335" vert-adv-y="1000"/><glyph glyph-name="uni5f" unicode="_" d="M0-140h183v90H0Z" horiz-adv-x="183" vert-adv-y="1000"/><glyph glyph-name="uni60" unicode="`" d="M208 868H93l59-149h84Z" horiz-adv-x="221" vert-adv-y="1000"/><glyph glyph-name="uni61" unicode="a" d="M0 106c-4-33.33-.17-60 11.5-80S40.67-4 64-4h39c21.33 0 39.67 7.67 55 23l-2-19h107l46 374c4 33.33-2.83 60-20.5 80s-42.83 30-75.5 30h-55c-33.33 0-61.33-10.17-84-30.5S38 406.67 34 374l-6-48h108l4 35c.67 6 3.17 11.67 7.5 17s9.5 8 15.5 8h20c6 0 10.5-2.5 13.5-7.5s4.17-10.83 3.5-17.5l-11-88c-11.33 15.33-27.33 23-48 23h-39c-24 0-44.33-10-61-30s-27-46.67-31-80Zm126-12c-13.33 0-19.33 6.67-18 20l8 64c2 13.33 9.67 20 23 20h20c13.33 0 19-6.67 17-20l-8-64c-1.33-13.33-8.67-20-22-20Z" horiz-adv-x="336" vert-adv-y="1000"/><glyph glyph-name="uni62" unicode="b" d="m95 0 2 19c11.33-15.33 27.33-23 48-23h39c24 0 44.33 10 61 30s27 46.67 31 80l33 268c4 33.33.17 60-11.5 80s-29.17 30-52.5 30h-39c-21.33 0-39.67-8-55-24l32 260H75L-13 0Zm32 94c-13.33 0-19.33 6.67-18 20l32 252c1.33 13.33 8.67 20 22 20h20c13.33 0 19.33-6.67 18-20l-32-252c-1.33-13.33-8.67-20-22-20Z" horiz-adv-x="336" vert-adv-y="1000"/><glyph glyph-name="uni63" unicode="c" d="M96-4h55c33.33 0 61.33 10.17 84 30.5s36 46.83 40 79.5l10 80H177l-9-72c-1.33-13.33-8.67-20-22-20h-20c-13.33 0-19.33 6.67-18 20l32 252c1.33 13.33 8.67 20 22 20h20c13.33 0 19.33-6.67 18-20l-9-72h107l10 80c4 33.33-2.83 60-20.5 80s-42.83 30-75.5 30h-55c-33.33 0-61.33-10.17-84-30.5S37 406.67 33 374L0 106c-4-33.33 2.83-60 20.5-80S63.33-4 96-4Z" horiz-adv-x="325" vert-adv-y="1000"/><glyph glyph-name="uni64" unicode="d" d="M0 106c-4-33.33-.17-60 11.5-80S40.67-4 64-4h39c21.33 0 39.67 7.67 55 23l-2-19h107l88 720H244l-32-258c-11.33 14.67-27.33 22-48 22h-39c-23.33 0-43.5-10.17-60.5-30.5S37 406.67 33 374Zm126-12c-13.33 0-19.33 6.67-18 20l32 252c1.33 13.33 8.67 20 22 20h20c13.33 0 19.33-6.67 18-20l-32-252c-1.33-13.33-8.67-20-22-20Z" horiz-adv-x="336" vert-adv-y="1000"/><glyph glyph-name="uni65" unicode="e" d="M96-4h55c33.33 0 61.33 10.17 84 30.5s36 46.83 40 79.5l7 58H174l-6-50c-1.33-13.33-8.67-20-22-20h-20c-13.33 0-19.33 6.67-18 20l11 85h168l21 175c4 33.33-2.83 60-20.5 80s-42.83 30-75.5 30h-55c-33.33 0-61.33-10.17-84-30.5S37 406.67 33 374L0 106c-4-33.33 2.83-60 20.5-80S63.33-4 96-4Zm34 293 10 77c1.33 13.33 8.67 20 22 20h20c13.33 0 19.33-6.67 18-20l-10-77Z" horiz-adv-x="334" vert-adv-y="1000"/><glyph glyph-name="uni66" unicode="f" d="m244 390 11 90h-73l14 119c3.33 14.67 12 22 26 22h50l12 99h-68c-33.33 0-61.5-10.33-84.5-31S95 641.33 91 608L75 480H25l-10-90h49L16 0h107l48 390Z" horiz-adv-x="248" vert-adv-y="1000"/><glyph glyph-name="uni67" unicode="g" d="M-21-84c-4-32.67 2.83-59.17 20.5-79.5S42.67-194 76-194h53c33.33 0 61.33 10.17 84 30.5s36 46.83 40 79.5l69 564H215l-3-19c-11.33 15.33-27.33 23-48 23h-39c-23.33 0-43.5-10.17-60.5-30.5S37 406.67 33 374L0 106c-4-33.33-.17-60 11.5-80S40.67-4 64-4h39c22 0 40.33 8 55 24l-12-96c-1.33-13.33-8.67-20-22-20h-18c-13.33 0-19.33 6.67-18 20l5 37H-15ZM126 94c-13.33 0-19.33 6.67-18 20l32 252c1.33 13.33 8.67 20 22 20h20c13.33 0 19.33-6.67 18-20l-32-252c-1.33-13.33-8.67-20-22-20Z" horiz-adv-x="336" vert-adv-y="1000"/><glyph glyph-name="uni68" unicode="h" d="m95 0 45 367c2 12.67 9.33 19 22 19h20c13.33 0 19.33-6.67 18-20L155 0h107l46 374c4 33.33.17 60-11.5 80s-29.17 30-52.5 30h-39c-20 0-38-7.33-54-22l32 258H75L-13 0Z" horiz-adv-x="335" vert-adv-y="1000"/><glyph glyph-name="uni69" unicode="i" d="M-13 0H95l59 480H46Zm70 573h108l15 121H72Z" horiz-adv-x="168" vert-adv-y="1000"/><glyph glyph-name="uni6a" unicode="j" d="M-50-190c36.67 0 67.33 11 92 33s39.33 51.33 44 88l68 549H46L-20-60c-.67-9.33-4.5-16.83-11.5-22.5-7-5.67-15.17-8.5-24.5-8.5h-25l-11-99ZM57 573h108l15 121H72Z" horiz-adv-x="168" vert-adv-y="1000"/><glyph glyph-name="uni6b" unicode="k" d="m95 0 21 177L164 0h112l-70 244 126 236H220l-88-170 51 410H75L-13 0Z" horiz-adv-x="324" vert-adv-y="1000"/><glyph glyph-name="uni6c" unicode="l" d="M-13 0H95l88 720H75Z" horiz-adv-x="168" vert-adv-y="1000"/><glyph glyph-name="uni6d" unicode="m" d="M-13 0H95l45 366v1c2 12.67 9.33 19 22 19h20c13.33 0 19.33-6.67 18-20L155 0h107l46 374c4 8 10.33 12 19 12h22c13.33 0 19.33-6.67 18-20L322 0h108l46 374c4 33.33-1 60-15 80s-34.33 30-61 30h-46c-24 0-44.67-7.67-62-23-11.33 15.33-27.33 23-48 23h-39c-20 0-38-7.33-54-22l3 18H46Z" horiz-adv-x="503" vert-adv-y="1000"/><glyph glyph-name="uni6e" unicode="n" d="m95 0 45 366v1c2 12.67 9.33 19 22 19h20c13.33 0 19.33-6.67 18-20L155 0h107l46 374c4 33.33.17 60-11.5 80s-29.17 30-52.5 30h-39c-20 0-38-7.33-54-22l3 18H46L-13 0Z" horiz-adv-x="335" vert-adv-y="1000"/><glyph glyph-name="uni6f" unicode="o" d="M0 106c-4-33.33 2.83-60 20.5-80S63.33-4 96-4h55c33.33 0 61.33 10.17 84 30.5s36 46.83 40 79.5l33 268c4 33.33-2.83 60-20.5 80s-42.83 30-75.5 30h-55c-33.33 0-61.33-10.17-84-30.5S37 406.67 33 374Zm126-12c-13.33 0-19.33 6.67-18 20l32 252c1.33 13.33 8.67 20 22 20h20c13.33 0 19.33-6.67 18-20l-32-252c-1.33-13.33-8.67-20-22-20Z" horiz-adv-x="335" vert-adv-y="1000"/><glyph glyph-name="uni70" unicode="p" d="M-36-190H72L97 19c11.33-15.33 27.33-23 48-23h39c24 0 44.33 10 61 30s27 46.67 31 80l33 268c4 33.33.17 60-11.5 80s-29.17 30-52.5 30h-39c-21.33 0-39.67-7.67-55-23l3 19H46ZM127 94c-13.33 0-19.33 6.67-18 20l32 252c1.33 13.33 8.67 20 22 20h20c13.33 0 19.33-6.67 18-20l-32-252c-1.33-13.33-8.67-20-22-20Z" horiz-adv-x="336" vert-adv-y="1000"/><glyph glyph-name="uni71" unicode="q" d="M0 106c-4-33.33-.17-60 11.5-80S40.67-4 64-4h39c22 0 40.33 8 55 24l-25-210h107l82 670H215l-3-19c-11.33 15.33-27.33 23-48 23h-39c-23.33 0-43.5-10.17-60.5-30.5S37 406.67 33 374Zm126-12c-13.33 0-19.33 6.67-18 20l32 252c1.33 13.33 8.67 20 22 20h20c13.33 0 19.33-6.67 18-20l-32-252c-1.33-13.33-8.67-20-22-20Z" horiz-adv-x="336" vert-adv-y="1000"/><glyph glyph-name="uni72" unicode="r" d="M-13 0H95l42 346c1.33 12 7.33 21.67 18 29 10.67 7.33 23.67 11 39 11h46l12 98h-37c-24.67 0-46.33-10.33-65-31l4 27H46Z" horiz-adv-x="245" vert-adv-y="1000"/><glyph glyph-name="uni73" unicode="s" d="M96-4h55c32.67 0 60.33 10 83 30s36 46.67 40 80l10 78c2 19.33-1.33 36.83-10 52.5-8.67 15.67-21.67 26.83-39 33.5l-90 36c-11.33 3.33-16.33 11.67-15 25l5 35c1.33 13.33 8.67 20 22 20h20c13.33 0 19.33-6.67 18-20l-6-42h108l6 50c4 33.33-2.83 60-20.5 80s-42.83 30-75.5 30h-55c-33.33 0-61.33-10.17-84-30.5S32 406.67 28 374l-8-66c-2.67-19.33.67-36.83 10-52.5 9.33-15.67 22.67-26.83 40-33.5l89-36c11.33-4.67 16.33-13.33 15-26l-6-46c-1.33-13.33-8.67-20-22-20h-20c-13.33 0-19.33 6.67-18 20l6 47H6l-7-55c-4-32.67 2.83-59.17 20.5-79.5S62.67-4 96-4Z" horiz-adv-x="324" vert-adv-y="1000"/><glyph glyph-name="uni74" unicode="t" d="M10 390h49L25 113c-4-34 3-61.33 21-82S90 0 124 0h67l13 99h-50c-14.67 0-21.33 7.33-20 22l33 269h73l10 90h-72l12 100H82L70 480H21Z" horiz-adv-x="249" vert-adv-y="1000"/><glyph glyph-name="uni75" unicode="u" d="M0 106c-4-33.33-.17-60 11.5-80S40.67-4 64-4h39c20 0 38 7.33 54 22l-2-18h107l59 480H214l-46-366v-1c-1.33-12.67-8.67-19-22-19h-20c-13.33 0-19.33 6.67-18 20l46 366H46Z" horiz-adv-x="335" vert-adv-y="1000"/><glyph glyph-name="uni76" unicode="v" d="M22 480 44 0h138l139 480H217l-74-291c-6-22-12-52.33-18-91h-2c4.67 31.33 7 61.67 7 91l-3 291Z" horiz-adv-x="311" vert-adv-y="1000"/><glyph glyph-name="uni77" unicode="w" d="M22 480 39 0h124l71 289c6 22 11 52.33 15 91h2c-4-36-6-66.33-6-91L244 0h125l135 480H399l-70-291c-7.33-28-12.67-58.33-16-91h-2c4.67 42 7 72.33 7 91l1 291H207l-70-291c-4.67-17.33-10.33-47.67-17-91h-2c5.33 36 8 66.33 8 91l1 291Z" horiz-adv-x="494" vert-adv-y="1000"/><glyph glyph-name="uni78" unicode="x" d="M-38 0H75l37 74c15.33 28.67 25 57.67 29 87h2c-4.67-31.33-2.67-60.67 6-88l19-73h112l-72 244 128 236H224l-33-66c-14.67-24.67-24-54-28-88h-2c3.33 30 1 59.33-7 88l-17 66H24l71-236Z" horiz-adv-x="328" vert-adv-y="1000"/><glyph glyph-name="uni79" unicode="y" d="M0-190h33c64.67 0 108.67 40.33 132 121l157 549H218l-75-284c-6-24.67-11.67-55-17-91h-2c4.67 32.67 7 63 7 91l-4 284H22L46 0h43L73-60c-2.67-9.33-8.5-16.83-17.5-22.5-9-5.67-18.17-8.5-27.5-8.5H11Z" horiz-adv-x="312" vert-adv-y="1000"/><glyph glyph-name="uni7a" unicode="z" d="M-33 0h237l11 90H97l157 318 9 72H26l-11-90h119L-24 73Z" horiz-adv-x="257" vert-adv-y="1000"/><glyph glyph-name="uni7b" unicode="{" d="M12 280h18c17.33 0 25-10.33 23-31L25 21c-4.67-36.67 2.33-66 21-88s45.33-33 80-33h23l11 90h-23c-17.33 0-25 9.67-23 29l27 214c5.33 40.67-5 71.33-31 92 31.33 22.67 49 53.33 53 92l27 214c.67 8.67 3.83 15.67 9.5 21s12.5 8 20.5 8h23l10 90h-23c-34.67 0-64-11-88-33s-38.33-51.33-43-88L72 401c-1.33-9.33-4.83-16.83-10.5-22.5C55.83 372.83 49 370 41 370H22Z" horiz-adv-x="209" vert-adv-y="1000"/><glyph glyph-name="uni7c" unicode="|" d="M30-100h90v850H30Z" horiz-adv-x="150" vert-adv-y="1000"/><glyph glyph-name="uni7d" unicode="}" d="M-50-100h23c35.33 0 64.83 11 88.5 33S99.33-15.67 104 21l28 228c.67 9.33 3.83 16.83 9.5 22.5 5.67 5.67 12.5 8.5 20.5 8.5h19l11 90h-19c-16.67 0-24 10.33-22 31l28 228c4.67 36.67-2.33 66-21 88s-45.67 33-81 33H54l-11-90h23c17.33 0 25-9.67 23-29L63 417c-4.67-40 5.67-70.67 31-92-30.67-20-48.67-50.67-54-92L13 19C11.67 10.33 8.5 3.33 3.5-2S-8-10-16-10h-23Z" horiz-adv-x="209" vert-adv-y="1000"/><glyph glyph-name="uni7e" unicode="~" d="M15 292h87c0 26 7.33 39 22 39 6 0 13.5-4.17 22.5-12.5s20.83-16.67 35.5-25c14.67-8.33 31.67-12.5 51-12.5 34 0 61.17 11.5 81.5 34.5S345 369 345 407h-88c0-24.67-7.33-37-22-37-6.67 0-14.67 4-24 12s-21.33 16-36 24c-14.67 8-31.67 12-51 12-33.33 0-59.83-11.5-79.5-34.5S15 330 15 292Z" horiz-adv-x="358" vert-adv-y="1000"/><glyph glyph-name="unia1" unicode="¡" d="m134 359 15 121H42L27 359ZM67-190l48 469H26l-66-469Z" horiz-adv-x="159" vert-adv-y="1000"/><glyph glyph-name="unia2" unicode="¢" d="M102 106 88 0h73l13 106c31.33 2 57.33 13 78 33s33 45.67 37 77l10 80H191l-9-72c-2-13.33-9.67-20-23-20h-20c-13.33 0-19 6.67-17 20l31 252c2 13.33 9.67 20 23 20h20c13.33 0 19-6.67 17-20l-9-72h108l9 80c4 31.33-2 57-18 77s-39 31-69 33l13 106h-72l-14-106c-30.67-2-56.5-13-77.5-33S50 515.33 46 484L14 216c-4-32 2-58 18-78s39.33-30.67 70-32Z" horiz-adv-x="325" vert-adv-y="1000"/><glyph glyph-name="unia3" unicode="£" d="M-42 0h338l12 99H120l22 179h98l7 64h-97l29 235c2 13.33 9.67 20 23 20h30c13.33 0 19-6.67 17-20l-11-94h116l13 103c4 35.33-3.5 63.83-22.5 85.5S298.33 704 263 704h-65c-36 0-66.17-10.83-90.5-32.5S68.67 621.33 64 586L34 342H-1l-7-64h34L4 99h-34Z" horiz-adv-x="368" vert-adv-y="1000"/><glyph glyph-name="unia4" unicode="¤" d="m98 53 31 82c2 0 4.67-.17 8-.5 3.33-.33 6-.5 8-.5h45c2 0 4.83.17 8.5.5 3.67.33 6.17.5 7.5.5l32-82 76 30-35 91c17.33 20.67 26 47.33 26 80v192c0 31.33-8.67 58.33-26 81l35 91-76 30-32-83c-1.33 0-4 .17-8 .5-4 .33-6.67.5-8 .5h-45c-2 0-4.67-.17-8-.5-3.33-.33-5.67-.5-7-.5l-32 83-76-30 35-91c-18-22-27-49-27-81V254c0-31.33 8.67-58.33 26-81L22 83Zm40 384c0 20 8.33 30 25 30h10c16.67 0 25-10 25-30V263c0-20-8.33-30-25-30h-10c-16.67 0-25 10-25 30Z" horiz-adv-x="335" vert-adv-y="1000"/><glyph glyph-name="unia5" unicode="¥" d="M9 102h67L63 0h117l12 102h68l8 64h-67l4 34h66l9 63h-65l152 437H257l-69-229c-6.67-22-12.67-52.33-18-91h-2c4.67 34.67 5.67 65 3 91l-12 229H49l45-437H29l-8-63h68l-4-34H17Z" horiz-adv-x="330" vert-adv-y="1000"/><glyph glyph-name="unia6" unicode="¦" d="M120-100v351H30v-351Zm0 499v351H30V399Z" horiz-adv-x="150" vert-adv-y="1000"/><glyph glyph-name="unia7" unicode="§" d="M84-100h55c32.67 0 60.33 10 83 30s36 46.67 40 80l43 343c2 19.33-1.5 36.83-10.5 52.5-9 15.67-21.83 26.83-38.5 33.5l-90 35c-11.33 4-16.33 12.67-15 26l11 86c1.33 13.33 8.67 20 22 20h20c13.33 0 19.33-6.67 18-20l-6-42h108l6 50c4 33.33-2.83 60-20.5 80s-42.83 30-75.5 30h-55c-33.33 0-61.33-10.17-84-30.5S59 626.67 55 594L13 252c-2.67-18.67.5-36 9.5-52s22.17-27.33 39.5-34l90-36c11.33-4.67 16.33-13 15-25l-10-86c-2-13.33-9.67-20-23-20h-20c-13.33 0-19 6.67-17 20l5 42H-6l-7-51c-4.67-32.67 2-59.17 20-79.5S50.67-100 84-100Zm40 375 11 98 45-18c11.33-4.67 16.33-13.33 15-26l-13-99-44 20c-11.33 4.67-16 13-14 25Z" horiz-adv-x="324" vert-adv-y="1000"/><glyph glyph-name="unia8" unicode="¨" d="m167 720 13 106H88L75 720Zm123 0 14 106h-92l-13-106Z" horiz-adv-x="275" vert-adv-y="1000"/><glyph glyph-name="unia9" unicode="©" d="M30 185c0-56.67 16.83-102.5 50.5-137.5S158.67-5 214-5h72c55.33 0 99.83 17.5 133.5 52.5S470 128.33 470 185v330c0 56.67-16.83 102.5-50.5 137.5S341.33 705 286 705h-72c-55.33 0-99.83-17.5-133.5-52.5S30 571.67 30 515Zm81 330c0 34 9.5 61.33 28.5 82s43.83 31 74.5 31h72c30.67 0 55.5-10.33 74.5-31s28.5-48 28.5-82V185c0-34-9.5-61.33-28.5-82S316.67 72 286 72h-72c-30.67 0-55.5 10.33-74.5 31S111 151 111 185Zm122 14c-22.67 0-41.17-7.17-55.5-21.5-14.33-14.33-21.5-33.17-21.5-56.5V250c0-23.33 7-42.17 21-56.5 14-14.33 32.67-21.5 56-21.5h39c23.33 0 42.17 7.17 56.5 21.5 14.33 14.33 21.5 33.17 21.5 56.5v56h-76v-50c0-9.33-4.67-14-14-14h-14c-9.33 0-14 4.67-14 14v189c0 9.33 4.67 14 14 14h14c9.33 0 14-4.67 14-14v-51h76v57c0 23.33-7.33 42.17-22 56.5-14.67 14.33-33.33 21.5-56 21.5Z" horiz-adv-x="500" vert-adv-y="1000"/><glyph glyph-name="uniaa" unicode="ª" d="M33 430c-3.33-25.33-.5-45.5 8.5-60.5S64 347 82 347h29c15.33 0 28.67 5.67 40 17l-2-14h82l34 281c3.33 24.67-1.83 44.67-15.5 60-13.67 15.33-32.83 23-57.5 23h-41c-24.67 0-45.67-7.67-63-23s-27.33-35.33-30-60l-5-36h81l3 26c.67 4.67 2.67 8.83 6 12.5s7.33 5.5 12 5.5h15c9.33 0 13.33-6 12-18l-8-66c-8 11.33-20 17-36 17h-29c-18 0-33.17-7.5-45.5-22.5-12.33-15-19.83-35.17-22.5-60.5Zm95-8c-10.67 0-15 5-13 15l6 46c1.33 10 7 15 17 15h15c8.67 0 13-4 13-12l-6-52c-3.33-8-9-12-17-12Z" horiz-adv-x="254" vert-adv-y="1000"/><glyph glyph-name="uniab" unicode="«" d="M188 85h95l-56 175 99 175h-94l-95-175ZM14 260 66 85h94l-56 175 100 175h-95Z" horiz-adv-x="336" vert-adv-y="1000"/><glyph glyph-name="uniac" unicode="¬" d="M30 334h185v-85h90v175H30Z" horiz-adv-x="335" vert-adv-y="1000"/><glyph glyph-name="uniad" unicode="­" d="M5 225h176l11 90H15Z" horiz-adv-x="216" vert-adv-y="1000"/><glyph glyph-name="uniae" unicode="®" d="M30 185c0-56.67 16.83-102.5 50.5-137.5S158.67-5 214-5h72c55.33 0 99.83 17.5 133.5 52.5S470 128.33 470 185v330c0 56.67-16.83 102.5-50.5 137.5S341.33 705 286 705h-72c-55.33 0-99.83-17.5-133.5-52.5S30 571.67 30 515Zm81 330c0 34 9.5 61.33 28.5 82s43.83 31 74.5 31h72c30.67 0 55.5-10.33 74.5-31s28.5-48 28.5-82V185c0-34-9.5-61.33-28.5-82S316.67 72 286 72h-72c-30.67 0-55.5 10.33-74.5 31S111 151 111 185Zm124-340v119h18l29-119h70l-35 131c24.67 16 37 40 37 72v63c0 25.33-7.67 45.67-23 61-15.33 15.33-35.67 23-61 23H159V175Zm28 286c9.33 0 14-4.67 14-14v-75c0-9.33-4.67-14-14-14h-28v103Z" horiz-adv-x="500" vert-adv-y="1000"/><glyph glyph-name="uniaf" unicode="¯" d="M76 724h216l11 90H87Z" horiz-adv-x="277" vert-adv-y="1000"/><glyph glyph-name="unib0" unicode="°" d="M34 543c-4.67-36 2.17-65 20.5-87s44.83-33 79.5-33h10c34.67 0 63.83 11 87.5 33s37.83 51 42.5 87l7 61c4.67 36-2.17 65-20.5 87s-44.83 33-79.5 33h-10c-34.67 0-63.83-11-87.5-33S45.67 640 41 604Zm110-39c-16.67 0-24 10-22 30l10 79c3.33 20 13 30 29 30h10c7.33 0 13-2.83 17-8.5s5.33-12.83 4-21.5l-10-79c-2-20-11.33-30-28-30Z" horiz-adv-x="260" vert-adv-y="1000"/><glyph glyph-name="unib1" unicode="±" d="M30 370h93v-96h90v96h92v90h-93l1 96h-90v-96H30Zm0-136v-90h275v90Z" horiz-adv-x="335" vert-adv-y="1000"/><glyph glyph-name="unib2" unicode="²" d="m220 400 9 70H109c3.33 11.33 9.33 19.33 18 24l52 35c17.33 9.33 32 22.83 44 40.5s19.33 36.17 22 55.5l6 47c2.67 24.67-2.5 44.5-15.5 59.5S204 754 180 754h-31c-24.67 0-45.33-7.5-62-22.5S60.67 696.67 58 672l-7-53h76l5 39c2 17.33 8.67 26 20 26h7c12 0 17-8.67 15-26l-5-41c-.67-12-7.33-21.67-20-29l-51-34c-17.33-9.33-32.17-22.83-44.5-40.5C41.17 495.83 33.67 477.33 31 458l-7-58Z" horiz-adv-x="229" vert-adv-y="1000"/><glyph glyph-name="unib3" unicode="³" d="M33 470c-2.67-22 2.5-39.67 15.5-53 13-13.33 31.83-20 56.5-20h31c24.67 0 45 6.67 61 20s25.67 31 29 53l5 38c4 29.33-3.33 52.33-22 69 22 14.67 35 37.33 39 68l3 27c2.67 24.67-2.5 44.5-15.5 59.5S204 754 180 754h-31c-24.67 0-45.33-7.5-62-22.5S60.67 696.67 58 672l-5-41h76l3 27c2 17.33 8.67 26 20 26h7c12 0 17-8.67 15-26l-3-26c-2-13.33-9-20-21-20h-27l-8-70h27c12 0 17-7.33 15-22l-4-34c-2-12.67-9-19-21-19h-7c-11.33 0-16 6.33-14 19l3 25H38Z" horiz-adv-x="232" vert-adv-y="1000"/><glyph glyph-name="unib4" unicode="´" d="m158 719 96 149H139L75 719Z" horiz-adv-x="221" vert-adv-y="1000"/><glyph glyph-name="unib5" unicode="µ" d="M138-190 123-4h24c20 0 36.67 7.33 50 22l1-18h107v480H198V114c0-13.33-6.67-20-20-20h-20c-13.33 0-20 6.67-20 20v366H30v-670Z" horiz-adv-x="335" vert-adv-y="1000"/><glyph glyph-name="unib6" unicode="¶" d="M20 389c-4.67-35.33 2.67-63.83 22-85.5S88.67 271 124 271h12L91-100h90l98 800H177c-35.33 0-65.33-10.83-90-32.5S47.67 617 43 581Zm279-489 98 800h-90l-98-800Z" horiz-adv-x="384" vert-adv-y="1000"/><glyph glyph-name="unib7" unicode="·" d="M18 289h108l15 122H33Z" horiz-adv-x="159" vert-adv-y="1000"/><glyph glyph-name="unib8" unicode="¸" d="M-28-122c-2-16 1.17-29 9.5-39S2-176 18-176h12c16 0 29.5 4.5 40.5 13.5S88-141.67 90-127l6 45c2 14.67.17 26.67-5.5 36-5.67 9.33-14.17 14-25.5 14H54c-6 0-11.67-3.33-17-10L49 3H7l-23-89h41c2 8 5.67 12 11 12h6c6 0 8.33-4.67 7-14l-4-35c-1.33-6.67-5-10-11-10H24c-5.33 0-7.33 3.33-6 10l2 15h-46Z" horiz-adv-x="179" vert-adv-y="1000"/><glyph glyph-name="unib9" unicode="¹" d="M53 644h66L89 400h76l43 350h-70c-2-18.67-10.17-33.33-24.5-44-14.33-10.67-32.17-16-53.5-16Z" horiz-adv-x="194" vert-adv-y="1000"/><glyph glyph-name="uniba" unicode="º" d="M33 430c-3.33-25.33 1.83-45.5 15.5-60.5S81.33 347 106 347h42c24.67 0 45.5 7.67 62.5 23s27.17 35.33 30.5 60l24 201c3.33 24.67-1.83 44.67-15.5 60-13.67 15.33-32.83 23-57.5 23h-41c-24.67 0-45.67-7.67-63-23s-27.33-35.33-30-60Zm95-8c-10.67 0-15 5-13 15l23 187c1.33 10 7 15 17 15h15c10 0 14.33-5 13-15l-23-187c-2-10-7.67-15-17-15Z" horiz-adv-x="253" vert-adv-y="1000"/><glyph glyph-name="unibb" unicode="»" d="M-13 85h95l95 175-52 175H31l56-175Zm123 0h95l95 175-52 175h-95l56-175Z" horiz-adv-x="336" vert-adv-y="1000"/><glyph glyph-name="unibc" unicode="¼" d="m124 0 332 700h-95L28 0Zm356 65 9 69h-27l27 216H381L270 134l-8-69h116l-8-65h76l8 65ZM47 594h66L83 350h76l43 350h-70c-2-18-10.17-32.5-24.5-43.5S75 640 53 640Zm292-460 41 84c15.33 30 27 59 35 87h2c-10-34.67-17-64.67-21-90l-10-81Z" horiz-adv-x="522" vert-adv-y="1000"/><glyph glyph-name="unibd" unicode="½" d="m124 0 332 700h-95L28 0Zm337 0 8 70H349c3.33 10.67 9.67 18.67 19 24l52 35c17.33 9.33 32 22.83 44 40.5s19 36.17 21 55.5l6 47c3.33 24.67-1.5 44.5-14.5 59.5S444.67 354 420 354h-32c-24 0-44.17-7.5-60.5-22.5S301.33 296.67 298 272l-6-53h76l4 39c2 17.33 9 26 21 26h7c12 0 17-8.67 15-26l-6-41c-1.33-12.67-7.67-22.33-19-29l-52-34c-17.33-9.33-32.17-23-44.5-41C281.17 95 274 76.67 272 58l-7-58ZM113 594 83 350h76l43 350h-70c-2-18-10.17-32.5-24.5-43.5S75 640 53 640l-6-46Z" horiz-adv-x="518" vert-adv-y="1000"/><glyph glyph-name="unibe" unicode="¾" d="m162 0 332 700h-95L65 0Zm138 65h116l-8-65h76l8 65h26l8 69h-26l27 216H419L308 134ZM27 420c-2.67-22 2.5-39.67 15.5-53 13-13.33 31.83-20 56.5-20h31c24.67 0 45 6.67 61 20s25.67 31 29 53l5 38c4 30.67-3.33 53.67-22 69 22 16 34.67 38.67 38 68l4 27c2.67 24.67-2.5 44.5-15.5 59.5S197.67 704 173 704h-31c-24.67 0-45.17-7.5-61.5-22.5S54.67 646.67 52 622l-6-41h76l4 27c2 17.33 8.67 26 20 26h7c12 0 17-8.67 15-26l-3-26c-2-13.33-9-20-21-20h-27l-8-70h27c12 0 17-7.33 15-22l-5-34c-1.33-12.67-8-19-20-19h-7c-11.33 0-16.33 6.33-15 19l3 25H31Zm350-286 41 84c17.33 37.33 29 66.33 35 87h2c-10-34.67-17-64.67-21-90l-10-81Z" horiz-adv-x="560" vert-adv-y="1000"/><glyph glyph-name="unibf" unicode="¿" d="M73-190h65c35.33 0 65.17 10.83 89.5 32.5S266.33-107 271-71l12 94H166l-10-86c-2-13.33-9.67-20-23-20h-30c-13.33 0-19 6.67-17 20l10 89c1.33 6.67 4.33 12.33 9 17l92 103c5.33 4 8 9.67 8 17l2 116h-90l-21-82c-2-10-6.33-18.67-13-26L18 94C-4 69.33-17.67 40-23 6l-8-77c-4.67-36 2.5-64.83 21.5-86.5S37-190 73-190Zm45 549h108l14 121H133Z" horiz-adv-x="338" vert-adv-y="1000"/><glyph glyph-name="unic0" unicode="À" d="m70 0 35 150h82L185 0h108l-1 700H137L-37 0Zm123 750h84l-28 150H134Zm-64-501 52 225c5.33 25.33 10.67 55.67 16 91h2c-4.67-32.67-7-63-7-91l-3-225Z" horiz-adv-x="341" vert-adv-y="1000"/><glyph glyph-name="unic1" unicode="Á" d="m70 0 35 150h82L185 0h108l-1 700H137L-37 0Zm93 750h84l95 150H228Zm-34-501 52 225c5.33 25.33 10.67 55.67 16 91h2c-4.67-32.67-7-63-7-91l-3-225Z" horiz-adv-x="341" vert-adv-y="1000"/><glyph glyph-name="unic2" unicode="Â" d="m70 0 35 150h82L185 0h108l-1 700H137L-37 0Zm44 750h75l40 74 21-74h75l-49 149h-76Zm15-501 52 225c5.33 25.33 10.67 55.67 16 91h2c-4.67-32.67-7-63-7-91l-3-225Z" horiz-adv-x="341" vert-adv-y="1000"/><glyph glyph-name="unic3" unicode="Ã" d="m70 0 35 150h82L185 0h108l-1 700H137L-37 0Zm111 753c2 16 7.67 24 17 24 2.67 0 9.67-4.5 21-13.5s25-13.5 41-13.5c24 0 43.83 8.17 59.5 24.5 15.67 16.33 25.17 37.83 28.5 64.5h-66c-2-16-7.67-24-17-24-2.67 0-9.83 4.5-21.5 13.5S218 842 202 842c-24 0-43.67-8.17-59-24.5-15.33-16.33-24.67-37.83-28-64.5Zm-52-504 52 225c5.33 25.33 10.67 55.67 16 91h2c-4.67-32.67-7-63-7-91l-3-225Z" horiz-adv-x="341" vert-adv-y="1000"/><glyph glyph-name="unic4" unicode="Ä" d="m70 0 35 150h82L185 0h108l-1 700H137L-37 0Zm134 751 14 106h-92l-13-106Zm124 0 13 106h-92l-13-106ZM129 249l52 225c5.33 25.33 10.67 55.67 16 91h2c-4.67-32.67-7-63-7-91l-3-225Z" horiz-adv-x="341" vert-adv-y="1000"/><glyph glyph-name="unic5" unicode="Å" d="m70 0 35 150h82L185 0h108l-1 700H137L-37 0Zm75 835c-3.33-24.67 2.17-45.17 16.5-61.5S195.33 749 220 749c24 0 45.33 8.33 64 25s29.33 37 32 61c3.33 24-2.33 44.17-17 60.5S265 920 241 920c-24.67 0-46-8-64-24s-28.67-36.33-32-61Zm-16-586 52 225c5.33 25.33 10.67 55.67 16 91h2c-4.67-32.67-7-63-7-91l-3-225Zm99 559c-8 0-14.17 2.5-18.5 7.5S203.33 827 204 835c1.33 8 4.67 14.5 10 19.5s12 7.5 20 7.5 14.17-2.5 18.5-7.5 6.17-11.5 5.5-19.5c-1.33-8-4.67-14.5-10-19.5s-12-7.5-20-7.5Z" horiz-adv-x="341" vert-adv-y="1000"/><glyph glyph-name="unic6" unicode="Æ" d="m74 0 53 150h84L193 0h227l13 99H321l25 202h102l12 98H358l25 202h111l12 99H227L-37 0Zm165 463c8 22.67 16.67 52.33 26 89h2c-9.33-37.33-15-67.33-17-90l-27-213h-61Z" horiz-adv-x="488" vert-adv-y="1000"/><glyph glyph-name="unic7" unicode="Ç" d="M110-4h10L98-86h42c2 8 5.67 12 11 12h6c6 0 8.33-4.67 7-14l-5-35c-1.33-6.67-4.67-10-10-10h-10c-5.33 0-7.33 3.33-6 10l2 15H89l-2-14c-2-16 1.17-29 9.5-39s20.17-15 35.5-15h12c16.67 0 30.5 4.5 41.5 13.5S203-141.67 205-127l6 45c1.33 14.67-.83 26.67-6.5 36-5.67 9.33-13.83 14-24.5 14h-12c-4.67 0-10.33-3.33-17-10l10 38h14c35.33 0 65.33 10.83 90 32.5s39 50.17 43 85.5l16 124H207l-13-115c-2-13.33-9.67-20-23-20h-30c-13.33 0-19 6.67-17 20l55 454c2 13.33 9.67 20 23 20h30c13.33 0 19-6.67 17-20l-15-120h117l16 129c4 35.33-3.5 63.83-22.5 85.5S298.33 704 263 704h-65c-36 0-66.17-10.83-90.5-32.5S68.67 621.33 64 586L6 114C1.33 78.67 8.67 50.17 28 28.5S74.67-4 110-4Z" horiz-adv-x="368" vert-adv-y="1000"/><glyph glyph-name="unic8" unicode="È" d="M-8 0h228l12 99H120l25 202h102l12 98H157l25 202h111l13 99H78Zm121 900 58-150h84l-28 150Z" horiz-adv-x="287" vert-adv-y="1000"/><glyph glyph-name="unic9" unicode="É" d="M-8 0h228l12 99H120l25 202h102l12 98H157l25 202h111l13 99H78Zm149 750h84l95 150H206Z" horiz-adv-x="287" vert-adv-y="1000"/><glyph glyph-name="unica" unicode="Ê" d="m220 0 12 99H120l25 202h102l12 98H157l25 202h111l13 99H78L-8 0ZM92 750h75l40 74 22-74h74l-49 149h-76Z" horiz-adv-x="287" vert-adv-y="1000"/><glyph glyph-name="unicb" unicode="Ë" d="M-8 0h228l12 99H120l25 202h102l12 98H157l25 202h111l13 99H78Zm314 751 13 106h-91l-14-106Zm-215 0h92l13 106h-92Z" horiz-adv-x="287" vert-adv-y="1000"/><glyph glyph-name="unicc" unicode="Ì" d="M-8 0h116l86 700H78Zm179 900H56l59-150h84Z" horiz-adv-x="186" vert-adv-y="1000"/><glyph glyph-name="unicd" unicode="Í" d="M-8 0h116l86 700H78Zm177 750 95 150H150L85 750Z" horiz-adv-x="186" vert-adv-y="1000"/><glyph glyph-name="unice" unicode="Î" d="M-8 0h116l86 700H78Zm119 750 40 74 21-74h75l-49 149h-76L36 750Z" horiz-adv-x="186" vert-adv-y="1000"/><glyph glyph-name="unicf" unicode="Ï" d="M-8 0h116l86 700H78Zm258 751 13 106h-92l-13-106Zm-124 0 14 106H48L35 751Z" horiz-adv-x="186" vert-adv-y="1000"/><glyph glyph-name="unid0" unicode="Ð" d="M-8 0h184c35.33 0 65.17 11 89.5 33s38.83 50.67 43.5 86l57 462c4.67 36-2.67 64.83-22 86.5S297.33 700 262 700H78L38 378H8l-7-55h31Zm196 323 7 55h-40l27 223h50c13.33 0 19.33-6.67 18-20l-57-462c-1.33-13.33-8.67-20-22-20h-51l28 224Z" horiz-adv-x="373" vert-adv-y="1000"/><glyph glyph-name="unid1" unicode="Ñ" d="m104 0 36 293c3.33 30 5 60 5 90l2 1c0-37.33 1.67-67.33 5-90L183 0h112l86 700H269l-36-293c-3.33-31.33-5-61.67-5-91l-2-1c0 37.33-1.67 67.33-5 90l-31 295H78L-8 0Zm93 753c2 16 7.33 24 16 24 2.67 0 9.83-4.5 21.5-13.5S260 750 276 750c24 0 43.83 8.17 59.5 24.5 15.67 16.33 25.17 37.83 28.5 64.5h-67c-2-16-7.67-24-17-24-2.67 0-9.67 4.5-21 13.5S233.67 842 217 842c-23.33 0-42.83-8.17-58.5-24.5-15.67-16.33-25.17-37.83-28.5-64.5Z" horiz-adv-x="373" vert-adv-y="1000"/><glyph glyph-name="unid2" unicode="Ò" d="M6 114C1.33 78.67 8.67 50.17 28 28.5S74.67-4 110-4h65c35.33 0 65.33 10.83 90 32.5s39 50.17 43 85.5l59 472c4 35.33-3.5 63.83-22.5 85.5S298.33 704 263 704h-65c-36 0-66.17-10.83-90.5-32.5S68.67 621.33 64 586Zm135-11c-13.33 0-19 6.67-17 20l55 454c2 13.33 9.67 20 23 20h30c13.33 0 19-6.67 17-20l-55-454c-2-13.33-9.67-20-23-20Zm67 647h84l-28 150H150Z" horiz-adv-x="373" vert-adv-y="1000"/><glyph glyph-name="unid3" unicode="Ó" d="M6 114C1.33 78.67 8.67 50.17 28 28.5S74.67-4 110-4h65c35.33 0 65.33 10.83 90 32.5s39 50.17 43 85.5l59 472c4 35.33-3.5 63.83-22.5 85.5S298.33 704 263 704h-65c-36 0-66.17-10.83-90.5-32.5S68.67 621.33 64 586Zm135-11c-13.33 0-19 6.67-17 20l55 454c2 13.33 9.67 20 23 20h30c13.33 0 19-6.67 17-20l-55-454c-2-13.33-9.67-20-23-20Zm37 647h84l95 150H243Z" horiz-adv-x="373" vert-adv-y="1000"/><glyph glyph-name="unid4" unicode="Ô" d="M6 114C1.33 78.67 8.67 50.17 28 28.5S74.67-4 110-4h65c35.33 0 65.33 10.83 90 32.5s39 50.17 43 85.5l59 472c4 35.33-3.5 63.83-22.5 85.5S298.33 704 263 704h-65c-36 0-66.17-10.83-90.5-32.5S68.67 621.33 64 586Zm135-11c-13.33 0-19 6.67-17 20l55 454c2 13.33 9.67 20 23 20h30c13.33 0 19-6.67 17-20l-55-454c-2-13.33-9.67-20-23-20Zm63 647 40 74 22-74h74l-49 149h-76l-86-149Z" horiz-adv-x="373" vert-adv-y="1000"/><glyph glyph-name="unid5" unicode="Õ" d="M6 114C1.33 78.67 8.67 50.17 28 28.5S74.67-4 110-4h65c35.33 0 65.33 10.83 90 32.5s39 50.17 43 85.5l59 472c4 35.33-3.5 63.83-22.5 85.5S298.33 704 263 704h-65c-36 0-66.17-10.83-90.5-32.5S68.67 621.33 64 586Zm135-11c-13.33 0-19 6.67-17 20l55 454c2 13.33 9.67 20 23 20h30c13.33 0 19-6.67 17-20l-55-454c-2-13.33-9.67-20-23-20Zm76 739c-24 0-43.67-8.17-59-24.5-15.33-16.33-24.67-37.83-28-64.5h66c2 16 7.67 24 17 24 2.67 0 9.67-4.5 21-13.5s25-13.5 41-13.5c24 0 43.83 8.17 59.5 24.5 15.67 16.33 25.17 37.83 28.5 64.5h-66c-2-16-7.67-24-17-24-2.67 0-9.83 4.5-21.5 13.5S233 842 217 842Z" horiz-adv-x="373" vert-adv-y="1000"/><glyph glyph-name="unid6" unicode="Ö" d="M6 114C1.33 78.67 8.67 50.17 28 28.5S74.67-4 110-4h65c35.33 0 65.33 10.83 90 32.5s39 50.17 43 85.5l59 472c4 35.33-3.5 63.83-22.5 85.5S298.33 704 263 704h-65c-36 0-66.17-10.83-90.5-32.5S68.67 621.33 64 586Zm135-11c-13.33 0-19 6.67-17 20l55 454c2 13.33 9.67 20 23 20h30c13.33 0 19-6.67 17-20l-55-454c-2-13.33-9.67-20-23-20Zm-13 648h92l13 106h-92Zm215 0 13 106h-91l-14-106Z" horiz-adv-x="373" vert-adv-y="1000"/><glyph glyph-name="unid7" unicode="×" d="m105 350-67-67 63-63 67 67 66-67 63 63-66 67 66 67-63 63-66-67-67 67-63-63Z" horiz-adv-x="335" vert-adv-y="1000"/><glyph glyph-name="unid8" unicode="Ø" d="M39 18C56.33 3.33 80-4 110-4h65c35.33 0 65.33 10.83 90 32.5s39 50.17 43 85.5l59 472c3.33 29.33-1.33 54.33-14 75l19 39-25 11-14-29c-16.67 14.67-40 22-70 22h-65c-36 0-66.17-10.83-90.5-32.5S68.67 621.33 64 586L6 114c-4-29.33.67-54.33 14-75L1 0l24-11Zm106 277 34 282c2 13.33 9.67 20 23 20h30c13.33 0 19-6.67 17-20l-11-91Zm83 110-34-282c-2-13.33-9.67-20-23-20h-30c-13.33 0-19 6.67-17 20l11 91Z" horiz-adv-x="373" vert-adv-y="1000"/><glyph glyph-name="unid9" unicode="Ù" d="M6 114C1.33 78.67 8.67 50.17 28 28.5S74.67-4 110-4h65c35.33 0 65.33 10.83 90 32.5s39 50.17 43 85.5l73 586H264l-70-577c-2-13.33-9.67-20-23-20h-30c-13.33 0-19 6.67-17 20l70 577H78Zm202 636h84l-28 150H150Z" horiz-adv-x="373" vert-adv-y="1000"/><glyph glyph-name="unida" unicode="Ú" d="M6 114C1.33 78.67 8.67 50.17 28 28.5S74.67-4 110-4h65c35.33 0 65.33 10.83 90 32.5s39 50.17 43 85.5l73 586H264l-70-577c-2-13.33-9.67-20-23-20h-30c-13.33 0-19 6.67-17 20l70 577H78Zm172 636h84l95 150H243Z" horiz-adv-x="373" vert-adv-y="1000"/><glyph glyph-name="unidb" unicode="Û" d="M6 114C1.33 78.67 8.67 50.17 28 28.5S74.67-4 110-4h65c35.33 0 65.33 10.83 90 32.5s39 50.17 43 85.5l73 586H264l-70-577c-2-13.33-9.67-20-23-20h-30c-13.33 0-19 6.67-17 20l70 577H78Zm123 636h75l40 74 22-74h74l-49 149h-76Z" horiz-adv-x="373" vert-adv-y="1000"/><glyph glyph-name="unidc" unicode="Ü" d="M6 114C1.33 78.67 8.67 50.17 28 28.5S74.67-4 110-4h65c35.33 0 65.33 10.83 90 32.5s39 50.17 43 85.5l73 586H264l-70-577c-2-13.33-9.67-20-23-20h-30c-13.33 0-19 6.67-17 20l70 577H78Zm122 637h92l13 106h-92Zm215 0 13 106h-91l-14-106Z" horiz-adv-x="373" vert-adv-y="1000"/><glyph glyph-name="unidd" unicode="Ý" d="m49 700 46-446L63 0h117l32 255 155 445H257l-69-229c-6.67-22-12.67-52.33-18-91h-2c4.67 34.67 5.67 65 3 91l-12 229Zm109 50h83l96 150H222Z" horiz-adv-x="330" vert-adv-y="1000"/><glyph glyph-name="unide" unicode="Þ" d="M-8 0h116l18 146h68c35.33 0 65.17 10.83 89.5 32.5S322.33 229 327 265l22 171c4 36-3.5 64.83-22.5 86.5S280 555 244 555h-68l18 145H78Zm146 245 26 211h50c13.33 0 19.33-6.67 18-20l-21-171c-2-13.33-9.67-20-23-20Z" horiz-adv-x="353" vert-adv-y="1000"/><glyph glyph-name="unidf" unicode="ß" d="M-13 0H95l75 614c2 13.33 9.67 20 23 20h15c13.33 0 19-6.67 17-20l-21-170c-1.33-13.33-8.67-20-22-20h-6l-11-90h11c13.33 0 19-6.67 17-20l-25-204c-2-13.33-9.67-20-23-20h-10L124 0h28c32.67 0 60.33 9.17 83 27.5s35.67 42.17 39 71.5l25 199c4 36.67-7.67 64.33-35 83 28.67 16.67 45 42.67 49 78l21 167c3.33 29.33-3.83 53-21.5 71s-43.17 27-76.5 27h-50c-33.33 0-61.17-9-83.5-27S67.33 655.33 64 626Z" horiz-adv-x="331" vert-adv-y="1000"/><glyph glyph-name="unie0" unicode="à" d="M0 106c-4-33.33-.17-60 11.5-80S40.67-4 64-4h39c21.33 0 39.67 7.67 55 23l-2-19h107l46 374c4 33.33-2.83 60-20.5 80s-42.83 30-75.5 30h-55c-33.33 0-61.33-10.17-84-30.5S38 406.67 34 374l-6-48h108l4 35c.67 6 3.17 11.67 7.5 17s9.5 8 15.5 8h20c6 0 10.5-2.5 13.5-7.5s4.17-10.83 3.5-17.5l-11-88c-11.33 15.33-27.33 23-48 23h-39c-24 0-44.33-10-61-30s-27-46.67-31-80Zm164 424h83l-28 150H105ZM126 94c-13.33 0-19.33 6.67-18 20l8 64c2 13.33 9.67 20 23 20h20c13.33 0 19-6.67 17-20l-8-64c-1.33-13.33-8.67-20-22-20Z" horiz-adv-x="336" vert-adv-y="1000"/><glyph glyph-name="unie1" unicode="á" d="M0 106c-4-33.33-.17-60 11.5-80S40.67-4 64-4h39c21.33 0 39.67 7.67 55 23l-2-19h107l46 374c4 33.33-2.83 60-20.5 80s-42.83 30-75.5 30h-55c-33.33 0-61.33-10.17-84-30.5S38 406.67 34 374l-6-48h108l4 35c.67 6 3.17 11.67 7.5 17s9.5 8 15.5 8h20c6 0 10.5-2.5 13.5-7.5s4.17-10.83 3.5-17.5l-11-88c-11.33 15.33-27.33 23-48 23h-39c-24 0-44.33-10-61-30s-27-46.67-31-80Zm134 424h83l96 150H198Zm-8-436c-13.33 0-19.33 6.67-18 20l8 64c2 13.33 9.67 20 23 20h20c13.33 0 19-6.67 17-20l-8-64c-1.33-13.33-8.67-20-22-20Z" horiz-adv-x="336" vert-adv-y="1000"/><glyph glyph-name="unie2" unicode="â" d="M0 106c-4-33.33-.17-60 11.5-80S40.67-4 64-4h39c21.33 0 39.67 7.67 55 23l-2-19h107l46 374c4 33.33-2.83 60-20.5 80s-42.83 30-75.5 30h-55c-33.33 0-61.33-10.17-84-30.5S38 406.67 34 374l-6-48h108l4 35c.67 6 3.17 11.67 7.5 17s9.5 8 15.5 8h20c6 0 10.5-2.5 13.5-7.5s4.17-10.83 3.5-17.5l-11-88c-11.33 15.33-27.33 23-48 23h-39c-24 0-44.33-10-61-30s-27-46.67-31-80Zm159 424 41 74 21-74h75l-50 149h-75L85 530ZM126 94c-13.33 0-19.33 6.67-18 20l8 64c2 13.33 9.67 20 23 20h20c13.33 0 19-6.67 17-20l-8-64c-1.33-13.33-8.67-20-22-20Z" horiz-adv-x="336" vert-adv-y="1000"/><glyph glyph-name="unie3" unicode="ã" d="M0 106c-4-33.33-.17-60 11.5-80S40.67-4 64-4h39c21.33 0 39.67 7.67 55 23l-2-19h107l46 374c4 33.33-2.83 60-20.5 80s-42.83 30-75.5 30h-55c-33.33 0-61.33-10.17-84-30.5S38 406.67 34 374l-6-48h108l4 35c.67 6 3.17 11.67 7.5 17s9.5 8 15.5 8h20c6 0 10.5-2.5 13.5-7.5s4.17-10.83 3.5-17.5l-11-88c-11.33 15.33-27.33 23-48 23h-39c-24 0-44.33-10-61-30s-27-46.67-31-80Zm172 516c-23.33 0-42.83-8.17-58.5-24.5C97.83 581.17 88.33 559.67 85 533h67c1.33 16 6.67 24 16 24 2.67 0 9.67-4.5 21-13.5s25-13.5 41-13.5c24 0 44 8.17 60 24.5s25.67 37.83 29 64.5h-67c-2-16-7.67-24-17-24-2 0-9 4.5-21 13.5S188 622 172 622ZM126 94c-13.33 0-19.33 6.67-18 20l8 64c2 13.33 9.67 20 23 20h20c13.33 0 19-6.67 17-20l-8-64c-1.33-13.33-8.67-20-22-20Z" horiz-adv-x="336" vert-adv-y="1000"/><glyph glyph-name="unie4" unicode="ä" d="M0 106c-4-33.33-.17-60 11.5-80S40.67-4 64-4h39c21.33 0 39.67 7.67 55 23l-2-19h107l46 374c4 33.33-2.83 60-20.5 80s-42.83 30-75.5 30h-55c-33.33 0-61.33-10.17-84-30.5S38 406.67 34 374l-6-48h108l4 35c.67 6 3.17 11.67 7.5 17s9.5 8 15.5 8h20c6 0 10.5-2.5 13.5-7.5s4.17-10.83 3.5-17.5l-11-88c-11.33 15.33-27.33 23-48 23h-39c-24 0-44.33-10-61-30s-27-46.67-31-80Zm83 425h92l13 106H96Zm215 0 14 106h-92l-13-106ZM126 94c-13.33 0-19.33 6.67-18 20l8 64c2 13.33 9.67 20 23 20h20c13.33 0 19-6.67 17-20l-8-64c-1.33-13.33-8.67-20-22-20Z" horiz-adv-x="336" vert-adv-y="1000"/><glyph glyph-name="unie5" unicode="å" d="M0 106c-4-33.33-.17-60 11.5-80S40.67-4 64-4h39c21.33 0 39.67 7.67 55 23l-2-19h107l46 374c4 33.33-2.83 60-20.5 80s-42.83 30-75.5 30h-55c-33.33 0-61.33-10.17-84-30.5S38 406.67 34 374l-6-48h108l4 35c.67 6 3.17 11.67 7.5 17s9.5 8 15.5 8h20c6 0 10.5-2.5 13.5-7.5s4.17-10.83 3.5-17.5l-11-88c-11.33 15.33-27.33 23-48 23h-39c-24 0-44.33-10-61-30s-27-46.67-31-80Zm115 509c-2.67-24.67 3.17-45.17 17.5-61.5S166.33 529 191 529c24 0 45.17 8.33 63.5 25s28.83 37 31.5 61c3.33 24-2.33 44.17-17 60.5S235 700 211 700c-24.67 0-46-8-64-24s-28.67-36.33-32-61Zm11-521c-13.33 0-19.33 6.67-18 20l8 64c2 13.33 9.67 20 23 20h20c13.33 0 19-6.67 17-20l-8-64c-1.33-13.33-8.67-20-22-20Zm72 494c-8 0-14.17 2.5-18.5 7.5S173.33 607 174 615c1.33 8 4.67 14.5 10 19.5s12 7.5 20 7.5 14.17-2.5 18.5-7.5 6.17-11.5 5.5-19.5c-1.33-8-4.67-14.5-10-19.5s-12-7.5-20-7.5Z" horiz-adv-x="336" vert-adv-y="1000"/><glyph glyph-name="unie6" unicode="æ" d="M0 106c-4-33.33-.17-60 11.5-80S40.67-4 64-4h39c32 0 56.33 16.33 73 49 16-32.67 45.67-49 89-49h55c32.67 0 60.33 10 83 30s36 46.67 40 80l7 58H343l-6-50c-1.33-13.33-8.67-20-22-20h-20c-13.33 0-19.33 6.67-18 20l11 85h167l22 175c4 32.67-2.83 59.17-20.5 79.5S413.33 484 380 484h-55c-22 0-41.33-4.33-58-13-13.33 8.67-31.33 13-54 13h-55c-33.33 0-61.33-10.17-84-30.5S38 406.67 34 374l-6-48h108l4 35c.67 6 3.17 11.67 7.5 17s9.5 8 15.5 8h20c9.33 0 15.33-5.33 18-16l-12-97c-11.33 15.33-27.33 23-48 23h-39c-24 0-44.33-10-61-30s-27-46.67-31-80Zm126-12c-13.33 0-19.33 6.67-18 20l8 64c2 13.33 9.67 20 23 20h20c12.67 0 18.33-6.67 17-20l-8-64c-1.33-13.33-8.67-20-22-20Zm172 195 10 77c1.33 13.33 8.67 20 22 20h20c13.33 0 19.33-6.67 18-20l-10-77Z" horiz-adv-x="503" vert-adv-y="1000"/><glyph glyph-name="unie7" unicode="ç" d="M96-4h5L79-86h42c2 8 5.67 12 11 12h6c6 0 8.33-4.67 7-14l-4-35c-1.33-6.67-5-10-11-10h-10c-5.33 0-7.33 3.33-6 10l2 15H70l-2-14c-2-16 1.17-29 9.5-39s20.17-15 35.5-15h12c16.67 0 30.5 4.5 41.5 13.5S184-141.67 186-127l6 45c2 14.67 0 26.67-6 36-6 9.33-14.33 14-25 14h-11c-6 0-11.67-3.33-17-10l10 38h8c33.33 0 61.33 10.17 84 30.5s36 46.83 40 79.5l10 80H177l-9-72c-1.33-13.33-8.67-20-22-20h-20c-13.33 0-19.33 6.67-18 20l32 252c1.33 13.33 8.67 20 22 20h20c13.33 0 19.33-6.67 18-20l-9-72h107l10 80c4 33.33-2.83 60-20.5 80s-42.83 30-75.5 30h-55c-33.33 0-61.33-10.17-84-30.5S37 406.67 33 374L0 106c-4-33.33 2.83-60 20.5-80S63.33-4 96-4Z" horiz-adv-x="325" vert-adv-y="1000"/><glyph glyph-name="unie8" unicode="è" d="M96-4h55c33.33 0 61.33 10.17 84 30.5s36 46.83 40 79.5l7 58H174l-6-50c-1.33-13.33-8.67-20-22-20h-20c-13.33 0-19.33 6.67-18 20l11 85h168l21 175c4 33.33-2.83 60-20.5 80s-42.83 30-75.5 30h-55c-33.33 0-61.33-10.17-84-30.5S37 406.67 33 374L0 106c-4-33.33 2.83-60 20.5-80S63.33-4 96-4Zm67 534h83l-28 150H104Zm-23-164c1.33 13.33 8.67 20 22 20h20c13.33 0 19.33-6.67 18-20l-10-77h-60Z" horiz-adv-x="334" vert-adv-y="1000"/><glyph glyph-name="unie9" unicode="é" d="M96-4h55c33.33 0 61.33 10.17 84 30.5s36 46.83 40 79.5l7 58H174l-6-50c-1.33-13.33-8.67-20-22-20h-20c-13.33 0-19.33 6.67-18 20l11 85h168l21 175c4 33.33-2.83 60-20.5 80s-42.83 30-75.5 30h-55c-33.33 0-61.33-10.17-84-30.5S37 406.67 33 374L0 106c-4-33.33 2.83-60 20.5-80S63.33-4 96-4Zm120 534 96 150H197l-64-150Zm-76-164c1.33 13.33 8.67 20 22 20h20c13.33 0 19.33-6.67 18-20l-10-77h-60Z" horiz-adv-x="334" vert-adv-y="1000"/><glyph glyph-name="uniea" unicode="ê" d="M96-4h55c33.33 0 61.33 10.17 84 30.5s36 46.83 40 79.5l7 58H174l-6-50c-1.33-13.33-8.67-20-22-20h-20c-13.33 0-19.33 6.67-18 20l11 85h168l21 175c4 33.33-2.83 60-20.5 80s-42.83 30-75.5 30h-55c-33.33 0-61.33-10.17-84-30.5S37 406.67 33 374L0 106c-4-33.33 2.83-60 20.5-80S63.33-4 96-4Zm62 534 41 74 21-74h75l-50 149h-75L84 530Zm-18-164c1.33 13.33 8.67 20 22 20h20c13.33 0 19.33-6.67 18-20l-10-77h-60Z" horiz-adv-x="334" vert-adv-y="1000"/><glyph glyph-name="unieb" unicode="ë" d="M96-4h55c33.33 0 61.33 10.17 84 30.5s36 46.83 40 79.5l7 58H174l-6-50c-1.33-13.33-8.67-20-22-20h-20c-13.33 0-19.33 6.67-18 20l11 85h168l21 175c4 33.33-2.83 60-20.5 80s-42.83 30-75.5 30h-55c-33.33 0-61.33-10.17-84-30.5S37 406.67 33 374L0 106c-4-33.33 2.83-60 20.5-80S63.33-4 96-4Zm78 535 13 106H95L82 531Zm123 0 14 106h-92l-13-106ZM130 289l10 77c1.33 13.33 8.67 20 22 20h20c13.33 0 19.33-6.67 18-20l-10-77Z" horiz-adv-x="334" vert-adv-y="1000"/><glyph glyph-name="uniec" unicode="ì" d="M-13 0H95l59 480H46Zm148 680H20l59-150h83Z" horiz-adv-x="168" vert-adv-y="1000"/><glyph glyph-name="unied" unicode="í" d="M-13 0H95l59 480H46Zm145 530 96 150H113L49 530Z" horiz-adv-x="168" vert-adv-y="1000"/><glyph glyph-name="uniee" unicode="î" d="m95 0 59 480H46L-13 0ZM75 530l40 74 21-74h75l-50 149H86L0 530Z" horiz-adv-x="168" vert-adv-y="1000"/><glyph glyph-name="unief" unicode="ï" d="M-13 0H95l59 480H46Zm130 531h88l13 106h-87Zm-23 0 14 106H20L7 531Z" horiz-adv-x="168" vert-adv-y="1000"/><glyph glyph-name="unif0" unicode="ð" d="M0 106c-4-33.33 2.83-60 20.5-80S63.33-4 96-4h55c33.33 0 61.33 9.67 84 29s36 45 40 77l52 432c9.33 70.67-30 121-118 151l-4 1 26 61-42 13-26-60-72 24-12-103 43-15-27-62 42-14 27 61 15-5c30-10.67 43.67-30.33 41-59l-9-67c-10 16-29.67 24-59 24h-2c-30 0-56-10.17-78-30.5S37 406.67 33 374Zm126-12c-13.33 0-19.33 6.67-18 20l32 252c1.33 13.33 8.67 20 22 20h20c13.33 0 19.33-6.67 18-20l-32-252c-1.33-13.33-8.67-20-22-20Z" horiz-adv-x="335" vert-adv-y="1000"/><glyph glyph-name="unif1" unicode="ñ" d="M-13 0H95l45 366v1c2 12.67 9.33 19 22 19h20c13.33 0 19.33-6.67 18-20L155 0h107l46 374c4 33.33.17 60-11.5 80s-29.17 30-52.5 30h-39c-20 0-38-7.33-54-22l3 18H46Zm157 533c1.33 16 6.67 24 16 24 2.67 0 9.67-4.5 21-13.5s25-13.5 41-13.5c24 0 44 8.17 60 24.5s25.67 37.83 29 64.5h-67c-2-16-7.67-24-17-24-2.67 0-9.83 4.5-21.5 13.5S180 622 164 622c-23.33 0-42.83-8.17-58.5-24.5C89.83 581.17 80.33 559.67 77 533Z" horiz-adv-x="335" vert-adv-y="1000"/><glyph glyph-name="unif2" unicode="ò" d="M0 106c-4-33.33 2.83-60 20.5-80S63.33-4 96-4h55c33.33 0 61.33 10.17 84 30.5s36 46.83 40 79.5l33 268c4 33.33-2.83 60-20.5 80s-42.83 30-75.5 30h-55c-33.33 0-61.33-10.17-84-30.5S37 406.67 33 374Zm126-12c-13.33 0-19.33 6.67-18 20l32 252c1.33 13.33 8.67 20 22 20h20c13.33 0 19.33-6.67 18-20l-32-252c-1.33-13.33-8.67-20-22-20Zm-22 586 59-150h83l-28 150Z" horiz-adv-x="335" vert-adv-y="1000"/><glyph glyph-name="unif3" unicode="ó" d="M0 106c-4-33.33 2.83-60 20.5-80S63.33-4 96-4h55c33.33 0 61.33 10.17 84 30.5s36 46.83 40 79.5l33 268c4 33.33-2.83 60-20.5 80s-42.83 30-75.5 30h-55c-33.33 0-61.33-10.17-84-30.5S37 406.67 33 374Zm126-12c-13.33 0-19.33 6.67-18 20l32 252c1.33 13.33 8.67 20 22 20h20c13.33 0 19.33-6.67 18-20l-32-252c-1.33-13.33-8.67-20-22-20Zm7 436h83l96 150H197Z" horiz-adv-x="335" vert-adv-y="1000"/><glyph glyph-name="unif4" unicode="ô" d="M0 106c-4-33.33 2.83-60 20.5-80S63.33-4 96-4h55c33.33 0 61.33 10.17 84 30.5s36 46.83 40 79.5l33 268c4 33.33-2.83 60-20.5 80s-42.83 30-75.5 30h-55c-33.33 0-61.33-10.17-84-30.5S37 406.67 33 374Zm158 424 41 74 21-74h75l-50 149h-75L84 530ZM126 94c-13.33 0-19.33 6.67-18 20l32 252c1.33 13.33 8.67 20 22 20h20c13.33 0 19.33-6.67 18-20l-32-252c-1.33-13.33-8.67-20-22-20Z" horiz-adv-x="335" vert-adv-y="1000"/><glyph glyph-name="unif5" unicode="õ" d="M0 106c-4-33.33 2.83-60 20.5-80S63.33-4 96-4h55c33.33 0 61.33 10.17 84 30.5s36 46.83 40 79.5l33 268c4 33.33-2.83 60-20.5 80s-42.83 30-75.5 30h-55c-33.33 0-61.33-10.17-84-30.5S37 406.67 33 374Zm126-12c-13.33 0-19.33 6.67-18 20l32 252c1.33 13.33 8.67 20 22 20h20c13.33 0 19.33-6.67 18-20l-32-252c-1.33-13.33-8.67-20-22-20Zm45 528c-23.33 0-42.83-8.17-58.5-24.5C96.83 581.17 87.33 559.67 84 533h67c1.33 16 6.67 24 16 24 2.67 0 9.67-4.5 21-13.5s25-13.5 41-13.5c24 0 44 8.17 60 24.5s25.67 37.83 29 64.5h-67c-2-16-7.67-24-17-24-2.67 0-9.67 4.5-21 13.5S187.67 622 171 622Z" horiz-adv-x="335" vert-adv-y="1000"/><glyph glyph-name="unif6" unicode="ö" d="M0 106c-4-33.33 2.83-60 20.5-80S63.33-4 96-4h55c33.33 0 61.33 10.17 84 30.5s36 46.83 40 79.5l33 268c4 33.33-2.83 60-20.5 80s-42.83 30-75.5 30h-55c-33.33 0-61.33-10.17-84-30.5S37 406.67 33 374Zm126-12c-13.33 0-19.33 6.67-18 20l32 252c1.33 13.33 8.67 20 22 20h20c13.33 0 19.33-6.67 18-20l-32-252c-1.33-13.33-8.67-20-22-20Zm171 437 14 106h-92l-13-106Zm-123 0 13 106H95L82 531Z" horiz-adv-x="335" vert-adv-y="1000"/><glyph glyph-name="unif7" unicode="÷" d="M305 305v90H30v-90ZM118 160h99v104h-99Zm0 276h99v104h-99Z" horiz-adv-x="335" vert-adv-y="1000"/><glyph glyph-name="unif8" unicode="ø" d="M45 7C57.67-.33 74.67-4 96-4h55c33.33 0 61.33 10.17 84 30.5s36 46.83 40 79.5l33 268c4 32.67-2.33 59-19 79l14 27-24 11-11-20c-14.67 8.67-33.33 13-56 13h-55c-33.33 0-61.33-10.17-84-30.5S37 406.67 33 374L0 106c-4-36 3.67-63.67 23-83L11 0l24-11Zm74 190 21 169c1.33 13.33 8.67 20 22 20h20c13.33 0 19.33-6.67 18-20l-3-26Zm69 71-20-154c-1.33-13.33-8.67-20-22-20h-20c-13.33 0-19.33 6.67-18 20l2 11Z" horiz-adv-x="335" vert-adv-y="1000"/><glyph glyph-name="unif9" unicode="ù" d="M0 106c-4-33.33-.17-60 11.5-80S40.67-4 64-4h39c20 0 38 7.33 54 22l-2-18h107l59 480H214l-46-366v-1c-1.33-12.67-8.67-19-22-19h-20c-13.33 0-19.33 6.67-18 20l46 366H46Zm163 424h83l-28 150H104Z" horiz-adv-x="335" vert-adv-y="1000"/><glyph glyph-name="unifa" unicode="ú" d="M0 106c-4-33.33-.17-60 11.5-80S40.67-4 64-4h39c20 0 38 7.33 54 22l-2-18h107l59 480H214l-46-366v-1c-1.33-12.67-8.67-19-22-19h-20c-13.33 0-19.33 6.67-18 20l46 366H46Zm133 424h83l96 150H197Z" horiz-adv-x="335" vert-adv-y="1000"/><glyph glyph-name="unifb" unicode="û" d="M0 106c-4-33.33-.17-60 11.5-80S40.67-4 64-4h39c20 0 38 7.33 54 22l-2-18h107l59 480H214l-46-366v-1c-1.33-12.67-8.67-19-22-19h-20c-13.33 0-19.33 6.67-18 20l46 366H46Zm158 424 41 74 21-74h75l-50 149h-75L84 530Z" horiz-adv-x="335" vert-adv-y="1000"/><glyph glyph-name="unifc" unicode="ü" d="M0 106c-4-33.33-.17-60 11.5-80S40.67-4 64-4h39c20 0 38 7.33 54 22l-2-18h107l59 480H214l-46-366v-1c-1.33-12.67-8.67-19-22-19h-20c-13.33 0-19.33 6.67-18 20l46 366H46Zm206 425h91l14 106h-92Zm-32 0 13 106H95L82 531Z" horiz-adv-x="335" vert-adv-y="1000"/><glyph glyph-name="unifd" unicode="ý" d="M0-190h33c64.67 0 108.67 40.33 132 121l157 549H218l-75-284c-6-24.67-11.67-55-17-91h-2c4.67 32.67 7 63 7 91l-4 284H22L46 0h43L73-60c-2.67-9.33-8.5-16.83-17.5-22.5-9-5.67-18.17-8.5-27.5-8.5H11Zm121 720h83l96 150H185Z" horiz-adv-x="312" vert-adv-y="1000"/><glyph glyph-name="unife" unicode="þ" d="M-36-190H72L97 19c11.33-15.33 27.33-23 48-23h39c24 0 44.33 10 61 30s27 46.67 31 80l33 268c4 33.33.17 60-11.5 80s-29.17 30-52.5 30h-39c-21.33 0-39.67-8-55-24l32 260H75ZM127 94c-13.33 0-19.33 6.67-18 20l32 252c1.33 13.33 8.67 20 22 20h20c13.33 0 19.33-6.67 18-20l-32-252c-1.33-13.33-8.67-20-22-20Z" horiz-adv-x="336" vert-adv-y="1000"/><glyph glyph-name="uniff" unicode="ÿ" d="M0-190h33c64.67 0 108.67 40.33 132 121l157 549H218l-75-284c-6-24.67-11.67-55-17-91h-2c4.67 32.67 7 63 7 91l-4 284H22L46 0h43L73-60c-2.67-9.33-8.5-16.83-17.5-22.5-9-5.67-18.17-8.5-27.5-8.5H11Zm194 721h91l14 106h-92Zm-124 0h92l13 106H83Z" horiz-adv-x="312" vert-adv-y="1000"/><glyph glyph-name="uni0100" unicode="Ā" d="m70 0 35 150h82L185 0h108l-1 700H137L-37 0Zm43 756h216l11 90H124Zm16-507 52 225c5.33 25.33 10.67 55.67 16 91h2c-4.67-32.67-7-63-7-91l-3-225Z" horiz-adv-x="341" vert-adv-y="1000"/><glyph glyph-name="uni0101" unicode="ā" d="M0 106c-4-33.33-.17-60 11.5-80S40.67-4 64-4h39c21.33 0 39.67 7.67 55 23l-2-19h107l46 374c4 33.33-2.83 60-20.5 80s-42.83 30-75.5 30h-55c-33.33 0-61.33-10.17-84-30.5S38 406.67 34 374l-6-48h108l4 35c.67 6 3.17 11.67 7.5 17s9.5 8 15.5 8h20c6 0 10.5-2.5 13.5-7.5s4.17-10.83 3.5-17.5l-11-88c-11.33 15.33-27.33 23-48 23h-39c-24 0-44.33-10-61-30s-27-46.67-31-80Zm83 430h217l11 90H94Zm43-442c-13.33 0-19.33 6.67-18 20l8 64c2 13.33 9.67 20 23 20h20c13.33 0 19-6.67 17-20l-8-64c-1.33-13.33-8.67-20-22-20Z" horiz-adv-x="336" vert-adv-y="1000"/><glyph glyph-name="uni0102" unicode="Ă" d="m70 0 35 150h82L185 0h108l-1 700H137L-37 0Zm52 841c-3.33-26 2-46.83 16-62.5 14-15.67 34.33-23.5 61-23.5h44c26.67 0 48.83 7.83 66.5 23.5S337.67 815 341 841l4 34h-83l-4-32c-.67-10.67-7.33-16-20-16h-18c-10.67 0-15.67 5.33-15 16l4 32h-83Zm7-592 52 225c5.33 25.33 10.67 55.67 16 91h2c-4.67-32.67-7-63-7-91l-3-225Z" horiz-adv-x="341" vert-adv-y="1000"/><glyph glyph-name="uni0103" unicode="ă" d="M0 106c-4-33.33-.17-60 11.5-80S40.67-4 64-4h39c21.33 0 39.67 7.67 55 23l-2-19h107l46 374c4 33.33-2.83 60-20.5 80s-42.83 30-75.5 30h-55c-33.33 0-61.33-10.17-84-30.5S38 406.67 34 374l-6-48h108l4 35c.67 6 3.17 11.67 7.5 17s9.5 8 15.5 8h20c6 0 10.5-2.5 13.5-7.5s4.17-10.83 3.5-17.5l-11-88c-11.33 15.33-27.33 23-48 23h-39c-24 0-44.33-10-61-30s-27-46.67-31-80Zm92 515c-2.67-26 3-46.83 17-62.5 14-15.67 34-23.5 60-23.5h45c26.67 0 48.67 7.83 66 23.5s27.67 36.5 31 62.5l4 34h-83l-4-32c-.67-10.67-7-16-19-16h-18c-11.33 0-16.67 5.33-16 16l4 32H96Zm34-527c-13.33 0-19.33 6.67-18 20l8 64c2 13.33 9.67 20 23 20h20c13.33 0 19-6.67 17-20l-8-64c-1.33-13.33-8.67-20-22-20Z" horiz-adv-x="336" vert-adv-y="1000"/><glyph glyph-name="uni0104" unicode="Ą" d="m70 0 35 150h82L185 0h30l-26-35c-14.67-22.67-23-42.67-25-60-2.67-20 2-36.33 14-49 12-12.67 29-19 51-19h66l8 62-46-1c-10.67 0-19 2.17-25 6.5s-8.67 10.17-8 17.5c1.33 9.33 6.67 20.33 16 33l34 45h19l-1 700H137L-37 0Zm59 249 52 225c5.33 25.33 10.67 55.67 16 91h2c-4.67-32.67-7-63-7-91l-3-225Z" horiz-adv-x="341" vert-adv-y="1000"/><glyph glyph-name="uni0105" unicode="ą" d="M0 106c-4-33.33-.17-60 11.5-80S40.67-4 64-4h39c21.33 0 39.67 7.67 55 23l-2-19h18l-26-35c-14.67-22.67-23-42.67-25-60-2.67-20 2-36.33 14-49 12-12.67 29-19 51-19h66l8 62-46-1c-10.67 0-19 2.17-25 6.5s-8.67 10.17-8 17.5c1.33 9.33 6.67 20.33 16 33l34 45h30l46 374c4 33.33-2.83 60-20.5 80s-42.83 30-75.5 30h-55c-33.33 0-61.33-10.17-84-30.5S38 406.67 34 374l-6-48h108l4 35c.67 6 3.17 11.67 7.5 17s9.5 8 15.5 8h20c6 0 10.5-2.5 13.5-7.5s4.17-10.83 3.5-17.5l-11-88c-11.33 15.33-27.33 23-48 23h-39c-24 0-44.33-10-61-30s-27-46.67-31-80Zm126-12c-13.33 0-19.33 6.67-18 20l8 64c2 13.33 9.67 20 23 20h20c13.33 0 19-6.67 17-20l-8-64c-1.33-13.33-8.67-20-22-20Z" horiz-adv-x="336" vert-adv-y="1000"/><glyph glyph-name="uni0106" unicode="Ć" d="M110-4h65c35.33 0 65.33 10.83 90 32.5s39 50.17 43 85.5l16 124H207l-13-115c-2-13.33-9.67-20-23-20h-30c-13.33 0-19 6.67-17 20l55 454c2 13.33 9.67 20 23 20h30c13.33 0 19-6.67 17-20l-15-120h117l16 129c4 35.33-3.5 63.83-22.5 85.5S298.33 704 263 704h-65c-36 0-66.17-10.83-90.5-32.5S68.67 621.33 64 586L6 114C1.33 78.67 8.67 50.17 28 28.5S74.67-4 110-4Zm68 754h84l95 150H243Z" horiz-adv-x="368" vert-adv-y="1000"/><glyph glyph-name="uni0107" unicode="ć" d="M96-4h55c33.33 0 61.33 10.17 84 30.5s36 46.83 40 79.5l10 80H177l-9-72c-1.33-13.33-8.67-20-22-20h-20c-13.33 0-19.33 6.67-18 20l32 252c1.33 13.33 8.67 20 22 20h20c13.33 0 19.33-6.67 18-20l-9-72h107l10 80c4 33.33-2.83 60-20.5 80s-42.83 30-75.5 30h-55c-33.33 0-61.33-10.17-84-30.5S37 406.67 33 374L0 106c-4-33.33 2.83-60 20.5-80S63.33-4 96-4Zm37 534h83l96 150H197Z" horiz-adv-x="325" vert-adv-y="1000"/><glyph glyph-name="uni0108" unicode="Ĉ" d="M110-4h65c35.33 0 65.33 10.83 90 32.5s39 50.17 43 85.5l16 124H207l-13-115c-2-13.33-9.67-20-23-20h-30c-13.33 0-19 6.67-17 20l55 454c2 13.33 9.67 20 23 20h30c13.33 0 19-6.67 17-20l-15-120h117l16 129c4 35.33-3.5 63.83-22.5 85.5S298.33 704 263 704h-65c-36 0-66.17-10.83-90.5-32.5S68.67 621.33 64 586L6 114C1.33 78.67 8.67 50.17 28 28.5S74.67-4 110-4Zm94 754 40 74 22-74h74l-49 149h-76l-86-149Z" horiz-adv-x="368" vert-adv-y="1000"/><glyph glyph-name="uni0109" unicode="ĉ" d="M96-4h55c33.33 0 61.33 10.17 84 30.5s36 46.83 40 79.5l10 80H177l-9-72c-1.33-13.33-8.67-20-22-20h-20c-13.33 0-19.33 6.67-18 20l32 252c1.33 13.33 8.67 20 22 20h20c13.33 0 19.33-6.67 18-20l-9-72h107l10 80c4 33.33-2.83 60-20.5 80s-42.83 30-75.5 30h-55c-33.33 0-61.33-10.17-84-30.5S37 406.67 33 374L0 106c-4-33.33 2.83-60 20.5-80S63.33-4 96-4Zm62 534 41 74 21-74h75l-50 149h-75L84 530Z" horiz-adv-x="325" vert-adv-y="1000"/><glyph glyph-name="uni010A" unicode="Ċ" d="M110-4h65c35.33 0 65.33 10.83 90 32.5s39 50.17 43 85.5l16 124H207l-13-115c-2-13.33-9.67-20-23-20h-30c-13.33 0-19 6.67-17 20l55 454c2 13.33 9.67 20 23 20h30c13.33 0 19-6.67 17-20l-15-120h117l16 129c4 35.33-3.5 63.83-22.5 85.5S298.33 704 263 704h-65c-36 0-66.17-10.83-90.5-32.5S68.67 621.33 64 586L6 114C1.33 78.67 8.67 50.17 28 28.5S74.67-4 110-4Zm179 755 15 122H197l-15-122Z" horiz-adv-x="368" vert-adv-y="1000"/><glyph glyph-name="uni010B" unicode="ċ" d="M96-4h55c33.33 0 61.33 10.17 84 30.5s36 46.83 40 79.5l10 80H177l-9-72c-1.33-13.33-8.67-20-22-20h-20c-13.33 0-19.33 6.67-18 20l32 252c1.33 13.33 8.67 20 22 20h20c13.33 0 19.33-6.67 18-20l-9-72h107l10 80c4 33.33-2.83 60-20.5 80s-42.83 30-75.5 30h-55c-33.33 0-61.33-10.17-84-30.5S37 406.67 33 374L0 106c-4-33.33 2.83-60 20.5-80S63.33-4 96-4Zm40 535h107l15 122H151Z" horiz-adv-x="325" vert-adv-y="1000"/><glyph glyph-name="uni010C" unicode="Č" d="M110-4h65c35.33 0 65.33 10.83 90 32.5s39 50.17 43 85.5l16 124H207l-13-115c-2-13.33-9.67-20-23-20h-30c-13.33 0-19 6.67-17 20l55 454c2 13.33 9.67 20 23 20h30c13.33 0 19-6.67 17-20l-15-120h117l16 129c4 35.33-3.5 63.83-22.5 85.5S298.33 704 263 704h-65c-36 0-66.17-10.83-90.5-32.5S68.67 621.33 64 586L6 114C1.33 78.67 8.67 50.17 28 28.5S74.67-4 110-4Zm38 903 49-149h76l86 149h-75l-40-74-22 74Z" horiz-adv-x="368" vert-adv-y="1000"/><glyph glyph-name="uni010D" unicode="č" d="M96-4h55c33.33 0 61.33 10.17 84 30.5s36 46.83 40 79.5l10 80H177l-9-72c-1.33-13.33-8.67-20-22-20h-20c-13.33 0-19.33 6.67-18 20l32 252c1.33 13.33 8.67 20 22 20h20c13.33 0 19.33-6.67 18-20l-9-72h107l10 80c4 33.33-2.83 60-20.5 80s-42.83 30-75.5 30h-55c-33.33 0-61.33-10.17-84-30.5S37 406.67 33 374L0 106c-4-33.33 2.83-60 20.5-80S63.33-4 96-4Zm55 534h76l86 149h-75l-39-74-22 74h-75Z" horiz-adv-x="325" vert-adv-y="1000"/><glyph glyph-name="uni010E" unicode="Ď" d="M-8 0h184c35.33 0 65.17 11 89.5 33s38.83 50.67 43.5 86l57 462c4.67 36-2.67 64.83-22 86.5S297.33 700 262 700H78Zm128 99 62 502h50c13.33 0 19.33-6.67 18-20l-57-462c-1.33-13.33-8.67-20-22-20Zm9 800 50-149h75l86 149h-75l-39-74-22 74Z" horiz-adv-x="373" vert-adv-y="1000"/><glyph glyph-name="uni010F" unicode="ď" d="M0 106c-4-33.33-.17-60 11.5-80S40.67-4 64-4h39c21.33 0 39.67 7.67 55 23l-2-19h107l88 720H244l-32-258c-11.33 14.67-27.33 22-48 22h-39c-23.33 0-43.5-10.17-60.5-30.5S37 406.67 33 374Zm126-12c-13.33 0-19.33 6.67-18 20l32 252c1.33 13.33 8.67 20 22 20h20c13.33 0 19.33-6.67 18-20l-32-252c-1.33-13.33-8.67-20-22-20Zm283 493 61 133h-84l-39-133Z" horiz-adv-x="425" vert-adv-y="1000"/><glyph glyph-name="uni0110" unicode="Đ" d="M-8 0h184c35.33 0 65.17 11 89.5 33s38.83 50.67 43.5 86l57 462c4.67 36-2.67 64.83-22 86.5S297.33 700 262 700H78L38 378H8l-7-55h31Zm196 323 7 55h-40l27 223h50c13.33 0 19.33-6.67 18-20l-57-462c-1.33-13.33-8.67-20-22-20h-51l28 224Z" horiz-adv-x="373" vert-adv-y="1000"/><glyph glyph-name="uni0111" unicode="đ" d="M-26 106c-4.67-33.33-1.17-60 10.5-80S14-4 38-4h39c21.33 0 39.67 7.67 55 23l-3-19h108l73 603h27l5 46h-26l9 71H217l-8-71h-95l-5-46h94l-17-142c-12 15.33-28 23-48 23H99c-24 0-44.33-10-61-30s-27-46.67-31-80Zm126-12c-13.33 0-19.33 6.67-18 20l32 252c1.33 13.33 8.67 20 22 20h20c13.33 0 19.33-6.67 18-20l-32-252c-1.33-13.33-8.67-20-22-20Z" horiz-adv-x="310" vert-adv-y="1000"/><glyph glyph-name="uni0112" unicode="Ē" d="m220 0 12 99H120l25 202h102l12 98H157l25 202h111l13 99H78L-8 0Zm88 756 10 90H102l-11-90Z" horiz-adv-x="287" vert-adv-y="1000"/><glyph glyph-name="uni0113" unicode="ē" d="M96-4h55c33.33 0 61.33 10.17 84 30.5s36 46.83 40 79.5l7 58H174l-6-50c-1.33-13.33-8.67-20-22-20h-20c-13.33 0-19.33 6.67-18 20l11 85h168l21 175c4 33.33-2.83 60-20.5 80s-42.83 30-75.5 30h-55c-33.33 0-61.33-10.17-84-30.5S37 406.67 33 374L0 106c-4-33.33 2.83-60 20.5-80S63.33-4 96-4Zm203 540 11 90H93l-11-90ZM130 289l10 77c1.33 13.33 8.67 20 22 20h20c13.33 0 19.33-6.67 18-20l-10-77Z" horiz-adv-x="334" vert-adv-y="1000"/><glyph glyph-name="uni0114" unicode="Ĕ" d="M-8 0h228l12 99H120l25 202h102l12 98H157l25 202h111l13 99H78Zm108 841c-3.33-26 2-46.83 16-62.5 14-15.67 34.33-23.5 61-23.5h44c26.67 0 48.83 7.83 66.5 23.5S315.67 815 319 841l4 34h-83l-4-32c-.67-10.67-7.33-16-20-16h-18c-10.67 0-15.67 5.33-15 16l4 32h-83Z" horiz-adv-x="287" vert-adv-y="1000"/><glyph glyph-name="uni0115" unicode="ĕ" d="M96-4h55c33.33 0 61.33 10.17 84 30.5s36 46.83 40 79.5l7 58H174l-6-50c-1.33-13.33-8.67-20-22-20h-20c-13.33 0-19.33 6.67-18 20l11 85h168l21 175c4 33.33-2.83 60-20.5 80s-42.83 30-75.5 30h-55c-33.33 0-61.33-10.17-84-30.5S37 406.67 33 374L0 106c-4-33.33 2.83-60 20.5-80S63.33-4 96-4Zm72 539h45c26.67 0 48.67 7.83 66 23.5s27.67 36.5 31 62.5l4 34h-83l-4-32c-.67-10.67-7-16-19-16h-18c-11.33 0-16.67 5.33-16 16l4 32H95l-4-34c-2.67-26 3-46.83 17-62.5 14-15.67 34-23.5 60-23.5Zm-28-169c1.33 13.33 8.67 20 22 20h20c13.33 0 19.33-6.67 18-20l-10-77h-60Z" horiz-adv-x="334" vert-adv-y="1000"/><glyph glyph-name="uni0116" unicode="Ė" d="M-8 0h228l12 99H120l25 202h102l12 98H157l25 202h111l13 99H78Zm260 751 15 122H160l-15-122Z" horiz-adv-x="287" vert-adv-y="1000"/><glyph glyph-name="uni0117" unicode="ė" d="M96-4h55c33.33 0 61.33 10.17 84 30.5s36 46.83 40 79.5l7 58H174l-6-50c-1.33-13.33-8.67-20-22-20h-20c-13.33 0-19.33 6.67-18 20l11 85h168l21 175c4 33.33-2.83 60-20.5 80s-42.83 30-75.5 30h-55c-33.33 0-61.33-10.17-84-30.5S37 406.67 33 374L0 106c-4-33.33 2.83-60 20.5-80S63.33-4 96-4Zm147 535 15 122H151l-15-122ZM140 366c1.33 13.33 8.67 20 22 20h20c13.33 0 19.33-6.67 18-20l-10-77h-60Z" horiz-adv-x="334" vert-adv-y="1000"/><glyph glyph-name="uni0118" unicode="Ę" d="M-8 0h140l-25-35C92.33-55.67 84-75.67 82-95c-2.67-20 2-36.33 14-49 12-12.67 28.67-19 50-19h66l8 62-45-1c-10.67 0-19.17 2.17-25.5 6.5-6.33 4.33-9.17 10.17-8.5 17.5 1.33 8 7 19 17 33l34 45h28l12 99H120l25 202h102l12 98H157l25 202h111l13 99H78Z" horiz-adv-x="287" vert-adv-y="1000"/><glyph glyph-name="uni0119" unicode="ę" d="M96-4h16L90-35C75.33-55.67 67-75.67 65-95c-2.67-20 2-36.33 14-49 12-12.67 28.67-19 50-19h66l8 62-45-1c-10.67 0-19.17 2.17-25.5 6.5-6.33 4.33-9.17 10.17-8.5 17.5 1.33 8 7 19 17 33l32 42c28 4.67 51.17 16.67 69.5 36s29.17 43.67 32.5 73l7 58H174l-6-50c-1.33-13.33-8.67-20-22-20h-20c-13.33 0-19.33 6.67-18 20l11 85h168l21 175c4 33.33-2.83 60-20.5 80s-42.83 30-75.5 30h-55c-33.33 0-61.33-10.17-84-30.5S37 406.67 33 374L0 106c-4-33.33 2.83-60 20.5-80S63.33-4 96-4Zm44 370c1.33 13.33 8.67 20 22 20h20c13.33 0 19.33-6.67 18-20l-10-77h-60Z" horiz-adv-x="334" vert-adv-y="1000"/><glyph glyph-name="uni011A" unicode="Ě" d="m220 0 12 99H120l25 202h102l12 98H157l25 202h111l13 99H78L-8 0ZM111 899l49-149h76l86 149h-75l-40-74-22 74Z" horiz-adv-x="287" vert-adv-y="1000"/><glyph glyph-name="uni011B" unicode="ě" d="M96-4h55c33.33 0 61.33 10.17 84 30.5s36 46.83 40 79.5l7 58H174l-6-50c-1.33-13.33-8.67-20-22-20h-20c-13.33 0-19.33 6.67-18 20l11 85h168l21 175c4 33.33-2.83 60-20.5 80s-42.83 30-75.5 30h-55c-33.33 0-61.33-10.17-84-30.5S37 406.67 33 374L0 106c-4-33.33 2.83-60 20.5-80S63.33-4 96-4Zm55 534h76l86 149h-75l-39-74-22 74h-75Zm-21-241 10 77c1.33 13.33 8.67 20 22 20h20c13.33 0 19.33-6.67 18-20l-10-77Z" horiz-adv-x="334" vert-adv-y="1000"/><glyph glyph-name="uni011C" unicode="Ĝ" d="M110-4h65c35.33 0 65.33 10.83 90 32.5s39 50.17 43 85.5l32 259H183l-11-99h40l-18-151c-2-13.33-9.67-20-23-20h-30c-13.33 0-19 6.67-17 20l55 454c2 13.33 9.67 20 23 20h30c13.33 0 19-6.67 17-20l-15-120h117l16 129c4 35.33-3.5 63.83-22.5 85.5S298.33 704 263 704h-65c-36 0-66.17-10.83-90.5-32.5S68.67 621.33 64 586L6 114C1.33 78.67 8.67 50.17 28 28.5S74.67-4 110-4Zm94 754 40 74 22-74h74l-49 149h-76l-86-149Z" horiz-adv-x="368" vert-adv-y="1000"/><glyph glyph-name="uni011D" unicode="ĝ" d="M-21-84c-4-32.67 2.83-59.17 20.5-79.5S42.67-194 76-194h53c33.33 0 61.33 10.17 84 30.5s36 46.83 40 79.5l69 564H215l-3-19c-11.33 15.33-27.33 23-48 23h-39c-23.33 0-43.5-10.17-60.5-30.5S37 406.67 33 374L0 106c-4-33.33-.17-60 11.5-80S40.67-4 64-4h39c22 0 40.33 8 55 24l-12-96c-1.33-13.33-8.67-20-22-20h-18c-13.33 0-19.33 6.67-18 20l5 37H-15Zm180 614 41 74 21-74h75l-50 149h-75L85 530ZM126 94c-13.33 0-19.33 6.67-18 20l32 252c1.33 13.33 8.67 20 22 20h20c13.33 0 19.33-6.67 18-20l-32-252c-1.33-13.33-8.67-20-22-20Z" horiz-adv-x="336" vert-adv-y="1000"/><glyph glyph-name="uni011E" unicode="Ğ" d="M110-4h65c35.33 0 65.33 10.83 90 32.5s39 50.17 43 85.5l32 259H183l-11-99h40l-18-151c-2-13.33-9.67-20-23-20h-30c-13.33 0-19 6.67-17 20l55 454c2 13.33 9.67 20 23 20h30c13.33 0 19-6.67 17-20l-15-120h117l16 129c4 35.33-3.5 63.83-22.5 85.5S298.33 704 263 704h-65c-36 0-66.17-10.83-90.5-32.5S68.67 621.33 64 586L6 114C1.33 78.67 8.67 50.17 28 28.5S74.67-4 110-4Zm104 759h44c26.67 0 48.83 7.83 66.5 23.5S352.67 815 356 841l4 34h-83l-4-32c-.67-10.67-7.33-16-20-16h-18c-10.67 0-15.67 5.33-15 16l4 32h-83l-4-34c-3.33-26 2-46.83 16-62.5 14-15.67 34.33-23.5 61-23.5Z" horiz-adv-x="368" vert-adv-y="1000"/><glyph glyph-name="uni011F" unicode="ğ" d="M-21-84c-4-32.67 2.83-59.17 20.5-79.5S42.67-194 76-194h53c33.33 0 61.33 10.17 84 30.5s36 46.83 40 79.5l69 564H215l-3-19c-11.33 15.33-27.33 23-48 23h-39c-23.33 0-43.5-10.17-60.5-30.5S37 406.67 33 374L0 106c-4-33.33-.17-60 11.5-80S40.67-4 64-4h39c22 0 40.33 8 55 24l-12-96c-1.33-13.33-8.67-20-22-20h-18c-13.33 0-19.33 6.67-18 20l5 37H-15ZM92 621c-2.67-26 3-46.83 17-62.5 14-15.67 34-23.5 60-23.5h45c26.67 0 48.67 7.83 66 23.5s27.67 36.5 31 62.5l4 34h-83l-4-32c-.67-10.67-7-16-19-16h-18c-11.33 0-16.67 5.33-16 16l4 32H96Zm34-527c-13.33 0-19.33 6.67-18 20l32 252c1.33 13.33 8.67 20 22 20h20c13.33 0 19.33-6.67 18-20l-32-252c-1.33-13.33-8.67-20-22-20Z" horiz-adv-x="336" vert-adv-y="1000"/><glyph glyph-name="uni0120" unicode="Ġ" d="M110-4h65c35.33 0 65.33 10.83 90 32.5s39 50.17 43 85.5l32 259H183l-11-99h40l-18-151c-2-13.33-9.67-20-23-20h-30c-13.33 0-19 6.67-17 20l55 454c2 13.33 9.67 20 23 20h30c13.33 0 19-6.67 17-20l-15-120h117l16 129c4 35.33-3.5 63.83-22.5 85.5S298.33 704 263 704h-65c-36 0-66.17-10.83-90.5-32.5S68.67 621.33 64 586L6 114C1.33 78.67 8.67 50.17 28 28.5S74.67-4 110-4Zm179 755 15 122H197l-15-122Z" horiz-adv-x="368" vert-adv-y="1000"/><glyph glyph-name="uni0121" unicode="ġ" d="M-21-84c-4-32.67 2.83-59.17 20.5-79.5S42.67-194 76-194h53c33.33 0 61.33 10.17 84 30.5s36 46.83 40 79.5l69 564H215l-3-19c-11.33 15.33-27.33 23-48 23h-39c-23.33 0-43.5-10.17-60.5-30.5S37 406.67 33 374L0 106c-4-33.33-.17-60 11.5-80S40.67-4 64-4h39c22 0 40.33 8 55 24l-12-96c-1.33-13.33-8.67-20-22-20h-18c-13.33 0-19.33 6.67-18 20l5 37H-15ZM126 94c-13.33 0-19.33 6.67-18 20l32 252c1.33 13.33 8.67 20 22 20h20c13.33 0 19.33-6.67 18-20l-32-252c-1.33-13.33-8.67-20-22-20Zm118 437 15 122H152l-15-122Z" horiz-adv-x="336" vert-adv-y="1000"/><glyph glyph-name="uni0122" unicode="Ģ" d="M110-4h65c35.33 0 65.33 10.83 90 32.5s39 50.17 43 85.5l32 259H183l-11-99h40l-18-151c-2-13.33-9.67-20-23-20h-30c-13.33 0-19 6.67-17 20l55 454c2 13.33 9.67 20 23 20h30c13.33 0 19-6.67 17-20l-15-120h117l16 129c4 35.33-3.5 63.83-22.5 85.5S298.33 704 263 704h-65c-36 0-66.17-10.83-90.5-32.5S68.67 621.33 64 586L6 114C1.33 78.67 8.67 50.17 28 28.5S74.67-4 110-4Zm15-173 62 133h-85L63-177Z" horiz-adv-x="368" vert-adv-y="1000"/><glyph glyph-name="uni0123" unicode="ģ" d="M-21-84c-4-32.67 2.83-59.17 20.5-79.5S42.67-194 76-194h53c33.33 0 61.33 10.17 84 30.5s36 46.83 40 79.5l69 564H215l-3-19c-11.33 15.33-27.33 23-48 23h-39c-23.33 0-43.5-10.17-60.5-30.5S37 406.67 33 374L0 106c-4-33.33-.17-60 11.5-80S40.67-4 64-4h39c22 0 40.33 8 55 24l-12-96c-1.33-13.33-8.67-20-22-20h-18c-13.33 0-19.33 6.67-18 20l5 37H-15ZM126 94c-13.33 0-19.33 6.67-18 20l32 252c1.33 13.33 8.67 20 22 20h20c13.33 0 19.33-6.67 18-20l-32-252c-1.33-13.33-8.67-20-22-20Zm102 442 40 133h-63l-62-133Z" horiz-adv-x="336" vert-adv-y="1000"/><glyph glyph-name="uni0124" unicode="Ĥ" d="M-8 0h116l37 301h70L178 0h117l86 700H264l-37-301h-70l37 301H78Zm212 750 40 74 22-74h74l-49 149h-76l-86-149Z" horiz-adv-x="373" vert-adv-y="1000"/><glyph glyph-name="uni0125" unicode="ĥ" d="M-13 0H95l45 367c2 12.67 9.33 19 22 19h20c13.33 0 19.33-6.67 18-20L155 0h107l46 374c4 33.33.17 60-11.5 80s-29.17 30-52.5 30h-39c-20 0-38-7.33-54-22l32 258H75ZM93 750l40 74 21-74h75l-49 149h-76L18 750Z" horiz-adv-x="335" vert-adv-y="1000"/><glyph glyph-name="uni0126" unicode="Ħ" d="m108 0 37 301h70L178 0h117l69 570h30l8 55h-31l10 75H264l-9-75h-70l9 75H78l-9-75H39l-7-55h30L-8 0Zm140 570-21-171h-70l21 171Z" horiz-adv-x="373" vert-adv-y="1000"/><glyph glyph-name="uni0127" unicode="ħ" d="m95 0 45 367c2 12.67 9.33 19 22 19h20c13.33 0 19.33-6.67 18-20L155 0h107l46 374c4 33.33.17 60-11.5 80s-29.17 30-52.5 30h-39c-20 0-38-7.33-54-22l17 141h96l6 46h-96l9 71H75l-9-71H41l-5-46h25L-13 0Z" horiz-adv-x="335" vert-adv-y="1000"/><glyph glyph-name="uni0128" unicode="Ĩ" d="M-8 0h116l86 700H78Zm111 753c2 16 7.67 24 17 24 2.67 0 9.67-4.5 21-13.5s25-13.5 41-13.5c24 0 43.83 8.17 59.5 24.5 15.67 16.33 25.17 37.83 28.5 64.5h-66c-2-16-7.67-24-17-24-2.67 0-9.83 4.5-21.5 13.5S140 842 124 842c-24 0-43.67-8.17-59-24.5-15.33-16.33-24.67-37.83-28-64.5Z" horiz-adv-x="186" vert-adv-y="1000"/><glyph glyph-name="uni0129" unicode="ĩ" d="m95 0 59 480H46L-13 0ZM65 533c2 16 7.33 24 16 24 2.67 0 9.5-4.5 20.5-13.5S126 530 142 530c23.33 0 42.5 8 57.5 24s24.17 37.67 27.5 65h-66c-2-16-8-24-18-24-1.33 0-7.67 4.5-19 13.5S99 622 83 622c-23.33 0-42.33-8.17-57-24.5C11.33 581.17 2.33 559.67-1 533Z" horiz-adv-x="168" vert-adv-y="1000"/><glyph glyph-name="uni012A" unicode="Ī" d="M-8 0h116l86 700H78Zm43 756h216l11 90H46Z" horiz-adv-x="186" vert-adv-y="1000"/><glyph glyph-name="uni012B" unicode="ī" d="M-13 0H95l59 480H46ZM6 536h202l11 90H16Z" horiz-adv-x="168" vert-adv-y="1000"/><glyph glyph-name="uni012C" unicode="Ĭ" d="M-8 0h116l86 700H78Zm52 841c-3.33-26 2-46.83 16-62.5 14-15.67 34.33-23.5 61-23.5h44c26.67 0 48.83 7.83 66.5 23.5S259.67 815 263 841l4 34h-83l-4-32c-.67-10.67-7.33-16-20-16h-18c-10.67 0-15.67 5.33-15 16l4 32H48Z" horiz-adv-x="186" vert-adv-y="1000"/><glyph glyph-name="uni012D" unicode="ĭ" d="M-13 0H95l59 480H46Zm23 621c-3.33-26 2-46.83 16-62.5C40 542.83 60.33 535 87 535h39c26.67 0 48.83 7.83 66.5 23.5S220.67 595 224 621l4 34h-83l-4-32c-.67-10.67-7.33-16-20-16h-12c-11.33 0-16.67 5.33-16 16l4 32H14Z" horiz-adv-x="168" vert-adv-y="1000"/><glyph glyph-name="uni012E" unicode="Į" d="M-25-95c-2-20 2.83-36.33 14.5-49C1.17-156.67 18-163 40-163h66l8 62-45-1c-11.33 0-20 2.17-26 6.5S34.33-85.33 35-78c.67 7.33 6 18.33 16 33L86 0h22l86 700H78L-8 0h34L0-35c-14.67-22.67-23-42.67-25-60Z" horiz-adv-x="186" vert-adv-y="1000"/><glyph glyph-name="uni012F" unicode="į" d="M-40-95c-2.67-20 2-36.33 14-49 12-12.67 28.67-19 50-19h66l8 62-45-1c-10.67 0-19.17 2.17-25.5 6.5-6.33 4.33-9.17 10.17-8.5 17.5 1.33 8 7 19 17 33L70 0h25l59 480H46L-13 0h23l-26-35c-14-21.33-22-41.33-24-60Zm97 668h108l15 121H72Z" horiz-adv-x="168" vert-adv-y="1000"/><glyph glyph-name="uni0130" unicode="İ" d="M-8 0h116l86 700H78Zm97 751h107l15 122H104Z" horiz-adv-x="186" vert-adv-y="1000"/><glyph glyph-name="uni0131" unicode="ı" d="M-13 0H95l59 480H46Z" horiz-adv-x="168" vert-adv-y="1000"/><glyph glyph-name="uni0132" unicode="Ĳ" d="M1 114c-4.67-35.33 2.67-63.83 22-85.5S69.67-4 105-4h65c35.33 0 65.33 10.83 90 32.5s39 50.17 43 85.5l73 586H259l-70-577c-2-13.33-9.67-20-23-20h-30c-13.33 0-19 6.67-17 20l13 111H16Zm143 220 45 366H73L28 334Z" horiz-adv-x="368" vert-adv-y="1000"/><glyph glyph-name="uni0133" unicode="ĳ" d="M55-190h63c36.67 0 67.33 11 92 33s39.33 51.33 44 88l67 549H214L147-60c-.67-9.33-4.33-16.83-11-22.5-6.67-5.67-14.67-8.5-24-8.5H67ZM-13 0H95l59 480H46Zm178 573 15 121H72L57 573Zm167 0 15 121H240l-15-121Z" horiz-adv-x="335" vert-adv-y="1000"/><glyph glyph-name="uni0134" unicode="Ĵ" d="M-14 114c-4.67-35.33 2.67-63.83 22-85.5S54.67-4 90-4h65c35.33 0 65.33 10.83 90 32.5s39 50.17 43 85.5l73 586H244l-70-577c-2-13.33-9.67-20-23-20h-30c-13.33 0-19 6.67-17 20l13 111H1Zm214 636h75l40 74 21-74h75l-50 149h-75Z" horiz-adv-x="353" vert-adv-y="1000"/><glyph glyph-name="uni0135" unicode="ĵ" d="M-92-190h42c36.67 0 67.33 11 92 33s39.33 51.33 44 88l68 549H46L-20-60c-.67-9.33-4.5-16.83-11.5-22.5-7-5.67-15.17-8.5-24.5-8.5h-25ZM69 530l40 74 21-74h75l-50 149H80L-6 530Z" horiz-adv-x="168" vert-adv-y="1000"/><glyph glyph-name="uni0136" unicode="Ķ" d="M-8 0h116l34 270L181 0h112l-65 359 146 341H262l-99-252 31 252H78Zm132-177 62 133h-85L62-177Z" horiz-adv-x="341" vert-adv-y="1000"/><glyph glyph-name="uni0137" unicode="ķ" d="M-13 0H95l21 177L164 0h112l-70 244 126 236H220l-88-170 51 410H75Zm64-177h62l62 133H90Z" horiz-adv-x="324" vert-adv-y="1000"/><glyph glyph-name="uni0139" unicode="Ĺ" d="M-8 0h228l12 99H120l74 601H78Zm99 750h84l95 150H156Z" horiz-adv-x="273" vert-adv-y="1000"/><glyph glyph-name="uni013A" unicode="ĺ" d="M-13 0H95l88 720H75Zm172 750 96 150H140L76 750Z" horiz-adv-x="168" vert-adv-y="1000"/><glyph glyph-name="uni013B" unicode="Ļ" d="M-8 0h228l12 99H120l74 601H78Zm33-177h63l62 133H65Z" horiz-adv-x="273" vert-adv-y="1000"/><glyph glyph-name="uni013C" unicode="ļ" d="M-13 0H95l88 720H75Zm-27-177h62L84-44H-1Z" horiz-adv-x="168" vert-adv-y="1000"/><glyph glyph-name="uni013D" unicode="Ľ" d="M-8 0h228l12 99H120l74 601H78Zm262 550 59 150h-80l-37-150Z" horiz-adv-x="273" vert-adv-y="1000"/><glyph glyph-name="uni013E" unicode="ľ" d="M-13 0H95l88 720H75Zm192 587h62l61 133h-85Z" horiz-adv-x="257" vert-adv-y="1000"/><glyph glyph-name="uni013F" unicode="Ŀ" d="M-8 0h228l12 99H120l74 601H78Zm266 289 15 122h-81l-15-122Z" horiz-adv-x="273" vert-adv-y="1000"/><glyph glyph-name="uni0140" unicode="ŀ" d="M-13 0H95l88 720H75Zm199 289h107l15 122H201Z" horiz-adv-x="326" vert-adv-y="1000"/><glyph glyph-name="uni0141" unicode="Ł" d="m220 0 12 99H120l35 284 98 53-18 40-73-40 32 264H78L37 369l-38-20 19-40 13 7L-8 0Z" horiz-adv-x="273" vert-adv-y="1000"/><glyph glyph-name="uni0142" unicode="ł" d="m-6 346 19-40 32 17L5 0h108l47 385 57 31-18 40-33-18 35 282H93L51 376Z" horiz-adv-x="204" vert-adv-y="1000"/><glyph glyph-name="uni0143" unicode="Ń" d="M-8 0h112l36 293c3.33 30 5 60 5 90l2 1c0-37.33 1.67-67.33 5-90L183 0h112l86 700H269l-36-293c-3.33-31.33-5-61.67-5-91l-2-1c0 37.33-1.67 67.33-5 90l-31 295H78Zm187 750h83l96 150H243Z" horiz-adv-x="373" vert-adv-y="1000"/><glyph glyph-name="uni0144" unicode="ń" d="m95 0 45 366v1c2 12.67 9.33 19 22 19h20c13.33 0 19.33-6.67 18-20L155 0h107l46 374c4 33.33.17 60-11.5 80s-29.17 30-52.5 30h-39c-20 0-38-7.33-54-22l3 18H46L-13 0Zm31 530h83l96 150H190Z" horiz-adv-x="335" vert-adv-y="1000"/><glyph glyph-name="uni0145" unicode="Ņ" d="m104 0 36 293c3.33 30 5 60 5 90l2 1c0-37.33 1.67-67.33 5-90L183 0h112l86 700H269l-36-293c-3.33-31.33-5-61.67-5-91l-2-1c0 37.33-1.67 67.33-5 90l-31 295H78L-8 0Zm21-177 62 133h-85L63-177Z" horiz-adv-x="373" vert-adv-y="1000"/><glyph glyph-name="uni0146" unicode="ņ" d="M-13 0H95l45 366v1c2 12.67 9.33 19 22 19h20c13.33 0 19.33-6.67 18-20L155 0h107l46 374c4 33.33.17 60-11.5 80s-29.17 30-52.5 30h-39c-20 0-38-7.33-54-22l3 18H46Zm57-177h62l62 133H83Z" horiz-adv-x="335" vert-adv-y="1000"/><glyph glyph-name="uni0147" unicode="Ň" d="M-8 0h112l36 293c3.33 30 5 60 5 90l2 1c0-37.33 1.67-67.33 5-90L183 0h112l86 700H269l-36-293c-3.33-31.33-5-61.67-5-91l-2-1c0 37.33-1.67 67.33-5 90l-31 295H78Zm156 899 50-149h75l86 149h-75l-39-74-22 74Z" horiz-adv-x="373" vert-adv-y="1000"/><glyph glyph-name="uni0148" unicode="ň" d="M-13 0H95l45 366v1c2 12.67 9.33 19 22 19h20c13.33 0 19.33-6.67 18-20L155 0h107l46 374c4 33.33.17 60-11.5 80s-29.17 30-52.5 30h-39c-20 0-38-7.33-54-22l3 18H46ZM95 679l49-149h76l86 149h-75l-39-74-22 74Z" horiz-adv-x="335" vert-adv-y="1000"/><glyph glyph-name="uni014A" unicode="Ŋ" d="m104 0 36 293c3.33 30 5 60 5 90l2 1c0-37.33 1.67-67.33 5-90L183 4l-9-71c-1.33-13.33-8.67-20-22-20h-52L86-194h67c35.33 0 65.17 10.83 89.5 32.5S281.33-111.33 286-76l95 776H269l-36-293c-3.33-31.33-5-61.67-5-91l-2-1c0 37.33-1.67 67.33-5 90l-31 295H78L-8 0Z" horiz-adv-x="373" vert-adv-y="1000"/><glyph glyph-name="uni014B" unicode="ŋ" d="m95 0 45 366v1c2 12.67 9.33 19 22 19h20c13.33 0 19.33-6.67 18-20L147-60c-.67-9.33-4.33-16.83-11-22.5-6.67-5.67-14.67-8.5-24-8.5H88l-11-99h41c36.67 0 67.33 11 92 33s39.33 51.33 44 88l54 443c4 33.33.17 60-11.5 80s-29.17 30-52.5 30h-39c-20 0-38-7.33-54-22l3 18H46L-13 0Z" horiz-adv-x="335" vert-adv-y="1000"/><glyph glyph-name="uni014C" unicode="Ō" d="M6 114C1.33 78.67 8.67 50.17 28 28.5S74.67-4 110-4h65c35.33 0 65.33 10.83 90 32.5s39 50.17 43 85.5l59 472c4 35.33-3.5 63.83-22.5 85.5S298.33 704 263 704h-65c-36 0-66.17-10.83-90.5-32.5S68.67 621.33 64 586Zm135-11c-13.33 0-19 6.67-17 20l55 454c2 13.33 9.67 20 23 20h30c13.33 0 19-6.67 17-20l-55-454c-2-13.33-9.67-20-23-20Zm204 653 10 90H139l-11-90Z" horiz-adv-x="373" vert-adv-y="1000"/><glyph glyph-name="uni014D" unicode="ō" d="M0 106c-4-33.33 2.83-60 20.5-80S63.33-4 96-4h55c33.33 0 61.33 10.17 84 30.5s36 46.83 40 79.5l33 268c4 33.33-2.83 60-20.5 80s-42.83 30-75.5 30h-55c-33.33 0-61.33-10.17-84-30.5S37 406.67 33 374Zm82 430h217l11 90H93Zm44-442c-13.33 0-19.33 6.67-18 20l32 252c1.33 13.33 8.67 20 22 20h20c13.33 0 19.33-6.67 18-20l-32-252c-1.33-13.33-8.67-20-22-20Z" horiz-adv-x="335" vert-adv-y="1000"/><glyph glyph-name="uni014E" unicode="Ŏ" d="M6 114C1.33 78.67 8.67 50.17 28 28.5S74.67-4 110-4h65c35.33 0 65.33 10.83 90 32.5s39 50.17 43 85.5l59 472c4 35.33-3.5 63.83-22.5 85.5S298.33 704 263 704h-65c-36 0-66.17-10.83-90.5-32.5S68.67 621.33 64 586Zm135-11c-13.33 0-19 6.67-17 20l55 454c2 13.33 9.67 20 23 20h30c13.33 0 19-6.67 17-20l-55-454c-2-13.33-9.67-20-23-20Zm-4 738c-3.33-26 2-46.83 16-62.5 14-15.67 34.33-23.5 61-23.5h44c26.67 0 48.83 7.83 66.5 23.5S352.67 815 356 841l4 34h-83l-4-32c-.67-10.67-7.33-16-20-16h-18c-10.67 0-15.67 5.33-15 16l4 32h-83Z" horiz-adv-x="373" vert-adv-y="1000"/><glyph glyph-name="uni014F" unicode="ŏ" d="M0 106c-4-33.33 2.83-60 20.5-80S63.33-4 96-4h55c33.33 0 61.33 10.17 84 30.5s36 46.83 40 79.5l33 268c4 33.33-2.83 60-20.5 80s-42.83 30-75.5 30h-55c-33.33 0-61.33-10.17-84-30.5S37 406.67 33 374Zm91 515c-2.67-26 3-46.83 17-62.5 14-15.67 34-23.5 60-23.5h45c26.67 0 48.67 7.83 66 23.5s27.67 36.5 31 62.5l4 34h-83l-4-32c-.67-10.67-7-16-19-16h-18c-11.33 0-16.67 5.33-16 16l4 32H95Zm35-527c-13.33 0-19.33 6.67-18 20l32 252c1.33 13.33 8.67 20 22 20h20c13.33 0 19.33-6.67 18-20l-32-252c-1.33-13.33-8.67-20-22-20Z" horiz-adv-x="335" vert-adv-y="1000"/><glyph glyph-name="uni0150" unicode="Ő" d="M6 114C1.33 78.67 8.67 50.17 28 28.5S74.67-4 110-4h65c35.33 0 65.33 10.83 90 32.5s39 50.17 43 85.5l59 472c4 35.33-3.5 63.83-22.5 85.5S298.33 704 263 704h-65c-36 0-66.17-10.83-90.5-32.5S68.67 621.33 64 586Zm135-11c-13.33 0-19 6.67-17 20l55 454c2 13.33 9.67 20 23 20h30c13.33 0 19-6.67 17-20l-55-454c-2-13.33-9.67-20-23-20Zm162 647 80 150h-77l-65-150Zm-160 0h61l80 150h-77Z" horiz-adv-x="373" vert-adv-y="1000"/><glyph glyph-name="uni0151" unicode="ő" d="M0 106c-4-33.33 2.83-60 20.5-80S63.33-4 96-4h55c33.33 0 61.33 10.17 84 30.5s36 46.83 40 79.5l33 268c4 33.33-2.83 60-20.5 80s-42.83 30-75.5 30h-55c-33.33 0-61.33-10.17-84-30.5S37 406.67 33 374Zm126-12c-13.33 0-19.33 6.67-18 20l32 252c1.33 13.33 8.67 20 22 20h20c13.33 0 19.33-6.67 18-20l-32-252c-1.33-13.33-8.67-20-22-20Zm131 436 80 150h-77l-64-150Zm-98 0 80 150h-77L97 530Z" horiz-adv-x="335" vert-adv-y="1000"/><glyph glyph-name="uni0152" unicode="Œ" d="M6 114c-4.67-35.33.17-63.83 14.5-85.5S55.67-4 83-4h50c28.67 0 53.33 8.67 74 26l-2-22h192l13 99H298l25 202h101l13 98H335l24 202h112l12 99H291l-3-21c-16.67 16.67-39 25-67 25h-50c-27.33 0-50.83-10.83-70.5-32.5S68.67 621.33 64 586Zm135-11c-13.33 0-19 6.67-17 20l55 454c2 13.33 9.67 20 23 20h30c13.33 0 19-6.67 17-20l-55-454c-2-13.33-9.67-20-23-20Z" horiz-adv-x="464" vert-adv-y="1000"/><glyph glyph-name="uni0153" unicode="œ" d="M0 106c-4-33.33 2.17-60 18.5-80S58.33-4 89-4h52c26 0 49 7.33 69 22 16.67-14.67 38-22 64-22h52c30.67 0 56.67 10.17 78 30.5s34 46.83 38 79.5l7 58H342l-6-50c-1.33-13.33-8.67-20-22-20h-20c-13.33 0-19.33 6.67-18 20l11 85h167l22 175c4 32.67-2.17 59.17-18.5 79.5S417.67 484 387 484h-52c-26 0-49.33-7.33-70-22-16 14.67-37.33 22-64 22h-51c-31.33 0-57.67-10-79-30s-34-46.67-38-80Zm126-12c-13.33 0-19.33 6.67-18 20l32 252c1.33 13.33 8.67 20 22 20h20c13.33 0 19.33-6.67 18-20l-32-252c-1.33-13.33-8.67-20-22-20Zm181 272c1.33 13.33 8.67 20 22 20h20c13.33 0 19.33-6.67 18-20l-10-77h-60Z" horiz-adv-x="502" vert-adv-y="1000"/><glyph glyph-name="uni0154" unicode="Ŕ" d="M-8 0h116l36 291h30L199 0h108l-27 308c37.33 21.33 59 55 65 101l21 172c4.67 36-2.67 64.83-22 86.5S297.33 700 262 700H78Zm155 750h83l96 150H211Zm35-149h50c13.33 0 19.33-6.67 18-20l-21-172c-1.33-13.33-8.67-20-22-20h-51Z" horiz-adv-x="360" vert-adv-y="1000"/><glyph glyph-name="uni0155" unicode="ŕ" d="m95 0 42 346c1.33 12 7.33 21.67 18 29 10.67 7.33 23.67 11 39 11h46l12 98h-37c-24.67 0-46.33-10.33-65-31l4 27H46L-13 0Zm81 530 96 150H157L93 530Z" horiz-adv-x="245" vert-adv-y="1000"/><glyph glyph-name="uni0156" unicode="Ŗ" d="m108 0 36 291h30L199 0h108l-27 308c37.33 21.33 59 55 65 101l21 172c4.67 36-2.67 64.83-22 86.5S297.33 700 262 700H78L-8 0Zm74 601h50c13.33 0 19.33-6.67 18-20l-21-172c-1.33-13.33-8.67-20-22-20h-51ZM68-177h63l62 133h-85Z" horiz-adv-x="360" vert-adv-y="1000"/><glyph glyph-name="uni0157" unicode="ŗ" d="m95 0 42 346c1.33 12 7.33 21.67 18 29 10.67 7.33 23.67 11 39 11h46l12 98h-37c-24.67 0-46.33-10.33-65-31l4 27H46L-13 0ZM-42-177h62L82-44H-2Z" horiz-adv-x="245" vert-adv-y="1000"/><glyph glyph-name="uni0158" unicode="Ř" d="M-8 0h116l36 291h30L199 0h108l-27 308c37.33 21.33 59 55 65 101l21 172c4.67 36-2.67 64.83-22 86.5S297.33 700 262 700H78Zm124 899 50-149h75l86 149h-75l-39-74-22 74Zm66-298h50c13.33 0 19.33-6.67 18-20l-21-172c-1.33-13.33-8.67-20-22-20h-51Z" horiz-adv-x="360" vert-adv-y="1000"/><glyph glyph-name="uni0159" unicode="ř" d="m95 0 42 346c1.33 12 7.33 21.67 18 29 10.67 7.33 23.67 11 39 11h46l12 98h-37c-24.67 0-46.33-10.33-65-31l4 27H46L-13 0ZM62 679l49-149h76l86 149h-75l-39-74-22 74Z" horiz-adv-x="245" vert-adv-y="1000"/><glyph glyph-name="uni015A" unicode="Ś" d="M100-4h65c35.33 0 65.33 10.83 90 32.5s39 50.17 43 85.5l16 125c2.67 21.33-.17 42.5-8.5 63.5S284.67 340 268 352l-100 89c-10 7.33-14 17-12 29l13 107c2 13.33 9.67 20 23 20h30c13.33 0 19-6.67 17-20l-15-120h117l16 129c4 35.33-3.5 63.83-22.5 85.5S288.33 704 253 704h-65c-36 0-66.17-10.83-90.5-32.5S58.67 621.33 54 586L40 472c-2.67-21.33.17-42.5 8.5-63.5S69.33 371 86 359l100-88c9.33-8 13.33-18 12-30l-14-118c-2-13.33-9.67-20-23-20h-30c-13.33 0-19 6.67-17 20l14 120H12L-4 114c-4.67-35.33 2.67-63.83 22-85.5S64.67-4 100-4Zm68 754h84l95 150H233Z" horiz-adv-x="353" vert-adv-y="1000"/><glyph glyph-name="uni015B" unicode="ś" d="M96-4h55c32.67 0 60.33 10 83 30s36 46.67 40 80l10 78c2 19.33-1.33 36.83-10 52.5-8.67 15.67-21.67 26.83-39 33.5l-90 36c-11.33 3.33-16.33 11.67-15 25l5 35c1.33 13.33 8.67 20 22 20h20c13.33 0 19.33-6.67 18-20l-6-42h108l6 50c4 33.33-2.83 60-20.5 80s-42.83 30-75.5 30h-55c-33.33 0-61.33-10.17-84-30.5S32 406.67 28 374l-8-66c-2.67-19.33.67-36.83 10-52.5 9.33-15.67 22.67-26.83 40-33.5l89-36c11.33-4.67 16.33-13.33 15-26l-6-46c-1.33-13.33-8.67-20-22-20h-20c-13.33 0-19.33 6.67-18 20l6 47H6l-7-55c-4-32.67 2.83-59.17 20.5-79.5S62.67-4 96-4Zm34 534h84l95 150H195Z" horiz-adv-x="324" vert-adv-y="1000"/><glyph glyph-name="uni015C" unicode="Ŝ" d="M100-4h65c35.33 0 65.33 10.83 90 32.5s39 50.17 43 85.5l16 125c2.67 21.33-.17 42.5-8.5 63.5S284.67 340 268 352l-100 89c-10 7.33-14 17-12 29l13 107c2 13.33 9.67 20 23 20h30c13.33 0 19-6.67 17-20l-15-120h117l16 129c4 35.33-3.5 63.83-22.5 85.5S288.33 704 253 704h-65c-36 0-66.17-10.83-90.5-32.5S58.67 621.33 54 586L40 472c-2.67-21.33.17-42.5 8.5-63.5S69.33 371 86 359l100-88c9.33-8 13.33-18 12-30l-14-118c-2-13.33-9.67-20-23-20h-30c-13.33 0-19 6.67-17 20l14 120H12L-4 114c-4.67-35.33 2.67-63.83 22-85.5S64.67-4 100-4Zm19 754h75l40 74 22-74h74l-49 149h-76Z" horiz-adv-x="353" vert-adv-y="1000"/><glyph glyph-name="uni015D" unicode="ŝ" d="M96-4h55c32.67 0 60.33 10 83 30s36 46.67 40 80l10 78c2 19.33-1.33 36.83-10 52.5-8.67 15.67-21.67 26.83-39 33.5l-90 36c-11.33 3.33-16.33 11.67-15 25l5 35c1.33 13.33 8.67 20 22 20h20c13.33 0 19.33-6.67 18-20l-6-42h108l6 50c4 33.33-2.83 60-20.5 80s-42.83 30-75.5 30h-55c-33.33 0-61.33-10.17-84-30.5S32 406.67 28 374l-8-66c-2.67-19.33.67-36.83 10-52.5 9.33-15.67 22.67-26.83 40-33.5l89-36c11.33-4.67 16.33-13.33 15-26l-6-46c-1.33-13.33-8.67-20-22-20h-20c-13.33 0-19.33 6.67-18 20l6 47H6l-7-55c-4-32.67 2.83-59.17 20.5-79.5S62.67-4 96-4Zm60 534 40 74 21-74h75l-49 149h-76L81 530Z" horiz-adv-x="324" vert-adv-y="1000"/><glyph glyph-name="uni015E" unicode="Ş" d="M100-4h10L88-86h42c2 8 5.67 12 11 12h6c6 0 8.33-4.67 7-14l-5-35c-1.33-6.67-4.67-10-10-10h-10c-5.33 0-7.33 3.33-6 10l2 15H79l-2-14c-2-16 1.17-29 9.5-39s20.17-15 35.5-15h12c16.67 0 30.5 4.5 41.5 13.5S193-141.67 195-127l6 45c1.33 14.67-.83 26.67-6.5 36-5.67 9.33-13.83 14-24.5 14h-12c-4.67 0-10.33-3.33-17-10l10 38h14c35.33 0 65.33 10.83 90 32.5s39 50.17 43 85.5l16 125c2.67 21.33-.17 42.5-8.5 63.5S284.67 340 268 352l-100 89c-10 7.33-14 17-12 29l13 107c2 13.33 9.67 20 23 20h30c13.33 0 19-6.67 17-20l-15-120h117l16 129c4 35.33-3.5 63.83-22.5 85.5S288.33 704 253 704h-65c-36 0-66.17-10.83-90.5-32.5S58.67 621.33 54 586L40 472c-2.67-21.33.17-42.5 8.5-63.5S69.33 371 86 359l100-88c9.33-8 13.33-18 12-30l-14-118c-2-13.33-9.67-20-23-20h-30c-13.33 0-19 6.67-17 20l14 120H12L-4 114c-4.67-35.33 2.67-63.83 22-85.5S64.67-4 100-4Z" horiz-adv-x="353" vert-adv-y="1000"/><glyph glyph-name="uni015F" unicode="ş" d="M96-4h3L77-86h42c2 8 5.33 12 10 12h6c6.67 0 9.33-4.67 8-14l-5-35c-1.33-6.67-5-10-11-10h-10c-5.33 0-7.33 3.33-6 10l2 15H67l-2-14c-1.33-16 2-29 10-39s20-15 36-15h12c16.67 0 30.5 4.5 41.5 13.5s17.17 20.83 18.5 35.5l6 45c2 14.67.17 26.67-5.5 36-5.67 9.33-14.17 14-25.5 14h-11c-6 0-11.67-3.33-17-10l10 38h11c32.67 0 60.33 10 83 30s36 46.67 40 80l10 78c2 19.33-1.33 36.83-10 52.5-8.67 15.67-21.67 26.83-39 33.5l-90 36c-11.33 3.33-16.33 11.67-15 25l5 35c1.33 13.33 8.67 20 22 20h20c13.33 0 19.33-6.67 18-20l-6-42h108l6 50c4 33.33-2.83 60-20.5 80s-42.83 30-75.5 30h-55c-33.33 0-61.33-10.17-84-30.5S32 406.67 28 374l-8-66c-2.67-19.33.67-36.83 10-52.5 9.33-15.67 22.67-26.83 40-33.5l89-36c11.33-4.67 16.33-13.33 15-26l-6-46c-1.33-13.33-8.67-20-22-20h-20c-13.33 0-19.33 6.67-18 20l6 47H6l-7-55c-4-32.67 2.83-59.17 20.5-79.5S62.67-4 96-4Z" horiz-adv-x="324" vert-adv-y="1000"/><glyph glyph-name="uni0160" unicode="Š" d="M100-4h65c35.33 0 65.33 10.83 90 32.5s39 50.17 43 85.5l16 125c2.67 21.33-.17 42.5-8.5 63.5S284.67 340 268 352l-100 89c-10 7.33-14 17-12 29l13 107c2 13.33 9.67 20 23 20h30c13.33 0 19-6.67 17-20l-15-120h117l16 129c4 35.33-3.5 63.83-22.5 85.5S288.33 704 253 704h-65c-36 0-66.17-10.83-90.5-32.5S58.67 621.33 54 586L40 472c-2.67-21.33.17-42.5 8.5-63.5S69.33 371 86 359l100-88c9.33-8 13.33-18 12-30l-14-118c-2-13.33-9.67-20-23-20h-30c-13.33 0-19 6.67-17 20l14 120H12L-4 114c-4.67-35.33 2.67-63.83 22-85.5S64.67-4 100-4Zm38 903 49-149h76l86 149h-75l-40-74-22 74Z" horiz-adv-x="353" vert-adv-y="1000"/><glyph glyph-name="uni0161" unicode="š" d="M96-4h55c32.67 0 60.33 10 83 30s36 46.67 40 80l10 78c2 19.33-1.33 36.83-10 52.5-8.67 15.67-21.67 26.83-39 33.5l-90 36c-11.33 3.33-16.33 11.67-15 25l5 35c1.33 13.33 8.67 20 22 20h20c13.33 0 19.33-6.67 18-20l-6-42h108l6 50c4 33.33-2.83 60-20.5 80s-42.83 30-75.5 30h-55c-33.33 0-61.33-10.17-84-30.5S32 406.67 28 374l-8-66c-2.67-19.33.67-36.83 10-52.5 9.33-15.67 22.67-26.83 40-33.5l89-36c11.33-4.67 16.33-13.33 15-26l-6-46c-1.33-13.33-8.67-20-22-20h-20c-13.33 0-19.33 6.67-18 20l6 47H6l-7-55c-4-32.67 2.83-59.17 20.5-79.5S62.67-4 96-4Zm3 683 50-149h75l87 149h-75l-40-74-22 74Z" horiz-adv-x="324" vert-adv-y="1000"/><glyph glyph-name="uni0162" unicode="Ţ" d="m324 601 12 99H48l-12-99h86L48 0h116l74 601ZM25-177h62l62 133H65Z" horiz-adv-x="298" vert-adv-y="1000"/><glyph glyph-name="uni0163" unicode="ţ" d="M10 390h49L25 113c-4-34 3-61.33 21-82S90 0 124 0h67l13 99h-50c-14.67 0-21.33 7.33-20 22l33 269h73l10 90h-72l12 100H82L70 480H21Zm25-567h62l62 133H75Z" horiz-adv-x="249" vert-adv-y="1000"/><glyph glyph-name="uni0164" unicode="Ť" d="m324 601 12 99H48l-12-99h86L48 0h116l74 601ZM110 899l50-149h75l86 149h-74l-40-74-22 74Z" horiz-adv-x="298" vert-adv-y="1000"/><glyph glyph-name="uni0165" unicode="ť" d="M10 390h49L25 113c-4-34 3-61.33 21-82S90 0 124 0h67l13 99h-50c-14.67 0-21.33 7.33-20 22l33 269h73l10 90h-72l12 100H82L70 480H21Zm183 137h62l62 133h-84Z" horiz-adv-x="266" vert-adv-y="1000"/><glyph glyph-name="uni0166" unicode="Ŧ" d="M24 425h76L48 0h116l52 425h77l7 55h-77l15 121h86l12 99H48l-12-99h86l-15-121H30Z" horiz-adv-x="298" vert-adv-y="1000"/><glyph glyph-name="uni0167" unicode="ŧ" d="m224 265 6 47h-73l10 78h73l10 90h-72l12 100H82L70 480H21l-11-90h49l-9-78H0l-5-47h49L25 113c-4-34 3-61.33 21-82S90 0 124 0h67l13 99h-50c-14.67 0-21.33 7.33-20 22l17 144Z" horiz-adv-x="249" vert-adv-y="1000"/><glyph glyph-name="uni0168" unicode="Ũ" d="M6 114C1.33 78.67 8.67 50.17 28 28.5S74.67-4 110-4h65c35.33 0 65.33 10.83 90 32.5s39 50.17 43 85.5l73 586H264l-70-577c-2-13.33-9.67-20-23-20h-30c-13.33 0-19 6.67-17 20l70 577H78Zm190 639c2 16 7.67 24 17 24 2.67 0 9.67-4.5 21-13.5s25-13.5 41-13.5c24 0 43.83 8.17 59.5 24.5 15.67 16.33 25.17 37.83 28.5 64.5h-66c-2-16-7.67-24-17-24-2.67 0-9.83 4.5-21.5 13.5S233 842 217 842c-24 0-43.67-8.17-59-24.5-15.33-16.33-24.67-37.83-28-64.5Z" horiz-adv-x="373" vert-adv-y="1000"/><glyph glyph-name="uni0169" unicode="ũ" d="M0 106c-4-33.33-.17-60 11.5-80S40.67-4 64-4h39c20 0 38 7.33 54 22l-2-18h107l59 480H214l-46-366v-1c-1.33-12.67-8.67-19-22-19h-20c-13.33 0-19.33 6.67-18 20l46 366H46Zm151 427c1.33 16 6.67 24 16 24 2.67 0 9.67-4.5 21-13.5s25-13.5 41-13.5c24 0 44 8.17 60 24.5s25.67 37.83 29 64.5h-67c-2-16-7.67-24-17-24-2.67 0-9.67 4.5-21 13.5S187.67 622 171 622c-23.33 0-42.83-8.17-58.5-24.5C96.83 581.17 87.33 559.67 84 533Z" horiz-adv-x="335" vert-adv-y="1000"/><glyph glyph-name="uni016A" unicode="Ū" d="M6 114C1.33 78.67 8.67 50.17 28 28.5S74.67-4 110-4h65c35.33 0 65.33 10.83 90 32.5s39 50.17 43 85.5l73 586H264l-70-577c-2-13.33-9.67-20-23-20h-30c-13.33 0-19 6.67-17 20l70 577H78Zm122 642h217l10 90H139Z" horiz-adv-x="373" vert-adv-y="1000"/><glyph glyph-name="uni016B" unicode="ū" d="M0 106c-4-33.33-.17-60 11.5-80S40.67-4 64-4h39c20 0 38 7.33 54 22l-2-18h107l59 480H214l-46-366v-1c-1.33-12.67-8.67-19-22-19h-20c-13.33 0-19.33 6.67-18 20l46 366H46Zm82 430h217l11 90H93Z" horiz-adv-x="335" vert-adv-y="1000"/><glyph glyph-name="uni016C" unicode="Ŭ" d="M6 114C1.33 78.67 8.67 50.17 28 28.5S74.67-4 110-4h65c35.33 0 65.33 10.83 90 32.5s39 50.17 43 85.5l73 586H264l-70-577c-2-13.33-9.67-20-23-20h-30c-13.33 0-19 6.67-17 20l70 577H78Zm131 727c-3.33-26 2-46.83 16-62.5 14-15.67 34.33-23.5 61-23.5h44c26.67 0 48.83 7.83 66.5 23.5S352.67 815 356 841l4 34h-83l-4-32c-.67-10.67-7.33-16-20-16h-18c-10.67 0-15.67 5.33-15 16l4 32h-83Z" horiz-adv-x="373" vert-adv-y="1000"/><glyph glyph-name="uni016D" unicode="ŭ" d="M0 106c-4-33.33-.17-60 11.5-80S40.67-4 64-4h39c20 0 38 7.33 54 22l-2-18h107l59 480H214l-46-366v-1c-1.33-12.67-8.67-19-22-19h-20c-13.33 0-19.33 6.67-18 20l46 366H46Zm91 515c-2.67-26 3-46.83 17-62.5 14-15.67 34-23.5 60-23.5h45c26.67 0 48.67 7.83 66 23.5s27.67 36.5 31 62.5l4 34h-83l-4-32c-.67-10.67-7-16-19-16h-18c-11.33 0-16.67 5.33-16 16l4 32H95Z" horiz-adv-x="335" vert-adv-y="1000"/><glyph glyph-name="uni016E" unicode="Ů" d="M6 114C1.33 78.67 8.67 50.17 28 28.5S74.67-4 110-4h65c35.33 0 65.33 10.83 90 32.5s39 50.17 43 85.5l73 586H264l-70-577c-2-13.33-9.67-20-23-20h-30c-13.33 0-19 6.67-17 20l70 577H78Zm154 721c-2.67-24.67 3-45.17 17-61.5s33.33-24.5 58-24.5c24 0 45.33 8.33 64 25s29.33 37 32 61c3.33 24-2.33 44.17-17 60.5S280 920 256 920c-24.67 0-46-8-64-24s-28.67-36.33-32-61Zm83-27c-8 0-14.17 2.5-18.5 7.5S218.33 827 219 835c1.33 8 4.67 14.5 10 19.5s12 7.5 20 7.5 14.17-2.5 18.5-7.5 6.17-11.5 5.5-19.5c-1.33-8-4.67-14.5-10-19.5s-12-7.5-20-7.5Z" horiz-adv-x="373" vert-adv-y="1000"/><glyph glyph-name="uni016F" unicode="ů" d="M0 106c-4-33.33-.17-60 11.5-80S40.67-4 64-4h39c20 0 38 7.33 54 22l-2-18h107l59 480H214l-46-366v-1c-1.33-12.67-8.67-19-22-19h-20c-13.33 0-19.33 6.67-18 20l46 366H46Zm114 509c-2.67-24.67 3.17-45.17 17.5-61.5S165.33 529 190 529c24 0 45.17 8.33 63.5 25s28.83 37 31.5 61c3.33 24-2.33 44.17-17 60.5S234 700 210 700c-24.67 0-46-8-64-24s-28.67-36.33-32-61Zm83-27c-8 0-14.17 2.5-18.5 7.5S172.33 607 173 615c1.33 8 4.67 14.5 10 19.5s12 7.5 20 7.5 14.17-2.5 18.5-7.5 6.17-11.5 5.5-19.5c-1.33-8-4.67-14.5-10-19.5s-12-7.5-20-7.5Z" horiz-adv-x="335" vert-adv-y="1000"/><glyph glyph-name="uni0170" unicode="Ű" d="M6 114C1.33 78.67 8.67 50.17 28 28.5S74.67-4 110-4h65c35.33 0 65.33 10.83 90 32.5s39 50.17 43 85.5l73 586H264l-70-577c-2-13.33-9.67-20-23-20h-30c-13.33 0-19 6.67-17 20l70 577H78Zm235 636h62l80 150h-77Zm-37 0 80 150h-77l-64-150Z" horiz-adv-x="373" vert-adv-y="1000"/><glyph glyph-name="uni0171" unicode="ű" d="M0 106c-4-33.33-.17-60 11.5-80S40.67-4 64-4h39c20 0 38 7.33 54 22l-2-18h107l59 480H214l-46-366v-1c-1.33-12.67-8.67-19-22-19h-20c-13.33 0-19.33 6.67-18 20l46 366H46Zm196 424h61l80 150h-77Zm-37 0 80 150h-77L97 530Z" horiz-adv-x="335" vert-adv-y="1000"/><glyph glyph-name="uni0172" unicode="Ų" d="M6 114C1.33 78.67 8.67 50.17 28 28.5S74.67-4 110-4h29l-22-31c-14.67-20.67-23-40.67-25-60-2.67-20 2-36.33 14-49 12-12.67 29-19 51-19h65l9 62-46-1c-10.67 0-19.17 2.17-25.5 6.5-6.33 4.33-9.17 10.17-8.5 17.5 1.33 8 7 19 17 33l32 43c29.33 5.33 53.83 18.33 73.5 39s31.17 46.33 34.5 77l73 586H264l-70-577c-2-13.33-9.67-20-23-20h-30c-13.33 0-19 6.67-17 20l70 577H78Z" horiz-adv-x="373" vert-adv-y="1000"/><glyph glyph-name="uni0173" unicode="ų" d="M0 106c-4-33.33-.17-60 11.5-80S40.67-4 64-4h39c20 0 38 7.33 54 22l-2-18h22l-26-35c-14-21.33-22-41.33-24-60-2.67-20 2-36.33 14-49 12-12.67 28.67-19 50-19h66l8 62-45-1c-11.33 0-20 2.17-26 6.5s-8.67 10.17-8 17.5c.67 7.33 6 18.33 16 33l35 45h25l59 480H214l-46-366v-1c-1.33-12.67-8.67-19-22-19h-20c-13.33 0-19.33 6.67-18 20l46 366H46Z" horiz-adv-x="335" vert-adv-y="1000"/><glyph glyph-name="uni0174" unicode="Ŵ" d="m195 0 106 483c6 23.33 11 53.67 15 91h2c-4.67-44-7.33-74.33-8-91L299 0h155l163 700H509L407 218c-2-11.33-6.67-41.67-14-91h-2c4.67 31.33 7 61.67 7 91l16 482H251L149 218c-3.33-15.33-8.33-45.67-15-91h-2c5.33 36 8 66.33 8 91l16 482H48L40 0Zm112 750 41 74 21-74h75l-50 149h-75l-86-149Z" horiz-adv-x="579" vert-adv-y="1000"/><glyph glyph-name="uni0175" unicode="ŵ" d="M22 480 39 0h124l71 289c6 22 11 52.33 15 91h2c-4-36-6-66.33-6-91L244 0h125l135 480H399l-70-291c-7.33-28-12.67-58.33-16-91h-2c4.67 42 7 72.33 7 91l1 291H207l-70-291c-4.67-17.33-10.33-47.67-17-91h-2c5.33 36 8 66.33 8 91l1 291Zm141 50h75l40 74 21-74h75l-50 149h-75Z" horiz-adv-x="494" vert-adv-y="1000"/><glyph glyph-name="uni0176" unicode="Ŷ" d="m49 700 46-446L63 0h117l32 255 155 445H257l-69-229c-6.67-22-12.67-52.33-18-91h-2c4.67 34.67 5.67 65 3 91l-12 229Zm59 50h75l41 74 21-74h75l-50 149h-75Z" horiz-adv-x="330" vert-adv-y="1000"/><glyph glyph-name="uni0177" unicode="ŷ" d="M0-190h33c64.67 0 108.67 40.33 132 121l157 549H218l-75-284c-6-24.67-11.67-55-17-91h-2c4.67 32.67 7 63 7 91l-4 284H22L46 0h43L73-60c-2.67-9.33-8.5-16.83-17.5-22.5-9-5.67-18.17-8.5-27.5-8.5H11Zm146 720 41 74 21-74h75l-50 149h-75L72 530Z" horiz-adv-x="312" vert-adv-y="1000"/><glyph glyph-name="uni0178" unicode="Ÿ" d="m49 700 46-446L63 0h117l32 255 155 445H257l-69-229c-6.67-22-12.67-52.33-18-91h-2c4.67 34.67 5.67 65 3 91l-12 229Zm181 51h92l13 106h-91Zm-31 0 13 106h-92l-13-106Z" horiz-adv-x="330" vert-adv-y="1000"/><glyph glyph-name="uni0179" unicode="Ź" d="m209 0 12 99H92l193 520 10 81H54l-12-99h128L-22 81-32 0Zm-2 750 96 150H188l-64-150Z" horiz-adv-x="263" vert-adv-y="1000"/><glyph glyph-name="uni017A" unicode="ź" d="M-33 0h237l11 90H97l157 318 9 72H26l-11-90h119L-24 73Zm210 530 96 150H158L94 530Z" horiz-adv-x="257" vert-adv-y="1000"/><glyph glyph-name="uni017B" unicode="Ż" d="m209 0 12 99H92l193 520 10 81H54l-12-99h128L-22 81-32 0Zm25 751 15 122H142l-15-122Z" horiz-adv-x="263" vert-adv-y="1000"/><glyph glyph-name="uni017C" unicode="ż" d="M-33 0h237l11 90H97l157 318 9 72H26l-11-90h119L-24 73ZM97 531h108l15 122H112Z" horiz-adv-x="257" vert-adv-y="1000"/><glyph glyph-name="uni017D" unicode="Ž" d="m209 0 12 99H92l193 520 10 81H54l-12-99h128L-22 81-32 0ZM93 899l49-149h76l86 149h-75l-39-74-22 74Z" horiz-adv-x="263" vert-adv-y="1000"/><glyph glyph-name="uni017E" unicode="ž" d="m204 0 11 90H97l157 318 9 72H26l-11-90h119L-24 73l-9-73ZM63 679l50-149h75l86 149h-75l-39-74-22 74Z" horiz-adv-x="257" vert-adv-y="1000"/><glyph glyph-name="uni018F" unicode="Ə" d="M105-4h65c35.33 0 65.33 10.83 90 32.5s39 50.17 43 85.5l59 472c4 35.33-3.5 63.83-22.5 85.5S293.33 704 258 704h-65c-36 0-66.17-10.83-90.5-32.5S63.67 621.33 59 586L43 457h116l15 120c2 13.33 9.67 20 23 20h30c13.33 0 19-6.67 17-20l-23-191H35L1 114c-4.67-35.33 2.67-63.83 22-85.5S69.67-4 105-4Zm104 292-20-165c-2-13.33-9.67-20-23-20h-30c-13.33 0-19 6.67-17 20l20 165Z" horiz-adv-x="368" vert-adv-y="1000"/><glyph glyph-name="uni0192" unicode="ƒ" d="M14-190c33.33 0 61.33 10.33 84 31s35.67 47.67 39 81l40 468h73l8 90h-73l10 119c1.33 14.67 9.67 22 25 22h41l9 99h-59c-33.33 0-61.17-10.33-83.5-31S92.33 641.33 89 608L77 480H28l-8-90h50L30-69c-1.33-14.67-9.67-22-25-22h-41l-9-99Z" horiz-adv-x="248" vert-adv-y="1000"/><glyph glyph-name="uni01DD" unicode="ǝ" d="M96-4h55c33.33 0 61.33 10.17 84 30.5s36 46.83 40 79.5l33 268c4 33.33-2.83 60-20.5 80s-42.83 30-75.5 30h-55c-33.33 0-61.33-10.17-84-30.5S37 406.67 33 374l-7-58h108l6 50c1.33 13.33 8.67 20 22 20h20c13.33 0 19.33-6.67 18-20l-11-85H22L0 106c-4-33.33 2.83-60 20.5-80S63.33-4 96-4Zm12 118 10 77h60l-10-77c-1.33-13.33-8.67-20-22-20h-20c-13.33 0-19.33 6.67-18 20Z" horiz-adv-x="335" vert-adv-y="1000"/><glyph glyph-name="uni01FA" unicode="Ǻ" d="m70 0 35 150h82L185 0h108l-1 700H137L-37 0Zm70 796c-2.67-24.67 3-45.17 17-61.5s33.33-24.5 58-24.5c24 0 45.33 8.33 64 25s29.33 37 32 61c2.67 16.67 0 33-8 49l87 137H276l-43-101c-24-.67-44.67-9-62-25s-27.67-36-31-60Zm-11-547 52 225c5.33 25.33 10.67 55.67 16 91h2c-4.67-32.67-7-63-7-91l-3-225Zm94 520c-8 0-14.17 2.5-18.5 7.5S198.33 788 199 796c.67 8 4 14.5 10 19.5s13 7.5 21 7.5c17.33 0 25-9 23-27-1.33-8-4.67-14.5-10-19.5s-12-7.5-20-7.5Z" horiz-adv-x="341" vert-adv-y="1000"/><glyph glyph-name="uni01FB" unicode="ǻ" d="M0 106c-4-33.33-.17-60 11.5-80S40.67-4 64-4h39c21.33 0 39.67 7.67 55 23l-2-19h107l46 374c4 33.33-2.83 60-20.5 80s-42.83 30-75.5 30h-55c-33.33 0-61.33-10.17-84-30.5S38 406.67 34 374l-6-48h108l4 35c.67 6 3.17 11.67 7.5 17s9.5 8 15.5 8h20c6 0 10.5-2.5 13.5-7.5s4.17-10.83 3.5-17.5l-11-88c-11.33 15.33-27.33 23-48 23h-39c-24 0-44.33-10-61-30s-27-46.67-31-80Zm115 509c-2.67-24.67 3.17-45.17 17.5-61.5S166.33 529 191 529c24 0 45.17 8.33 63.5 25s28.83 37 31.5 61c2 12.67 1 24.67-3 36l96 149H264l-43-100c-28.67 0-52.5-7.33-71.5-22S119 642.33 115 615Zm11-521c-13.33 0-19.33 6.67-18 20l8 64c2 13.33 9.67 20 23 20h20c13.33 0 19-6.67 17-20l-8-64c-1.33-13.33-8.67-20-22-20Zm72 494c-8 0-14.17 2.5-18.5 7.5S173.33 607 174 615c1.33 8 4.67 14.5 10 19.5s12 7.5 20 7.5 14.17-2.5 18.5-7.5 6.17-11.5 5.5-19.5c-1.33-8-4.67-14.5-10-19.5s-12-7.5-20-7.5Z" horiz-adv-x="336" vert-adv-y="1000"/><glyph glyph-name="uni01FC" unicode="Ǽ" d="m74 0 53 150h84L193 0h227l13 99H321l25 202h102l12 98H358l25 202h111l12 99H227L-37 0Zm174 750h83l96 150H312Zm-9-287c8 22.67 16.67 52.33 26 89h2c-9.33-37.33-15-67.33-17-90l-27-213h-61Z" horiz-adv-x="488" vert-adv-y="1000"/><glyph glyph-name="uni01FD" unicode="ǽ" d="M0 106c-4-33.33-.17-60 11.5-80S40.67-4 64-4h39c32 0 56.33 16.33 73 49 16-32.67 45.67-49 89-49h55c32.67 0 60.33 10 83 30s36 46.67 40 80l7 58H343l-6-50c-1.33-13.33-8.67-20-22-20h-20c-13.33 0-19.33 6.67-18 20l11 85h167l22 175c4 32.67-2.83 59.17-20.5 79.5S413.33 484 380 484h-55c-22 0-41.33-4.33-58-13-14.67 8.67-32.67 13-54 13h-55c-33.33 0-61.33-10.17-84-30.5S38 406.67 34 374l-6-48h108l4 35c.67 6 3.33 11.67 8 17s10 8 16 8h21c9.33 0 14.67-6 16-18l-12-95c-11.33 15.33-27.33 23-48 23h-39c-24 0-44.33-10-61-30s-27-46.67-31-80Zm217 424h84l95 150H282ZM126 94c-13.33 0-19.33 6.67-18 20l8 64c2 13.33 9.67 20 23 20h20c13.33 0 19-6.67 17-20l-8-64c-1.33-13.33-8.67-20-22-20Zm182 272c2 13.33 9.33 20 22 20h20c13.33 0 19.33-6.67 18-20l-10-77h-60Z" horiz-adv-x="503" vert-adv-y="1000"/><glyph glyph-name="uni01FE" unicode="Ǿ" d="M39 18C56.33 3.33 80-4 110-4h65c35.33 0 65.33 10.83 90 32.5s39 50.17 43 85.5l59 472c3.33 29.33-1.33 54.33-14 75l19 39-25 11-13-29c-18.67 14.67-42.33 22-71 22h-65c-36 0-66.17-10.83-90.5-32.5S68.67 621.33 64 586L6 114c-4-28 .67-53 14-75L1 0l24-11Zm139 732h84l95 150H243Zm1-173c2 13.33 9.67 20 23 20h30c13.33 0 19-6.67 17-20l-11-92-94-191Zm49-172-34-282c-2-13.33-9.67-20-23-20h-30c-13.33 0-19 6.67-17 20l11 91Z" horiz-adv-x="373" vert-adv-y="1000"/><glyph glyph-name="uni01FF" unicode="ǿ" d="M45 7C57.67-.33 74.67-4 96-4h55c33.33 0 61.33 10.17 84 30.5s36 46.83 40 79.5l33 268c4 32.67-2.33 59-19 79l14 27-24 11-11-20c-14.67 8.67-33.33 13-56 13h-55c-33.33 0-61.33-10.17-84-30.5S37 406.67 33 374L0 106c-4-36 3.67-63.67 23-83L11 0l24-11Zm88 523h83l96 150H197Zm-14-333 21 169c1.33 13.33 8.67 20 22 20h20c13.33 0 19.33-6.67 18-20l-3-26Zm69 71-20-154c-1.33-13.33-8.67-20-22-20h-20c-13.33 0-19.33 6.67-18 20l2 11Z" horiz-adv-x="335" vert-adv-y="1000"/><glyph glyph-name="uni0218" unicode="Ș" d="M100-4h65c35.33 0 65.33 10.83 90 32.5s39 50.17 43 85.5l16 125c2.67 21.33-.17 42.5-8.5 63.5S284.67 340 268 352l-100 89c-10 7.33-14 17-12 29l13 107c2 13.33 9.67 20 23 20h30c13.33 0 19-6.67 17-20l-15-120h117l16 129c4 35.33-3.5 63.83-22.5 85.5S288.33 704 253 704h-65c-36 0-66.17-10.83-90.5-32.5S58.67 621.33 54 586L40 472c-2.67-21.33.17-42.5 8.5-63.5S69.33 371 86 359l100-88c9.33-8 13.33-18 12-30l-14-118c-2-13.33-9.67-20-23-20h-30c-13.33 0-19 6.67-17 20l14 120H12L-4 114c-4.67-35.33 2.67-63.83 22-85.5S64.67-4 100-4Zm15-173 62 133H92L52-177Z" horiz-adv-x="353" vert-adv-y="1000"/><glyph glyph-name="uni0219" unicode="ș" d="M96-4h55c32.67 0 60.33 10 83 30s36 46.67 40 80l10 78c2 19.33-1.33 36.83-10 52.5-8.67 15.67-21.67 26.83-39 33.5l-90 36c-11.33 3.33-16.33 11.67-15 25l5 35c1.33 13.33 8.67 20 22 20h20c13.33 0 19.33-6.67 18-20l-6-42h108l6 50c4 33.33-2.83 60-20.5 80s-42.83 30-75.5 30h-55c-33.33 0-61.33-10.17-84-30.5S32 406.67 28 374l-8-66c-2.67-19.33.67-36.83 10-52.5 9.33-15.67 22.67-26.83 40-33.5l89-36c11.33-4.67 16.33-13.33 15-26l-6-46c-1.33-13.33-8.67-20-22-20h-20c-13.33 0-19.33 6.67-18 20l6 47H6l-7-55c-4-32.67 2.83-59.17 20.5-79.5S62.67-4 96-4Zm8-173 62 133H81L41-177Z" horiz-adv-x="324" vert-adv-y="1000"/><glyph glyph-name="uni021A" unicode="Ț" d="m324 601 12 99H48l-12-99h86L48 0h116l74 601ZM25-177h62l62 133H65Z" horiz-adv-x="298" vert-adv-y="1000"/><glyph glyph-name="uni021B" unicode="ț" d="M10 390h49L25 113c-4-34 3-61.33 21-82S90 0 124 0h67l13 99h-50c-14.67 0-21.33 7.33-20 22l33 269h73l10 90h-72l12 100H82L70 480H21Zm25-567h62l62 133H75Z" horiz-adv-x="249" vert-adv-y="1000"/><glyph glyph-name="uni0237" unicode="ȷ" d="M-92-190h42c36.67 0 67.33 11 92 33s39.33 51.33 44 88l68 549H46L-20-60c-.67-9.33-4.5-16.83-11.5-22.5-7-5.67-15.17-8.5-24.5-8.5h-25Z" horiz-adv-x="168" vert-adv-y="1000"/><glyph glyph-name="uni0259" unicode="ə" d="M96-4h55c33.33 0 61.33 10.17 84 30.5s36 46.83 40 79.5l33 268c4 33.33-2.83 60-20.5 80s-42.83 30-75.5 30h-55c-33.33 0-61.33-10.17-84-30.5S37 406.67 33 374l-7-58h108l6 50c1.33 13.33 8.67 20 22 20h20c13.33 0 19.33-6.67 18-20l-11-85H22L0 106c-4-33.33 2.83-60 20.5-80S63.33-4 96-4Zm12 118 10 77h60l-10-77c-1.33-13.33-8.67-20-22-20h-20c-13.33 0-19.33 6.67-18 20Z" horiz-adv-x="335" vert-adv-y="1000"/><glyph glyph-name="uni02C6" unicode="ˆ" d="m149 710 40 74 21-74h75l-49 149h-76L74 710Z" horiz-adv-x="271" vert-adv-y="1000"/><glyph glyph-name="uni02C7" unicode="ˇ" d="M142 710h75l86 149h-74l-40-74-22 74H92Z" horiz-adv-x="271" vert-adv-y="1000"/><glyph glyph-name="uni02D8" unicode="˘" d="M85 801c-3.33-26 2-46.83 16-62.5 14-15.67 34.33-23.5 61-23.5h45c26 0 48 7.83 66 23.5s28.33 36.5 31 62.5l4 34h-83l-4-32c-.67-10.67-7-16-19-16h-18c-11.33 0-16.67 5.33-16 16l4 32H89Z" horiz-adv-x="279" vert-adv-y="1000"/><glyph glyph-name="uni02D9" unicode="˙" d="M75 720h108l15 121H90Z" horiz-adv-x="168" vert-adv-y="1000"/><glyph glyph-name="uni02DA" unicode="˚" d="M84 795c-2.67-24.67 3.17-45.17 17.5-61.5S135.33 709 160 709c24 0 45.17 8.33 63.5 25s28.83 37 31.5 61c3.33 24-2.33 44.17-17 60.5S204 880 180 880c-24.67 0-46-8-64-24s-28.67-36.33-32-61Zm83-27c-8 0-14.17 2.5-18.5 7.5S142.33 787 143 795c.67 8 4 14.5 10 19.5s13 7.5 21 7.5c17.33 0 25-9 23-27-1.33-8-4.67-14.5-10-19.5s-12-7.5-20-7.5Z" horiz-adv-x="231" vert-adv-y="1000"/><glyph glyph-name="uni02DB" unicode="˛" d="M-25-95c-2-20 2.83-36.33 14.5-49C1.17-156.67 18-163 40-163h66l8 62-45-1c-11.33 0-20 2.17-26 6.5S34.33-85.33 35-78c.67 7.33 6 18.33 16 33L86 0H26L0-35c-14.67-22.67-23-42.67-25-60Z" horiz-adv-x="199" vert-adv-y="1000"/><glyph glyph-name="uni02DC" unicode="˜" d="M141 713c2 16 7.67 24 17 24 2.67 0 9.5-4.5 20.5-13.5S203 710 219 710c24 0 44 8.17 60 24.5s25.67 37.83 29 64.5h-67c-2-16-7.67-24-17-24-2.67 0-9.83 4.5-21.5 13.5S177 802 161 802c-23.33 0-42.67-8-58-24-15.33-16-24.67-37.67-28-65Z" horiz-adv-x="282" vert-adv-y="1000"/><glyph glyph-name="uni02DD" unicode="˝" d="m136 719 80 149h-77L75 719Zm37 0h62l80 149h-77Z" horiz-adv-x="282" vert-adv-y="1000"/><glyph glyph-name="uni0394" unicode="Δ" d="m336 0-87 700H93L6 0ZM124 99l42 375c2.67 24 4 54.33 4 91h2c0-30.67 1.67-61 5-91l40-375Z" horiz-adv-x="357" vert-adv-y="1000"/><glyph glyph-name="uni03A9" unicode="Ω" d="M14 99V0h158v94c-13.33 0-20 6.67-20 20v463c0 13.33 6.67 20 20 20h30c13.33 0 20-6.67 20-20V114c0-13.33-6.67-20-20-20V0h157v99h-50c19.33 19.33 29 43.67 29 73v427c0 31.33-10.83 56.67-32.5 76S255 704 219 704h-65c-35.33 0-63.83-9.67-85.5-29S36 630.33 36 599V172c0-29.33 9.67-53.67 29-73Z" horiz-adv-x="384" vert-adv-y="1000"/><glyph glyph-name="uni03C0" unicode="π" d="m117 0 48 390h60L177 0h108l47 390h48l11 90H21l-11-90h47L10 0Z" horiz-adv-x="380" vert-adv-y="1000"/><glyph glyph-name="uni0400" unicode="Ѐ" d="M-8 0h228l12 99H120l25 202h102l12 98H157l25 202h111l13 99H78Zm121 900 58-150h84l-28 150Z" horiz-adv-x="287" vert-adv-y="1000"/><glyph glyph-name="uni0401" unicode="Ё" d="M-8 0h228l12 99H120l25 202h102l12 98H157l25 202h111l13 99H78Zm314 751 13 106h-91l-14-106Zm-215 0h92l13 106h-92Z" horiz-adv-x="287" vert-adv-y="1000"/><glyph glyph-name="uni0402" unicode="Ђ" d="m324 601 12 99H48l-12-99h86L48 0h116l37 298c12 3.33 24.33 5 37 5 22 0 32.33-6.67 31-20l-19-160c-2-13.33-9.67-20-23-20h-12L202-4h29c35.33 0 65.33 10.83 90 32.5s39 50.17 43 85.5l22 178c4.67 36-3.17 64.83-23.5 86.5S312.33 411 273 411c-18 0-37.67-2.67-59-8l24 198Z" horiz-adv-x="423" vert-adv-y="1000"/><glyph glyph-name="uni0403" unicode="Ѓ" d="M-8 0h116l74 601h105l12 99H78Zm145 750h83l96 150H201Z" horiz-adv-x="261" vert-adv-y="1000"/><glyph glyph-name="uni0404" unicode="Є" d="M110-4h65c35.33 0 65.33 10.83 90 32.5s39 50.17 43 85.5l16 124H207l-13-115c-2-13.33-9.67-20-23-20h-30c-13.33 0-19 6.67-17 20l21 178h110l13 98H157l22 178c2 13.33 9.67 20 23 20h30c13.33 0 19-6.67 17-20l-15-120h117l16 129c4 35.33-3.5 63.83-22.5 85.5S298.33 704 263 704h-65c-36 0-66.17-10.83-90.5-32.5S68.67 621.33 64 586L6 114C1.33 78.67 8.67 50.17 28 28.5S74.67-4 110-4Z" horiz-adv-x="368" vert-adv-y="1000"/><glyph glyph-name="uni0405" unicode="Ѕ" d="M100-4h65c35.33 0 65.33 10.83 90 32.5s39 50.17 43 85.5l16 125c2.67 21.33-.17 42.5-8.5 63.5S284.67 340 268 352l-100 89c-10 7.33-14 17-12 29l13 107c2 13.33 9.67 20 23 20h30c13.33 0 19-6.67 17-20l-15-120h117l16 129c4 35.33-3.5 63.83-22.5 85.5S288.33 704 253 704h-65c-36 0-66.17-10.83-90.5-32.5S58.67 621.33 54 586L40 472c-2.67-21.33.17-42.5 8.5-63.5S69.33 371 86 359l100-88c9.33-8 13.33-18 12-30l-14-118c-2-13.33-9.67-20-23-20h-30c-13.33 0-19 6.67-17 20l14 120H12L-4 114c-4.67-35.33 2.67-63.83 22-85.5S64.67-4 100-4Z" horiz-adv-x="353" vert-adv-y="1000"/><glyph glyph-name="uni0406" unicode="І" d="M-8 0h116l86 700H78Z" horiz-adv-x="186" vert-adv-y="1000"/><glyph glyph-name="uni0407" unicode="Ї" d="M-8 0h116l86 700H78Zm258 751 13 106h-92l-13-106Zm-124 0 14 106H48L35 751Z" horiz-adv-x="186" vert-adv-y="1000"/><glyph glyph-name="uni0408" unicode="Ј" d="M-14 114c-4.67-35.33 2.67-63.83 22-85.5S54.67-4 90-4h65c35.33 0 65.33 10.83 90 32.5s39 50.17 43 85.5l73 586H244l-70-577c-2-13.33-9.67-20-23-20h-30c-13.33 0-19 6.67-17 20l13 111H1Z" horiz-adv-x="353" vert-adv-y="1000"/><glyph glyph-name="uni0409" unicode="Љ" d="M-5 0c38 0 68.83 10.33 92.5 31S126 81.67 132 121l77 489h45L179 0h184c35.33 0 65.17 11 89.5 33s38.83 50.67 43.5 86l21 172c4.67 35.33-2.67 63.83-22 85.5S448.33 409 413 409h-67l35 291H111L22 139c-3.33-20.67-14-31-32-31h-15L-38 0Zm313 99 26 212h49c13.33 0 19.33-6.67 18-20l-21-172c-1.33-13.33-8.67-20-22-20Z" horiz-adv-x="550" vert-adv-y="1000"/><glyph glyph-name="uni040A" unicode="Њ" d="M-8 0h116l38 306h70L178 0h184c35.33 0 65.17 10.67 89.5 32s38.83 49.67 43.5 85l21 169c4.67 35.33-2.67 63.83-22 85.5S447 404 411 404h-67l37 296H264l-36-296h-70l36 296H78Zm315 99 25 207h50c13.33 0 19-6.67 17-20l-20-168c-1.33-12.67-8.67-19-22-19Z" horiz-adv-x="549" vert-adv-y="1000"/><glyph glyph-name="uni040B" unicode="Ћ" d="m324 601 12 99H48l-12-99h86L48 0h116l37 298c12 3.33 24.33 5 37 5 22 0 32.33-6.67 31-20L234 0h116l36 292c4.67 36-3.17 64.83-23.5 86.5S312.33 411 273 411c-18 0-37.67-2.67-59-8l24 198Z" horiz-adv-x="423" vert-adv-y="1000"/><glyph glyph-name="uni040C" unicode="Ќ" d="m108 0 34 270L181 0h112l-65 359 146 341H262l-99-252 31 252H78L-8 0Zm70 750h83l96 150H242Z" horiz-adv-x="341" vert-adv-y="1000"/><glyph glyph-name="uni040D" unicode="Ѝ" d="m108 0 13 106 75 166c15.33 33.33 26.67 62.67 34 88h2c-10.67-38-17.33-68.33-20-91L178 0h117l86 700H264l-13-106-74-166c-14-27.33-25.33-56.67-34-88h-2c10.67 38 17.33 68.33 20 91l33 269H78L-8 0Zm100 750h84l-28 150H150Z" horiz-adv-x="373" vert-adv-y="1000"/><glyph glyph-name="uni040E" unicode="Ў" d="M69 0c66.67 0 111.67 40.33 135 121l167 579H262l-76-294c-8.67-35.33-14-65.67-16-91h-2c3.33 45.33 4.67 75.67 4 91l-15 294H48l37-489h42l-23-75c-2.67-8-8.5-14.67-17.5-20s-18.83-8-29.5-8H32L19 0Zm40 816c-3.33-26.67 2-48 16-64s34.33-24 61-24h49c26.67 0 49.83 8.17 69.5 24.5S335.67 790 339 816l2 23h-86l-2-15c-.67-5.33-2.83-10-6.5-14s-7.83-6-12.5-6h-25c-10 0-14.33 6.67-13 20l2 15h-86Z" horiz-adv-x="333" vert-adv-y="1000"/><glyph glyph-name="uni040F" unicode="Џ" d="M-8 0h94L72-110h116L202 0h93l86 700H264L190 99h-70l74 601H78Z" horiz-adv-x="373" vert-adv-y="1000"/><glyph glyph-name="uni0410" unicode="А" d="m70 0 35 150h82L185 0h108l-1 700H137L-37 0Zm59 249 52 225c5.33 25.33 10.67 55.67 16 91h2c-4.67-32.67-7-63-7-91l-3-225Z" horiz-adv-x="341" vert-adv-y="1000"/><glyph glyph-name="uni0411" unicode="Б" d="M-8 0h184c35.33 0 65.17 11 89.5 33s38.83 50.67 43.5 86l21 172c4.67 35.33-2.67 63.83-22 85.5S261.33 409 226 409h-67l23 192h155l12 99H78Zm128 99 26 212h50c13.33 0 19.33-6.67 18-20l-21-172c-1.33-13.33-8.67-20-22-20Z" horiz-adv-x="358" vert-adv-y="1000"/><glyph glyph-name="uni0412" unicode="В" d="M176 0c35.33 0 65.17 10.17 89.5 30.5S304 77.33 308 110l19 160c6 44.67-9.33 76.33-46 95 38.67 19.33 60 50 64 92l18 139c3.33 31.33-4.67 56.5-24 75.5S292.33 700 257 700H78L-8 0Zm-56 99 27 215h50c13.33 0 19.33-6.67 18-20l-22-175c-1.33-13.33-8.67-20-22-20Zm62 502h45c14 0 20-6.67 18-20l-19-148c-1.33-13.33-8.67-20-22-20h-45Z" horiz-adv-x="363" vert-adv-y="1000"/><glyph glyph-name="uni0413" unicode="Г" d="M-8 0h116l74 601h105l12 99H78Z" horiz-adv-x="261" vert-adv-y="1000"/><glyph glyph-name="uni0414" unicode="Д" d="M65-110 79 0h177l-13-110h116l25 209h-56l74 601H131L43 126c-3.33-13.33-8.67-22.33-16-27h-53l-25-209Zm81 209c4 12 6.33 21.67 7 29l76 482h45L211 99Z" horiz-adv-x="420" vert-adv-y="1000"/><glyph glyph-name="uni0415" unicode="Е" d="M-8 0h228l12 99H120l25 202h102l12 98H157l25 202h111l13 99H78Z" horiz-adv-x="287" vert-adv-y="1000"/><glyph glyph-name="uni0416" unicode="Ж" d="M-38 0H74l111 313L147 0h116l39 313L336 0h112l-56 359 137 341H417L313 405l36 295H233l-36-294-32 294H53l54-341Z" horiz-adv-x="496" vert-adv-y="1000"/><glyph glyph-name="uni0417" unicode="З" d="M-9 114c-4-35.33 3.5-63.83 22.5-85.5S60-4 96-4h65c35.33 0 65.17 10.17 89.5 30.5S289 73.33 293 106l20 166c6 45.33-9.67 76.67-47 94 39.33 19.33 61 50.33 65 93l18 141c4 31.33-3.67 56.5-23 75.5S279 704 243 704h-65c-35.33 0-65.33-10.83-90-32.5S49 621.33 45 586L31 474h117l11 103c2 13.33 9.67 20 23 20h30c13.33 0 19-6.67 17-20l-17-143c-1.33-13.33-8.67-20-22-20h-59l-13-98h65c13.33 0 19.33-6.67 18-20l-22-173c-2-13.33-9.67-20-23-20h-30c-13.33 0-19 6.67-17 20l12 98H5Z" horiz-adv-x="348" vert-adv-y="1000"/><glyph glyph-name="uni0418" unicode="И" d="M-8 0h116l13 106 75 166c15.33 33.33 26.67 62.67 34 88h2c-10.67-38-17.33-68.33-20-91L178 0h117l86 700H264l-13-106-74-166c-14-27.33-25.33-56.67-34-88h-2c10.67 38 17.33 68.33 20 91l33 269H78Z" horiz-adv-x="373" vert-adv-y="1000"/><glyph glyph-name="uni0419" unicode="Й" d="m108 0 13 106 75 166c15.33 33.33 26.67 62.67 34 88h2c-10.67-38-17.33-68.33-20-91L178 0h117l86 700H264l-13-106-74-166c-14-27.33-25.33-56.67-34-88h-2c10.67 38 17.33 68.33 20 91l33 269H78L-8 0Zm21 816c-3.33-26.67 2-48 16-64s34.33-24 61-24h49c26.67 0 49.83 8.17 69.5 24.5S355.67 790 359 816l3 23h-87l-2-15c-.67-5.33-2.67-10-6-14s-7.33-6-12-6h-26c-9.33 0-13.33 6.67-12 20l2 15h-87Z" horiz-adv-x="373" vert-adv-y="1000"/><glyph glyph-name="uni041A" unicode="К" d="m108 0 34 270L181 0h112l-65 359 146 341H262l-99-252 31 252H78L-8 0Z" horiz-adv-x="341" vert-adv-y="1000"/><glyph glyph-name="uni041B" unicode="Л" d="M-39-4h33C32-4 62.83 6.33 86.5 27S125 78 131 118l77 492h46L179 0h116l86 700H111L22 134c-1.33-9.33-5-16.83-11-22.5-6-5.67-13.33-8.5-22-8.5h-15Z" horiz-adv-x="373" vert-adv-y="1000"/><glyph glyph-name="uni041C" unicode="М" d="M-13 0H95l58 476c3.33 23.33 5.67 54 7 92h2c-2-56-3-86.67-3-92l4-476h120l120 473c9.33 44.67 15.67 75.33 19 92h2c-8-44-13-74.67-15-92L351 0h107l86 700H370L254 208c-8-30-13-60.67-15-92h-2c4 56 6 86.67 6 92l4 492H73Z" horiz-adv-x="531" vert-adv-y="1000"/><glyph glyph-name="uni041D" unicode="Н" d="M-8 0h116l37 301h70L178 0h117l86 700H264l-37-301h-70l37 301H78Z" horiz-adv-x="373" vert-adv-y="1000"/><glyph glyph-name="uni041E" unicode="О" d="M6 114C1.33 78.67 8.67 50.17 28 28.5S74.67-4 110-4h65c35.33 0 65.33 10.83 90 32.5s39 50.17 43 85.5l59 472c4 35.33-3.5 63.83-22.5 85.5S298.33 704 263 704h-65c-36 0-66.17-10.83-90.5-32.5S68.67 621.33 64 586Zm135-11c-13.33 0-19 6.67-17 20l55 454c2 13.33 9.67 20 23 20h30c13.33 0 19-6.67 17-20l-55-454c-2-13.33-9.67-20-23-20Z" horiz-adv-x="373" vert-adv-y="1000"/><glyph glyph-name="uni041F" unicode="П" d="m108 0 74 601h70L178 0h117l86 700H78L-8 0Z" horiz-adv-x="373" vert-adv-y="1000"/><glyph glyph-name="uni0420" unicode="Р" d="M-8 0h116l36 291h68c35.33 0 65.17 10.83 89.5 32.5s38.83 50.17 43.5 85.5l21 172c4.67 36-2.67 64.83-22 86.5S297.33 700 262 700H78Zm190 601h50c13.33 0 19.33-6.67 18-20l-21-172c-1.33-13.33-8.67-20-22-20h-51Z" horiz-adv-x="353" vert-adv-y="1000"/><glyph glyph-name="uni0421" unicode="С" d="M110-4h65c35.33 0 65.33 10.83 90 32.5s39 50.17 43 85.5l16 124H207l-13-115c-2-13.33-9.67-20-23-20h-30c-13.33 0-19 6.67-17 20l55 454c2 13.33 9.67 20 23 20h30c13.33 0 19-6.67 17-20l-15-120h117l16 129c4 35.33-3.5 63.83-22.5 85.5S298.33 704 263 704h-65c-36 0-66.17-10.83-90.5-32.5S68.67 621.33 64 586L6 114C1.33 78.67 8.67 50.17 28 28.5S74.67-4 110-4Z" horiz-adv-x="368" vert-adv-y="1000"/><glyph glyph-name="uni0422" unicode="Т" d="m324 601 12 99H48l-12-99h86L48 0h116l74 601Z" horiz-adv-x="298" vert-adv-y="1000"/><glyph glyph-name="uni0423" unicode="У" d="M69 0c66.67 0 111.67 40.33 135 121l167 579H262l-76-294c-8.67-35.33-14-65.67-16-91h-2c3.33 45.33 4.67 75.67 4 91l-15 294H48l37-489h42l-23-75c-2.67-8-8.5-14.67-17.5-20s-18.83-8-29.5-8H32L19 0Z" horiz-adv-x="333" vert-adv-y="1000"/><glyph glyph-name="uni0424" unicode="Ф" d="M15 187c-4.67-35.33 2.67-64 22-86s46.67-33 82-33h63l-9-68h117l8 68h62c36 0 66.17 11 90.5 33s38.83 50.67 43.5 86l40 326c4.67 35.33-2.67 64-22 86s-46.67 33-82 33h-63l9 68H259l-8-68h-63c-35.33 0-65.17-11-89.5-33S59.67 548.33 55 513Zm135-11c-13.33 0-19.33 6.67-18 20l38 308c1.33 13.33 8.67 20 22 20h46l-43-348Zm161 0 43 348h45c13.33 0 19.33-6.67 18-20l-39-308c-1.33-13.33-8.67-20-22-20Z" horiz-adv-x="549" vert-adv-y="1000"/><glyph glyph-name="uni0425" unicode="Х" d="m74 0 57 154c10.67 26 18 55.67 22 89h2c-4-33.33-4.33-63-1-89L174 0h112l-59 359 140 341H255l-51-136c-10.67-31.33-17.67-61-21-89h-2c4 37.33 4 67 0 89l-16 136H53l57-341L-38 0Z" horiz-adv-x="334" vert-adv-y="1000"/><glyph glyph-name="uni0426" unicode="Ц" d="M-8 0h243l-13-110h116l25 209h-56l74 601H264L190 99h-70l74 601H78Z" horiz-adv-x="399" vert-adv-y="1000"/><glyph glyph-name="uni0427" unicode="Ч" d="M28 408c-4.67-36 3.17-64.83 23.5-86.5S101.67 289 141 289c18 0 37.67 2.67 59 8L164 0h116l86 700H250l-37-298c-12-3.33-24-5-36-5-22.67 0-33.33 6.67-32 20l35 283H64Z" horiz-adv-x="358" vert-adv-y="1000"/><glyph glyph-name="uni0428" unicode="Ш" d="M-8 0h489l86 700H451L377 99h-70l74 601H264L190 99h-70l74 601H78Z" horiz-adv-x="559" vert-adv-y="1000"/><glyph glyph-name="uni0429" unicode="Щ" d="m421 0-13-110h116l26 209h-57l74 601H451L377 99h-70l74 601H264L190 99h-70l74 601H78L-8 0Z" horiz-adv-x="585" vert-adv-y="1000"/><glyph glyph-name="uni042A" unicode="Ъ" d="M122 601 48 0h184c35.33 0 65.17 11 89.5 33s38.83 50.67 43.5 86l21 172c4.67 35.33-2.67 63.83-22 85.5S317.33 409 282 409h-68l36 291H48l-12-99Zm54-502 26 212h50c13.33 0 19.33-6.67 18-20l-21-172c-1.33-13.33-8.67-20-22-20Z" horiz-adv-x="413" vert-adv-y="1000"/><glyph glyph-name="uni042B" unicode="Ы" d="M-8 0h184c35.33 0 65.17 11 89.5 33s38.83 50.67 43.5 86l21 172c4.67 35.33-2.67 63.83-22 85.5S261.33 409 226 409h-67l35 291H78Zm459 0 86 700H421L335 0ZM120 99l26 212h50c13.33 0 19.33-6.67 18-20l-21-172c-1.33-13.33-8.67-20-22-20Z" horiz-adv-x="529" vert-adv-y="1000"/><glyph glyph-name="uni042C" unicode="Ь" d="M176 0c35.33 0 65.17 11 89.5 33s38.83 50.67 43.5 86l21 172c4.67 35.33-2.67 63.83-22 85.5S261.33 409 226 409h-67l35 291H78L-8 0Zm-56 99 26 212h50c13.33 0 19.33-6.67 18-20l-21-172c-1.33-13.33-8.67-20-22-20Z" horiz-adv-x="358" vert-adv-y="1000"/><glyph glyph-name="uni042D" unicode="Э" d="M105-4h65c35.33 0 65.33 10.83 90 32.5s39 50.17 43 85.5l59 472c4 35.33-3.5 63.83-22.5 85.5S293.33 704 258 704h-65c-36 0-66.17-10.83-90.5-32.5S63.67 621.33 59 586L43 457h116l15 120c2 13.33 9.67 20 23 20h30c13.33 0 19-6.67 17-20l-22-178h-94l-13-98h95l-21-178c-2-13.33-9.67-20-23-20h-30c-13.33 0-19 6.67-17 20l13 115H16L1 114c-4.67-35.33 2.67-63.83 22-85.5S69.67-4 105-4Z" horiz-adv-x="368" vert-adv-y="1000"/><glyph glyph-name="uni042E" unicode="Ю" d="m108 0 37 301h50l-23-187c-4-35.33 3.5-63.83 22.5-85.5S240.67-4 276-4h65c35.33 0 65.33 10.83 90 32.5s39.33 50.17 44 85.5l58 472c4 35.33-3.5 63.83-22.5 85.5S464.33 704 429 704h-65c-35.33 0-65.33-10.83-90-32.5s-39-50.17-43-85.5l-24-187h-50l37 301H78L-8 0Zm199 103c-13.33 0-19 6.67-17 20l55 454c2 13.33 9.67 20 23 20h30c13.33 0 19-6.67 17-20l-55-454c-2-13.33-9.67-20-23-20Z" horiz-adv-x="539" vert-adv-y="1000"/><glyph glyph-name="uni042F" unicode="Я" d="M-32 0H75l114 291h13L166 0h116l86 700H184c-35.33 0-65.17-10.83-89.5-32.5S55.67 617 51 581L30 409c-3.33-25.33 0-47.67 10-67s25-33.33 45-42Zm196 389c-13.33 0-19.33 6.67-18 20l21 172c1.33 13.33 8.67 20 22 20h51l-26-212Z" horiz-adv-x="360" vert-adv-y="1000"/><glyph glyph-name="uni0430" unicode="а" d="M0 106c-4-33.33-.17-60 11.5-80S40.67-4 64-4h39c21.33 0 39.67 7.67 55 23l-2-19h107l46 374c4 33.33-2.83 60-20.5 80s-42.83 30-75.5 30h-55c-33.33 0-61.33-10.17-84-30.5S38 406.67 34 374l-6-48h108l4 35c.67 6 3.17 11.67 7.5 17s9.5 8 15.5 8h20c6 0 10.5-2.5 13.5-7.5s4.17-10.83 3.5-17.5l-11-88c-11.33 15.33-27.33 23-48 23h-39c-24 0-44.33-10-61-30s-27-46.67-31-80Zm126-12c-13.33 0-19.33 6.67-18 20l8 64c2 13.33 9.67 20 23 20h20c13.33 0 19-6.67 17-20l-8-64c-1.33-13.33-8.67-20-22-20Z" horiz-adv-x="336" vert-adv-y="1000"/><glyph glyph-name="uni0431" unicode="б" d="M0 102c-4-32 2.83-57.67 20.5-77S63.33-4 96-4h55c33.33 0 61.33 10.17 84 30.5s36 46.83 40 79.5l33 268c4 32.67-2.33 59.17-19 79.5S249 484 219 484h-3c-28.67 0-50.33-8-65-24l9 67c2.67 28 20.67 47.67 54 59l109 35 13 103-127-39c-95.33-30-147.67-80.33-157-151Zm126-8c-13.33 0-19.33 6.67-18 20l32 252c1.33 13.33 8.67 20 22 20h20c13.33 0 19.33-6.67 18-20l-32-252c-1.33-13.33-8.67-20-22-20Z" horiz-adv-x="335" vert-adv-y="1000"/><glyph glyph-name="uni0432" unicode="в" d="M-13 0h165c32.67 0 60.33 9.17 83 27.5s35.67 42.17 39 71.5l9 70c4 37.33-7.67 65-35 83 30 18.67 46.33 44.67 49 78l7 52c3.33 29.33-4 53-22 71s-43.33 27-76 27H46Zm119 90 14 115h40c13.33 0 19-6.67 17-20l-9-75c-2-13.33-9.67-20-23-20Zm36 300h36c13.33 0 19-6.67 17-20l-7-55c-1.33-13.33-8.67-20-22-20h-35Z" horiz-adv-x="326" vert-adv-y="1000"/><glyph glyph-name="uni0433" unicode="г" d="m95 0 47 390h100l11 90H46L-13 0Z" horiz-adv-x="246" vert-adv-y="1000"/><glyph glyph-name="uni0434" unicode="д" d="M58-100 69 0h156l-12-100h107l23 191h-48l48 389H91L24 107c-1.33-6.67-3.33-12-6-16h-45l-23-191Zm65 191c4 11.33 6.67 21.33 8 30l47 269h46L188 91Z" horiz-adv-x="380" vert-adv-y="1000"/><glyph glyph-name="uni0435" unicode="е" d="M96-4h55c33.33 0 61.33 10.17 84 30.5s36 46.83 40 79.5l7 58H174l-6-50c-1.33-13.33-8.67-20-22-20h-20c-13.33 0-19.33 6.67-18 20l11 85h168l21 175c4 33.33-2.83 60-20.5 80s-42.83 30-75.5 30h-55c-33.33 0-61.33-10.17-84-30.5S37 406.67 33 374L0 106c-4-33.33 2.83-60 20.5-80S63.33-4 96-4Zm34 293 10 77c1.33 13.33 8.67 20 22 20h20c13.33 0 19.33-6.67 18-20l-10-77Z" horiz-adv-x="334" vert-adv-y="1000"/><glyph glyph-name="uni0436" unicode="ж" d="m74 0 92 217L140 0h107l26 215L312 0h112l-66 244 122 236H368l-87-207 25 207H199l-26-210-37 210H24l64-236L-38 0Z" horiz-adv-x="472" vert-adv-y="1000"/><glyph glyph-name="uni0437" unicode="з" d="M-15 106c-4-32.67 2.83-59.17 20.5-79.5S48.67-4 82-4h55c33.33 0 62 9.33 86 28s37.67 43 41 73l8 66c4.67 38-7 66.33-35 85 29.33 18 46 44.67 50 80l7 56c3.33 30-3.83 54.17-21.5 72.5S229.67 484 197 484h-55c-33.33 0-61.33-10.17-84-30.5S22 406.67 18 374l-8-63h108l7 55c1.33 13.33 8.67 20 22 20h20c13.33 0 19.33-6.33 18-19l-7-57c-2-12.67-9.67-19-23-19h-51l-10-90h55c13.33 0 19.33-6.33 18-19l-9-68c-.67-6-3.67-10.83-9-14.5S138 94 132 94h-20c-13.33 0-19.33 6.67-18 20l7 55H-7Z" horiz-adv-x="316" vert-adv-y="1000"/><glyph glyph-name="uni0438" unicode="и" d="M-13 0H95l11 89 45 72c18 23.33 33 51 45 83h2c-13.33-35.33-21.67-65.33-25-90L155 0h107l59 480H214l-12-89-45-72c-18.67-25.33-33.67-53-45-83h-2c13.33 35.33 21.67 65.33 25 90l19 154H46Z" horiz-adv-x="335" vert-adv-y="1000"/><glyph glyph-name="uni0439" unicode="й" d="m95 0 11 89 45 72c18 23.33 33 51 45 83h2c-13.33-35.33-21.67-65.33-25-90L155 0h107l59 480H214l-12-89-45-72c-18.67-25.33-33.67-53-45-83h-2c13.33 35.33 21.67 65.33 25 90l19 154H46L-13 0Zm-1 602c-3.33-25.33 1.67-45.67 15-61 13.33-15.33 32.67-23 58-23h42c25.33 0 46.83 7.67 64.5 23s27.83 35.67 30.5 61l3 23h-82l-2-16c-2-10-8-15-18-15h-15c-10.67 0-15 5-13 15l1 16H96Z" horiz-adv-x="335" vert-adv-y="1000"/><glyph glyph-name="uni043A" unicode="к" d="m95 0 21 177L164 0h112l-70 244 126 236H220l-87-170 21 170H46L-13 0Z" horiz-adv-x="324" vert-adv-y="1000"/><glyph glyph-name="uni043B" unicode="л" d="M-39-4h31c73.33 0 117 40.67 131 122l48 272h46L169 0h108l59 480H84L21 126c-4.67-21.33-15.67-32-33-32h-14Z" horiz-adv-x="350" vert-adv-y="1000"/><glyph glyph-name="uni043C" unicode="м" d="M-13 0H90l34 277c4 27.33 6 57.67 6 91h2v-90L143 0h112l79 278c9.33 32 16.67 62 22 90h2c-8.67-45.33-14-75.67-16-91L308 0h104l59 480H303l-74-291c-6-23.33-11.67-53.67-17-91h-2c4.67 31.33 7 61.67 7 91l-4 291H46Z" horiz-adv-x="485" vert-adv-y="1000"/><glyph glyph-name="uni043D" unicode="н" d="M-13 0H95l23 195h60L155 0h107l59 480H214l-24-195h-60l24 195H46Z" horiz-adv-x="335" vert-adv-y="1000"/><glyph glyph-name="uni043E" unicode="о" d="M0 106c-4-33.33 2.83-60 20.5-80S63.33-4 96-4h55c33.33 0 61.33 10.17 84 30.5s36 46.83 40 79.5l33 268c4 33.33-2.83 60-20.5 80s-42.83 30-75.5 30h-55c-33.33 0-61.33-10.17-84-30.5S37 406.67 33 374Zm126-12c-13.33 0-19.33 6.67-18 20l32 252c1.33 13.33 8.67 20 22 20h20c13.33 0 19.33-6.67 18-20l-32-252c-1.33-13.33-8.67-20-22-20Z" horiz-adv-x="335" vert-adv-y="1000"/><glyph glyph-name="uni043F" unicode="п" d="m95 0 47 390h60L155 0h107l59 480H46L-13 0Z" horiz-adv-x="335" vert-adv-y="1000"/><glyph glyph-name="uni0440" unicode="р" d="M-36-190H72L97 19c11.33-15.33 27.33-23 48-23h39c24 0 44.33 10 61 30s27 46.67 31 80l33 268c4 33.33.17 60-11.5 80s-29.17 30-52.5 30h-39c-21.33 0-39.67-7.67-55-23l3 19H46ZM127 94c-13.33 0-19.33 6.67-18 20l32 252c1.33 13.33 8.67 20 22 20h20c13.33 0 19.33-6.67 18-20l-32-252c-1.33-13.33-8.67-20-22-20Z" horiz-adv-x="336" vert-adv-y="1000"/><glyph glyph-name="uni0441" unicode="с" d="M96-4h55c33.33 0 61.33 10.17 84 30.5s36 46.83 40 79.5l10 80H177l-9-72c-1.33-13.33-8.67-20-22-20h-20c-13.33 0-19.33 6.67-18 20l32 252c1.33 13.33 8.67 20 22 20h20c13.33 0 19.33-6.67 18-20l-9-72h107l10 80c4 33.33-2.83 60-20.5 80s-42.83 30-75.5 30h-55c-33.33 0-61.33-10.17-84-30.5S37 406.67 33 374L0 106c-4-33.33 2.83-60 20.5-80S63.33-4 96-4Z" horiz-adv-x="325" vert-adv-y="1000"/><glyph glyph-name="uni0442" unicode="т" d="M10 390h75L37 0h107l48 390h75l11 90H21Z" horiz-adv-x="267" vert-adv-y="1000"/><glyph glyph-name="uni0443" unicode="у" d="M0-190h33c64.67 0 108.67 40.33 132 121l157 549H218l-75-284c-6-24.67-11.67-55-17-91h-2c4.67 32.67 7 63 7 91l-4 284H22L46 0h43L73-60c-2.67-9.33-8.5-16.83-17.5-22.5-9-5.67-18.17-8.5-27.5-8.5H11Z" horiz-adv-x="312" vert-adv-y="1000"/><glyph glyph-name="uni0444" unicode="ф" d="M1 110c-4.67-32.67 1.83-59.17 19.5-79.5S63.67 0 97 0h53l-23-190h107L257 0h53c32.67 0 60.33 10 83 30s36 46.67 40 80l32 260c4 33.33-2.83 60-20.5 80s-42.83 30-75.5 30h-53l29 240H238l-30-240h-52c-32.67 0-60.33-10-83-30s-36.33-46.67-41-80Zm303 271h35c13.33 0 19-6.67 17-20l-29-242c-1.33-13.33-8.67-20-22-20h-36ZM127 99c-13.33 0-19.33 6.67-18 20l30 242c1.33 13.33 8.67 20 22 20h35L162 99Z" horiz-adv-x="493" vert-adv-y="1000"/><glyph glyph-name="uni0445" unicode="х" d="M-38 0H75l37 74c15.33 28.67 25 57.67 29 87h2c-4.67-31.33-2.67-60.67 6-88l19-73h112l-72 244 128 236H224l-33-66c-14.67-24.67-24-54-28-88h-2c3.33 30 1 59.33-7 88l-17 66H24l71-236Z" horiz-adv-x="328" vert-adv-y="1000"/><glyph glyph-name="uni0446" unicode="ц" d="m201 0-12-100h108l23 190h-47l48 390H214L166 90h-60l48 390H46L-13 0Z" horiz-adv-x="357" vert-adv-y="1000"/><glyph glyph-name="uni0447" unicode="ч" d="M8 289c-8.67-73.33 23-110 95-110 15.33 0 35.33 2.33 60 7L140 0h108l59 480H199l-24-197c-10-3.33-20.33-5-31-5-20 0-29.33 6.67-28 20l23 182H32Z" horiz-adv-x="321" vert-adv-y="1000"/><glyph glyph-name="uni0448" unicode="ш" d="M-13 0h443l59 480H381L333 90h-60l48 390H214L166 90h-60l48 390H46Z" horiz-adv-x="503" vert-adv-y="1000"/><glyph glyph-name="uni0449" unicode="щ" d="m369 0-12-100h107l23 190h-46l48 390H381L333 90h-60l48 390H214L166 90h-60l48 390H46L-13 0Z" horiz-adv-x="524" vert-adv-y="1000"/><glyph glyph-name="uni044A" unicode="ъ" d="M89 390 41 0h165c33.33 0 61.33 10.17 84 30.5s36 46.83 40 79.5l9 74c4 32.67-2.83 59.17-20.5 79.5S275.33 294 242 294h-57l23 186H25l-10-90Zm71-300 14 114h40c13.33 0 19-6.67 17-20l-9-74c-2-13.33-9.67-20-23-20Z" horiz-adv-x="370" vert-adv-y="1000"/><glyph glyph-name="uni044B" unicode="ы" d="M152 0c33.33 0 61.33 10.17 84 30.5s36 46.83 40 79.5l9 74c4 32.67-2.83 59.17-20.5 79.5S221.33 294 188 294h-57l23 186H46L-13 0Zm146 0h107l59 480H357ZM106 90l14 114h40c13.33 0 19-6.67 17-20l-9-74c-2-13.33-9.67-20-23-20Z" horiz-adv-x="478" vert-adv-y="1000"/><glyph glyph-name="uni044C" unicode="ь" d="M152 0c33.33 0 61.33 10.17 84 30.5s36 46.83 40 79.5l9 74c4 32.67-2.83 59.17-20.5 79.5S221.33 294 188 294h-57l23 186H46L-13 0Zm-46 90 14 114h40c13.33 0 19-6.67 17-20l-9-74c-2-13.33-9.67-20-23-20Z" horiz-adv-x="316" vert-adv-y="1000"/><glyph glyph-name="uni044D" unicode="э" d="M86-4h55c33.33 0 61.33 10.17 84 30.5s36 46.83 40 79.5l33 268c4 33.33-2.83 60-20.5 80s-42.83 30-75.5 30h-55c-33.33 0-61.33-10.17-84-30.5S27 406.67 23 374l-7-60h107l7 52c1.33 13.33 8.67 20 22 20h20c13.33 0 19.33-6.67 18-20l-10-81h-57l-12-90h57l-10-81c-1.33-13.33-8.67-20-22-20h-20c-13.33 0-19.33 6.67-18 20l7 52H-3l-7-60c-4-33.33 2.83-60 20.5-80S53.33-4 86-4Z" horiz-adv-x="325" vert-adv-y="1000"/><glyph glyph-name="uni044E" unicode="ю" d="M-13 0H95l23 195h50l-11-89c-4-32.67 2.83-59.17 20.5-79.5S220.67-4 254-4h55c32.67 0 60.33 10 83 30s36 46.67 40 80l34 268c4 32.67-2.83 59.17-20.5 79.5S402.33 484 369 484h-55c-32.67 0-60.33-10-83-30s-36-46.67-40-80l-11-89h-50l24 195H46Zm297 94c-13.33 0-19.33 6.67-18 20l31 252c1.33 13.33 8.67 20 22 20h20c13.33 0 19.33-6.67 18-20l-31-252c-1.33-13.33-8.67-20-22-20Z" horiz-adv-x="493" vert-adv-y="1000"/><glyph glyph-name="uni044F" unicode="я" d="m83 0 61 179h24L146 0h107l59 480H147c-32.67 0-60.33-10-83-30s-36-46.67-40-80l-10-81c-5.33-43.33 7-74.67 37-94L-25 0Zm56 269c-13.33 0-19.33 6.67-18 20l10 81c2 13.33 9.67 20 23 20h40l-15-121Z" horiz-adv-x="326" vert-adv-y="1000"/><glyph glyph-name="uni0450" unicode="ѐ" d="M96-4h55c33.33 0 61.33 10.17 84 30.5s36 46.83 40 79.5l7 58H174l-6-50c-1.33-13.33-8.67-20-22-20h-20c-13.33 0-19.33 6.67-18 20l11 85h168l21 175c4 33.33-2.83 60-20.5 80s-42.83 30-75.5 30h-55c-33.33 0-61.33-10.17-84-30.5S37 406.67 33 374L0 106c-4-33.33 2.83-60 20.5-80S63.33-4 96-4Zm67 534h83l-28 150H104Zm-23-164c1.33 13.33 8.67 20 22 20h20c13.33 0 19.33-6.67 18-20l-10-77h-60Z" horiz-adv-x="334" vert-adv-y="1000"/><glyph glyph-name="uni0451" unicode="ё" d="M96-4h55c33.33 0 61.33 10.17 84 30.5s36 46.83 40 79.5l7 58H174l-6-50c-1.33-13.33-8.67-20-22-20h-20c-13.33 0-19.33 6.67-18 20l11 85h168l21 175c4 33.33-2.83 60-20.5 80s-42.83 30-75.5 30h-55c-33.33 0-61.33-10.17-84-30.5S37 406.67 33 374L0 106c-4-33.33 2.83-60 20.5-80S63.33-4 96-4Zm78 535 13 106H95L82 531Zm123 0 14 106h-92l-13-106ZM130 289l10 77c1.33 13.33 8.67 20 22 20h20c13.33 0 19.33-6.67 18-20l-10-77Z" horiz-adv-x="334" vert-adv-y="1000"/><glyph glyph-name="uni0452" unicode="ђ" d="M-13 0H95l45 367c2 12.67 9.33 19 22 19h20c13.33 0 19.33-6.67 18-20L147-60c-.67-9.33-4.33-16.83-11-22.5-6.67-5.67-14.67-8.5-24-8.5H88l-11-99h41c36.67 0 67.33 11 92 33s39.33 51.33 44 88l54 443c4 33.33.17 60-11.5 80s-29.17 30-52.5 30h-39c-20 0-38-7.33-54-22l17 141h96l6 46h-96l9 71H75l-9-71H41l-5-46h25Z" horiz-adv-x="335" vert-adv-y="1000"/><glyph glyph-name="uni0453" unicode="ѓ" d="M-13 0H95l47 390h100l11 90H46ZM99 530h83l96 150H163Z" horiz-adv-x="246" vert-adv-y="1000"/><glyph glyph-name="uni0454" unicode="є" d="M96-4h55c33.33 0 61.33 10.17 84 30.5s36 46.83 40 79.5l7 56H174l-6-48c-1.33-13.33-8.67-20-22-20h-20c-13.33 0-19.33 6.67-18 20l10 81h81l12 90h-81l10 81c1.33 13.33 8.67 20 22 20h20c13.33 0 19.33-6.67 18-20l-6-48h107l7 56c4 33.33-2.83 60-20.5 80s-42.83 30-75.5 30h-55c-33.33 0-61.33-10.17-84-30.5S37 406.67 33 374L0 106c-4-33.33 2.83-60 20.5-80S63.33-4 96-4Z" horiz-adv-x="325" vert-adv-y="1000"/><glyph glyph-name="uni0455" unicode="ѕ" d="M96-4h55c32.67 0 60.33 10 83 30s36 46.67 40 80l10 78c2 19.33-1.33 36.83-10 52.5-8.67 15.67-21.67 26.83-39 33.5l-90 36c-11.33 3.33-16.33 11.67-15 25l5 35c1.33 13.33 8.67 20 22 20h20c13.33 0 19.33-6.67 18-20l-6-42h108l6 50c4 33.33-2.83 60-20.5 80s-42.83 30-75.5 30h-55c-33.33 0-61.33-10.17-84-30.5S32 406.67 28 374l-8-66c-2.67-19.33.67-36.83 10-52.5 9.33-15.67 22.67-26.83 40-33.5l89-36c11.33-4.67 16.33-13.33 15-26l-6-46c-1.33-13.33-8.67-20-22-20h-20c-13.33 0-19.33 6.67-18 20l6 47H6l-7-55c-4-32.67 2.83-59.17 20.5-79.5S62.67-4 96-4Z" horiz-adv-x="324" vert-adv-y="1000"/><glyph glyph-name="uni0456" unicode="і" d="M-13 0H95l59 480H46Zm70 573h108l15 121H72Z" horiz-adv-x="168" vert-adv-y="1000"/><glyph glyph-name="uni0457" unicode="ї" d="M-13 0H95l59 480H46Zm130 531h88l13 106h-87Zm-23 0 14 106H20L7 531Z" horiz-adv-x="168" vert-adv-y="1000"/><glyph glyph-name="uni0458" unicode="ј" d="M-50-190c36.67 0 67.33 11 92 33s39.33 51.33 44 88l68 549H46L-20-60c-.67-9.33-4.5-16.83-11.5-22.5-7-5.67-15.17-8.5-24.5-8.5h-25l-11-99ZM57 573h108l15 121H72Z" horiz-adv-x="168" vert-adv-y="1000"/><glyph glyph-name="uni0459" unicode="љ" d="M-7 0c73.33 0 116.67 40.33 130 121l48 269h46L169 0h165c33.33 0 61.33 10.17 84 30.5s36 46.83 40 79.5l9 74c4 32.67-2.83 59.17-20.5 79.5S403.33 294 370 294h-57l23 186H84L21 130c-3.33-20.67-14-31-32-31h-15L-38 0Zm295 90 14 114h40c13.33 0 19-6.67 17-20l-9-74c-2-13.33-9.67-20-23-20Z" horiz-adv-x="498" vert-adv-y="1000"/><glyph glyph-name="uni045A" unicode="њ" d="M-13 0H95l24 199h60L155 0h165c32.67 0 60.33 10 83 30s36 46.67 40 80l9 69c3.33 33.33-3.83 60-21.5 80s-42.83 30-75.5 30h-57l23 191H214l-24-191h-60l24 191H46Zm340 199c13.33 0 19.33-6.67 18-20l-9-69c-2-13.33-9.67-20-23-20h-40l14 109Z" horiz-adv-x="484" vert-adv-y="1000"/><glyph glyph-name="uni045B" unicode="ћ" d="m95 0 45 367c2 12.67 9.33 19 22 19h20c13.33 0 19.33-6.67 18-20L155 0h107l46 374c4 33.33.17 60-11.5 80s-29.17 30-52.5 30h-39c-20 0-38-7.33-54-22l17 141h96l6 46h-96l9 71H75l-9-71H41l-5-46h25L-13 0Z" horiz-adv-x="335" vert-adv-y="1000"/><glyph glyph-name="uni045C" unicode="ќ" d="m95 0 21 177L164 0h112l-70 244 126 236H220l-87-170 21 170H46L-13 0Zm45 530h83l96 150H204Z" horiz-adv-x="324" vert-adv-y="1000"/><glyph glyph-name="uni045D" unicode="ѝ" d="M-13 0H95l11 89 45 72c18 23.33 33 51 45 83h2c-13.33-35.33-21.67-65.33-25-90L155 0h107l59 480H214l-12-89-45-72c-18.67-25.33-33.67-53-45-83h-2c13.33 35.33 21.67 65.33 25 90l19 154H46Zm117 680 59-150h83l-28 150Z" horiz-adv-x="335" vert-adv-y="1000"/><glyph glyph-name="uni045E" unicode="ў" d="M0-190h33c64.67 0 108.67 40.33 132 121l157 549H218l-75-284c-6-24.67-11.67-55-17-91h-2c4.67 32.67 7 63 7 91l-4 284H22L46 0h43L73-60c-2.67-9.33-8.5-16.83-17.5-22.5-9-5.67-18.17-8.5-27.5-8.5H11Zm83 792c-3.33-25.33 1.67-45.67 15-61 13.33-15.33 32.67-23 58-23h42c25.33 0 46.83 7.67 64.5 23s27.83 35.67 30.5 61l3 23h-82l-2-16c-2-10-8-15-18-15h-15c-10.67 0-15 5-13 15l1 16H85Z" horiz-adv-x="312" vert-adv-y="1000"/><glyph glyph-name="uni045F" unicode="џ" d="M-13 0h84L59-100h107L178 0h84l59 480H214L166 90h-60l48 390H46Z" horiz-adv-x="335" vert-adv-y="1000"/><glyph glyph-name="uni0490" unicode="Ґ" d="m108 0 74 601h105l27 218H198l-15-119H78L-8 0Z" horiz-adv-x="261" vert-adv-y="1000"/><glyph glyph-name="uni0491" unicode="ґ" d="m95 0 47 390h100l24 201H159l-13-111H46L-13 0Z" horiz-adv-x="246" vert-adv-y="1000"/><glyph glyph-name="uni04D8" unicode="Ә" d="M105-4h65c35.33 0 65.33 10.83 90 32.5s39 50.17 43 85.5l59 472c4 35.33-3.5 63.83-22.5 85.5S293.33 704 258 704h-65c-36 0-66.17-10.83-90.5-32.5S63.67 621.33 59 586L43 457h116l15 120c2 13.33 9.67 20 23 20h30c13.33 0 19-6.67 17-20l-23-191H35L1 114c-4.67-35.33 2.67-63.83 22-85.5S69.67-4 105-4Zm14 127 20 165h70l-20-165c-2-13.33-9.67-20-23-20h-30c-13.33 0-19 6.67-17 20Z" horiz-adv-x="368" vert-adv-y="1000"/><glyph glyph-name="uni04D9" unicode="ә" d="M96-4h55c33.33 0 61.33 10.17 84 30.5s36 46.83 40 79.5l33 268c4 33.33-2.83 60-20.5 80s-42.83 30-75.5 30h-55c-33.33 0-61.33-10.17-84-30.5S37 406.67 33 374l-7-58h108l6 50c1.33 13.33 8.67 20 22 20h20c13.33 0 19.33-6.67 18-20l-11-85H22L0 106c-4-33.33 2.83-60 20.5-80S63.33-4 96-4Zm12 118 10 77h60l-10-77c-1.33-13.33-8.67-20-22-20h-20c-13.33 0-19.33 6.67-18 20Z" horiz-adv-x="335" vert-adv-y="1000"/><glyph glyph-name="uni1E80" unicode="Ẁ" d="m195 0 106 483c6 23.33 11 53.67 15 91h2c-4.67-44-7.33-74.33-8-91L299 0h155l163 700H509L407 218c-2-11.33-6.67-41.67-14-91h-2c4.67 31.33 7 61.67 7 91l16 482H251L149 218c-3.33-15.33-8.33-45.67-15-91h-2c5.33 36 8 66.33 8 91l16 482H48L40 0Zm117 750h83l-28 150H253Z" horiz-adv-x="579" vert-adv-y="1000"/><glyph glyph-name="uni1E81" unicode="ẁ" d="M22 480 39 0h124l71 289c6 22 11 52.33 15 91h2c-4-36-6-66.33-6-91L244 0h125l135 480H399l-70-291c-7.33-28-12.67-58.33-16-91h-2c4.67 42 7 72.33 7 91l1 291H207l-70-291c-4.67-17.33-10.33-47.67-17-91h-2c5.33 36 8 66.33 8 91l1 291Zm220 50h83l-27 150H183Z" horiz-adv-x="494" vert-adv-y="1000"/><glyph glyph-name="uni1E82" unicode="Ẃ" d="m195 0 106 483c6 23.33 11 53.67 15 91h2c-4.67-44-7.33-74.33-8-91L299 0h155l163 700H509L407 218c-2-11.33-6.67-41.67-14-91h-2c4.67 31.33 7 61.67 7 91l16 482H251L149 218c-3.33-15.33-8.33-45.67-15-91h-2c5.33 36 8 66.33 8 91l16 482H48L40 0Zm87 750h83l96 150H346Z" horiz-adv-x="579" vert-adv-y="1000"/><glyph glyph-name="uni1E83" unicode="ẃ" d="M22 480 39 0h124l71 289c6 22 11 52.33 15 91h2c-4-36-6-66.33-6-91L244 0h125l135 480H399l-70-291c-7.33-28-12.67-58.33-16-91h-2c4.67 42 7 72.33 7 91l1 291H207l-70-291c-4.67-17.33-10.33-47.67-17-91h-2c5.33 36 8 66.33 8 91l1 291Zm190 50h83l96 150H276Z" horiz-adv-x="494" vert-adv-y="1000"/><glyph glyph-name="uni1E84" unicode="Ẅ" d="m195 0 106 483c6 23.33 11 53.67 15 91h2c-4.67-44-7.33-74.33-8-91L299 0h155l163 700H509L407 218c-2-11.33-6.67-41.67-14-91h-2c4.67 31.33 7 61.67 7 91l16 482H251L149 218c-3.33-15.33-8.33-45.67-15-91h-2c5.33 36 8 66.33 8 91l16 482H48L40 0Zm251 751 14 106h-92l-13-106Zm-215 0h92l13 106h-92Z" horiz-adv-x="579" vert-adv-y="1000"/><glyph glyph-name="uni1E85" unicode="ẅ" d="M22 480 39 0h124l71 289c6 22 11 52.33 15 91h2c-4-36-6-66.33-6-91L244 0h125l135 480H399l-70-291c-7.33-28-12.67-58.33-16-91h-2c4.67 42 7 72.33 7 91l1 291H207l-70-291c-4.67-17.33-10.33-47.67-17-91h-2c5.33 36 8 66.33 8 91l1 291Zm263 51h92l13 106h-92Zm-32 0 13 106h-91l-14-106Z" horiz-adv-x="494" vert-adv-y="1000"/><glyph glyph-name="uni1E9E" unicode="ẞ" d="m108 0 72 581c2 13.33 8.33 20 19 20h62l-69-185-12-99h17c13.33 0 19.33-6.67 18-20l-23-182c-1.33-14-8.67-21-22-21h-30L130-4h45c35.33 0 65.33 11 90 33s39.33 51.33 44 88l22 182c6 44.67-6.67 77.67-38 99l83 222 10 80H194c-35.33 0-64.67-9.5-88-28.5S69 627.33 65 596L-8 0Z" horiz-adv-x="363" vert-adv-y="1000"/><glyph glyph-name="uni1EF2" unicode="Ỳ" d="m49 700 46-446L63 0h117l32 255 155 445H257l-69-229c-6.67-22-12.67-52.33-18-91h-2c4.67 34.67 5.67 65 3 91l-12 229Zm139 50h83l-28 150H129Z" horiz-adv-x="330" vert-adv-y="1000"/><glyph glyph-name="uni1EF3" unicode="ỳ" d="M0-190h33c64.67 0 108.67 40.33 132 121l157 549H218l-75-284c-6-24.67-11.67-55-17-91h-2c4.67 32.67 7 63 7 91l-4 284H22L46 0h43L73-60c-2.67-9.33-8.5-16.83-17.5-22.5-9-5.67-18.17-8.5-27.5-8.5H11Zm92 870 59-150h83l-28 150Z" horiz-adv-x="312" vert-adv-y="1000"/><glyph glyph-name="uni2012" unicode="‒" d="M30 305h275v90H30Z" horiz-adv-x="335" vert-adv-y="1000"/><glyph glyph-name="uni2013" unicode="–" d="M5 225h281l11 90H15Z" horiz-adv-x="321" vert-adv-y="1000"/><glyph glyph-name="uni2014" unicode="—" d="M5 225h453l11 90H15Z" horiz-adv-x="494" vert-adv-y="1000"/><glyph glyph-name="uni2018" unicode="‘" d="M173 700h-72L33 459h90Z" horiz-adv-x="145" vert-adv-y="1000"/><glyph glyph-name="uni2019" unicode="’" d="M28 459h72l68 241H78Z" horiz-adv-x="145" vert-adv-y="1000"/><glyph glyph-name="uni201A" unicode="‚" d="M-43-120h72l68 241H7Z" horiz-adv-x="145" vert-adv-y="1000"/><glyph glyph-name="uni201B" unicode="‛" d="m63 700 8-241h72l10 241Z" horiz-adv-x="145" vert-adv-y="1000"/><glyph glyph-name="uni201C" unicode="“" d="m229 459 50 241h-72l-68-241Zm-111 0 50 241H96L28 459Z" horiz-adv-x="251" vert-adv-y="1000"/><glyph glyph-name="uni201D" unicode="”" d="m211 459 68 241h-90l-50-241Zm-111 0 68 241H78L28 459Z" horiz-adv-x="251" vert-adv-y="1000"/><glyph glyph-name="uni201E" unicode="„" d="m29-120 68 241H7l-50-241Zm111 0 68 241h-90L68-120Z" horiz-adv-x="256" vert-adv-y="1000"/><glyph glyph-name="uni201F" unicode="‟" d="m69 700 8-241h72l10 241Zm119-241h72l10 241h-90Z" horiz-adv-x="262" vert-adv-y="1000"/><glyph glyph-name="uni2020" unicode="†" d="M27 486h67L35 0h90l59 486h68l11 90h-68l16 124h-90l-16-124H38Z" horiz-adv-x="245" vert-adv-y="1000"/><glyph glyph-name="uni2021" unicode="‡" d="m208 133 11 90h-67l31 255h68l11 90h-68l17 132h-90l-17-132H37l-11-90h67L62 223H-6l-11-90h68L35 0h90l16 133Z" horiz-adv-x="245" vert-adv-y="1000"/><glyph glyph-name="uni2022" unicode="•" d="M26 188h147v165H26Z" horiz-adv-x="199" vert-adv-y="1000"/><glyph glyph-name="uni2026" unicode="…" d="m408 0 15 121H315L300 0ZM141 0h108l15 121H156ZM90 0l15 121H-3L-17 0Z" horiz-adv-x="476" vert-adv-y="1000"/><glyph glyph-name="uni2030" unicode="‰" d="M26 465c-4-36 3.17-65 21.5-87s44.83-33 79.5-33h18c34.67 0 64 11 88 33s38 51 42 87l15 119c4.67 36-2.17 65-20.5 87s-44.83 33-79.5 33h-19c-34.67 0-63.83-11-87.5-33S46 620 42 584Zm279-349c-4-36 3-65 21-87s44.33-33 79-33h19c34.67 0 63.83 11 87.5 33s37.83 51 42.5 87l15 119c4 36-3 65-21 87s-44.33 33-79 33h-19c-34.67 0-63.83-11-87.5-33s-37.83-51-42.5-87Zm279 0c-4.67-36 2.17-65 20.5-87S649.33-4 684-4h19c34.67 0 63.83 11 87.5 33s37.83 51 42.5 87l15 119c4 36-3 65-21 87s-44.33 33-79 33h-19c-34.67 0-64-11-88-33s-38-51-42-87ZM83 0h96l333 700h-96Zm59 431c-16 0-23 10-21 30l15 128c.67 8.67 3.83 15.83 9.5 21.5s12.17 8.5 19.5 8.5h10c16 0 23-10 21-30l-15-128c-.67-8.67-3.83-15.83-9.5-21.5S159.33 431 152 431ZM699 81c-16 0-23 10-21 30l15 128c3.33 20 13 30 29 30h10c7.33 0 13-2.83 17-8.5s5.33-12.83 4-21.5l-15-128c-.67-8.67-3.83-15.83-9.5-21.5S716.33 81 709 81Zm-279 0c-16 0-23 10-21 30l16 128c.67 8.67 3.83 15.83 9.5 21.5s12.17 8.5 19.5 8.5h10c16 0 23-10 21-30l-16-128c-.67-8.67-3.83-15.83-9.5-21.5S437.33 81 430 81Z" horiz-adv-x="874" vert-adv-y="1000"/><glyph glyph-name="uni2039" unicode="‹" d="M66 85h94l-56 175 100 175h-95L14 260Z" horiz-adv-x="213" vert-adv-y="1000"/><glyph glyph-name="uni203A" unicode="›" d="M125 435H31l56-175L-13 85h95l95 175Z" horiz-adv-x="213" vert-adv-y="1000"/><glyph glyph-name="uni203C" unicode="‼" d="m106 201 70 499H69L17 201Zm54 0h89l70 499H212ZM233 0l15 121H141L126 0ZM90 0l15 121H-3L-17 0Z" horiz-adv-x="302" vert-adv-y="1000"/><glyph glyph-name="uni2044" unicode="⁄" d="M-43 0h96l333 700h-95Z" horiz-adv-x="343" vert-adv-y="1000"/><glyph glyph-name="uni20AC" unicode="€" d="M-10 269h35L6 114C1.33 78.67 8.67 50.17 28 28.5S74.67-4 110-4h65c35.33 0 65.33 10.83 90 32.5s39 50.17 43 85.5l12 98H204l-10-89c-2-13.33-9.67-20-23-20h-30c-13.33 0-19 6.67-17 20l18 146h77l8 64h-78l4 34h78l7 64h-77l18 146c2 13.33 9.67 20 23 20h30c13.33 0 19-6.67 17-20l-11-94h116l13 103c4 35.33-3.5 63.83-22.5 85.5S298.33 704 263 704h-65c-36 0-66.17-10.83-90.5-32.5S68.67 621.33 64 586L45 431H10l-8-64h35l-4-34H-2Z" horiz-adv-x="368" vert-adv-y="1000"/><glyph glyph-name="uni20B4" unicode="₴" d="M100-4h65c35.33 0 65.33 10.83 90 32.5s39 50.17 43 85.5l12 94H194l-10-85c-2-13.33-9.67-20-23-20h-30c-13.33 0-19 6.67-17 20l14 118c.67 12 7 22 19 30l4 3h191l8 64H239l30 21c8 5.33 13.67 9.33 17 12h68l8 64h-30c5.33 12.67 9 25 11 37l14 114c4 35.33-3.5 63.83-22.5 85.5S288.33 704 253 704h-65c-36 0-66.17-10.83-90.5-32.5S58.67 621.33 54 586l-12-94h117l10 85c2 13.33 9.67 20 23 20h30c13.33 0 19-6.67 17-20l-13-107c-2.67-13.33-9-23-19-29l-8-6H12l-8-64h107l-26-19c-6.67-4-13.33-8.67-20-14H0l-8-64h28c-4-12.67-7-24.33-9-35L-4 114c-4.67-35.33 2.67-63.83 22-85.5S64.67-4 100-4Z" horiz-adv-x="353" vert-adv-y="1000"/><glyph glyph-name="uni20B8" unicode="₸" d="m307 469 13 99H32l-13-99h87L48 0h116l58 469ZM37 610h288l11 90H48Z" horiz-adv-x="298" vert-adv-y="1000"/><glyph glyph-name="uni20BF" unicode="₿" d="M-41 0h67L13-102h72L98 0h46l-13-102h73L217 5c25.33 7.33 46.17 20.17 62.5 38.5S305.33 84 308 110l19 160c6 45.33-9.33 77-46 95 38.67 19.33 60 50 64 92l18 139c2.67 23.33-1.5 43.67-12.5 61S323 686.33 301 693l14 109h-73l-12-102h-46l13 102h-73l-13-102H44l-13-99h35L4 99h-34Zm161 99 27 215h50c13.33 0 19.33-6.67 18-20l-22-175c-1.33-13.33-8.67-20-22-20Zm107 502c14 0 20-6.67 18-20l-19-148c-1.33-13.33-8.67-20-22-20h-45l23 188Z" horiz-adv-x="363" vert-adv-y="1000"/><glyph glyph-name="uni2113" unicode="ℓ" d="m6 134 40 21c1.33-48 12.83-86.67 34.5-116S130.33-5 165-5c15.33 0 30.67 3 46 9 15.33 6 28 12.5 38 19.5s19.83 15.33 29.5 25c9.67 9.67 16 16.33 19 20 3 3.67 5.17 6.5 6.5 8.5l-48 69-8-14c-5.33-9.33-13.5-18.83-24.5-28.5-11-9.67-22.17-14.5-33.5-14.5-14 0-25 6.5-33 19.5s-12 30.17-12 51.5v66c95.33 86 143 188.67 143 308 0 58-11.17 104.17-33.5 138.5S202 724 164 724c-34.67 0-63-14-85-42s-33-65-33-111V252c-15.33-11.33-28.67-20-40-26Zm139 226v214c0 36.67 7.67 55 23 55 17.33 0 26-29.67 26-89 0-66-16.33-126-49-180Z" horiz-adv-x="314" vert-adv-y="1000"/><glyph glyph-name="uni2116" unicode="№" d="m104 0 36 293c3.33 30 5 60 5 90l2 1c0-37.33 1.67-67.33 5-90L183 0h112l86 700H269l-36-293c-3.33-31.33-5-61.67-5-91l-2-1c0 37.33-1.67 67.33-5 90l-31 295H78L-8 0Zm289 478c-4.67-36 2.17-65 20.5-87s44.83-33 79.5-33h19c34.67 0 63.83 11 87.5 33s37.5 51 41.5 87l14 106c4.67 36-2.17 65-20.5 87s-44.83 33-79.5 33h-19c-34.67 0-63.83-11-87.5-33s-37.83-51-42.5-87Zm-30-245h249l9 72H372Zm145 210c-16 0-23 10-21 30l14 116c.67 8.67 3.83 15.83 9.5 21.5s12.17 8.5 19.5 8.5h10c16 0 23-10 21-30l-14-116c-.67-8.67-3.83-15.83-9.5-21.5S525.33 443 518 443Z" horiz-adv-x="659" vert-adv-y="1000"/><glyph glyph-name="uni2117" unicode="℗" d="M30 185c0-56.67 16.83-102.5 50.5-137.5S158.67-5 214-5h72c55.33 0 99.83 17.5 133.5 52.5S470 128.33 470 185v330c0 56.67-16.83 102.5-50.5 137.5S341.33 705 286 705h-72c-55.33 0-99.83-17.5-133.5-52.5S30 571.67 30 515Zm81 330c0 34 9.5 61.33 28.5 82s43.83 31 74.5 31h72c30.67 0 55.5-10.33 74.5-31s28.5-48 28.5-82V185c0-34-9.5-61.33-28.5-82S316.67 72 286 72h-72c-30.67 0-55.5 10.33-74.5 31S111 151 111 185Zm51-336h76v123h35c25.33 0 45.67 7.67 61 23 15.33 15.33 23 35.33 23 60v61c0 24.67-7.67 44.67-23 60-15.33 15.33-35.67 23-61 23H162Zm104 287c9.33 0 14-4.67 14-14v-73c0-9.33-4.67-14-14-14h-28v101Z" horiz-adv-x="500" vert-adv-y="1000"/><glyph glyph-name="uni2122" unicode="™" d="M211 700V350h74v207c0 7.33-.67 19-2 35s-2 25.67-2 29h1c.67-6 1.83-16.67 3.5-32 1.67-15.33 2.83-26 3.5-32l33-207h79l32 207c3.33 23.33 5.67 44.67 7 64h2c-2.67-25.33-4-46.67-4-64V350h73v350H393l-28-216c-2-40-3-61.67-3-65h-1c0 16.67-1.33 38.33-4 65l-27 216Zm-20-64v64H11v-64h52V350h77v286Z" horiz-adv-x="532" vert-adv-y="1000"/><glyph glyph-name="uni212E" unicode="℮" d="M401-7c70 0 134.5 19 193.5 57S697.33 139 726 203h-44c-28-52.67-67-94.17-117-124.5S460.33 33 401 33c-73.33 0-139 23-197 69v248h554c0 98.67-34.83 182.83-104.5 252.5C583.83 672.17 499.67 707 401 707c-98.67 0-182.83-34.83-252.5-104.5C78.83 532.83 44 448.67 44 350c0-98.67 35-182.83 105-252.5C219 27.83 303-7 401-7Zm0 674c73.33 0 139-23 197-69V390H204v208c58 46 123.67 69 197 69Z" horiz-adv-x="802" vert-adv-y="1000"/><glyph glyph-name="uni2150" unicode="⅐" d="M28 0h96l332 700h-95Zm337 0 127 306 5 44H311l-8-70h103L288 0ZM113 594 83 350h76l43 350h-70c-2-18-10.17-32.5-24.5-43.5S75 640 53 640l-6-46Z" horiz-adv-x="511" vert-adv-y="1000"/><glyph glyph-name="uni2151" unicode="⅑" d="m124 0 332 700h-95L28 0Zm150 78c-2.67-24.67 2.5-44.5 15.5-59.5S321-4 345-4h32c24.67 0 45.17 7.5 61.5 22.5S464.33 53.33 467 78l25 204c2.67 21.33-2.5 38.67-15.5 52-13 13.33-31.83 20-56.5 20h-32c-24 0-44.33-7.67-61-23s-26.33-35.33-29-60l-6-46c-3.33-28 0-50.17 10-66.5s25-24.5 45-24.5h26c9.33 0 18.33 2.67 27 8l-6-50c-2-16.67-9-25-21-25h-7c-11.33 0-16 8.33-14 25l3 25h-76ZM113 594 83 350h76l43 350h-70c-2-18-10.17-32.5-24.5-43.5S75 640 53 640l-6-46Zm269-397c-11.33 0-16 7-14 21l4 42c.67 6.67 3 12.33 7 17s8.67 7 14 7h7c12 0 17-6.67 15-20l-5-45c-2-14.67-9-22-21-22Z" horiz-adv-x="522" vert-adv-y="1000"/><glyph glyph-name="uni2152" unicode="⅒" d="m124 0 332 700h-95L28 0Zm348 82c-3.33-25.33 1.67-46 15-62s32.33-24 57-24h31c24 0 44.33 8 61 24s26.67 36.67 30 62l23 187c3.33 25.33-1.67 45.83-15 61.5-13.33 15.67-32 23.5-56 23.5h-31c-24.67 0-45.33-7.83-62-23.5s-26.67-36.17-30-61.5ZM113 594 83 350h76l43 350h-70c-2-18-10.17-32.5-24.5-43.5S75 640 53 640l-6-46Zm246-350L329 0h76l43 350h-69c-2.67-18.67-11.17-33.33-25.5-44-14.33-10.67-32.5-16-54.5-16l-5-46ZM563 67c-11.33 0-16 7-14 21l21 174c2 14.67 8.67 22 20 22h8c11.33 0 16-7.33 14-22L591 88c-2-14-8.67-21-20-21Z" horiz-adv-x="720" vert-adv-y="1000"/><glyph glyph-name="uni2153" unicode="⅓" d="M28 0h96l332 700h-95Zm245 70c-2.67-22 2.67-39.83 16-53.5C302.33 2.83 321-4 345-4h32c24.67 0 45 6.83 61 20.5S463.33 48 466 70l6 38c3.33 31.33-4 54.33-22 69 22.67 17.33 35 40 37 68l4 27c3.33 24.67-1.5 44.5-14.5 59.5S444.67 354 420 354h-32c-24 0-44.17-7.5-60.5-22.5S301.33 296.67 298 272l-5-41h76l3 27c2 17.33 9 26 21 26h7c12 0 17-8.67 15-26l-4-26c-2-13.33-9-20-21-20h-26l-8-70h26c12 0 17-7.33 15-22l-4-34c-1.33-12.67-8-19-20-19h-7c-11.33 0-16.33 6.33-15 19l3 25h-76ZM113 594 83 350h76l43 350h-70c-2-18-10.17-32.5-24.5-43.5S75 640 53 640l-6-46Z" horiz-adv-x="522" vert-adv-y="1000"/><glyph glyph-name="uni2154" unicode="⅔" d="M62 0h96l333 700h-95Zm246 70c-2.67-22 2.67-39.83 16-53.5C337.33 2.83 356-4 380-4h32c24 0 44 6.83 60 20.5S497.67 48 501 70l5 38c4 30.67-3.33 53.67-22 69 22 16 34.67 38.67 38 68l4 27c3.33 24.67-1.5 44.5-14.5 59.5S479.67 354 455 354h-32c-24 0-44.33-7.5-61-22.5s-26.33-34.83-29-59.5l-6-41h76l4 27c2 17.33 8.67 26 20 26h7c12 0 17-8.67 15-26l-3-26c-2-13.33-9-20-21-20h-26l-9-70h27c12 0 17-7.33 15-22l-5-34c-1.33-12.67-8-19-20-19h-7c-11.33 0-16.33 6.33-15 19l3 25h-76Zm-94 280 8 70H103c3.33 11.33 9.33 19.33 18 24l52 35c17.33 9.33 32 22.83 44 40.5s19.33 36.17 22 55.5l6 47c2.67 24.67-2.5 44.5-15.5 59.5S197.67 704 173 704h-31c-24.67 0-45.17-7.5-61.5-22.5S54.67 646.67 52 622l-7-53h76l5 39c2 17.33 8.67 26 20 26h7c12 0 17-8.67 15-26l-5-41c-.67-12-7.33-21.67-20-29l-51-34c-17.33-9.33-32.17-22.83-44.5-40.5C35.17 445.83 27.67 427.33 25 408l-7-58Z" horiz-adv-x="556" vert-adv-y="1000"/><glyph glyph-name="uni2155" unicode="⅕" d="m124 0 332 700h-95L28 0Zm151 70c-2.67-22 2.67-39.83 16-53.5C304.33 2.83 323.33-4 348-4h31c24.67 0 45.17 7.67 61.5 23s25.83 35.33 28.5 60l8 60c3.33 27.33.17 49.33-9.5 66S443 230 423 230h-27c-8.67 0-17.33-2.67-26-8l7 58h102l8 70H310l-26-204h76c2.67 14 9.33 21 20 21h7c12 0 17.33-7 16-21l-7-56c-2-15.33-9-23-21-23h-7c-11.33 0-16.33 6.33-15 19l3 25h-76ZM113 594 83 350h76l43 350h-70c-2-18-10.17-32.5-24.5-43.5S75 640 53 640l-6-46Z" horiz-adv-x="518" vert-adv-y="1000"/><glyph glyph-name="uni2156" unicode="⅖" d="M62 0h96l333 700h-95Zm248 70c-2.67-22 2.67-39.83 16-53.5C339.33 2.83 358-4 382-4h32c24.67 0 45 7.5 61 22.5s25.67 35.17 29 60.5l7 60c4 27.33 1 49.33-9 66s-25 25-45 25h-27c-8.67 0-17.33-2.67-26-8l7 58h103l8 70H344l-25-204h76c2 14 8.67 21 20 21h7c12 0 17-7 15-21l-6-56c-2-15.33-9-23-21-23h-7c-11.33 0-16.33 6.33-15 19l3 25h-76Zm-96 280 8 70H103c3.33 11.33 9.33 19.33 18 24l52 35c17.33 9.33 32 22.83 44 40.5s19.33 36.17 22 55.5l6 47c2.67 24.67-2.5 44.5-15.5 59.5S197.67 704 173 704h-31c-24.67 0-45.17-7.5-61.5-22.5S54.67 646.67 52 622l-7-53h76l5 39c2 17.33 8.67 26 20 26h7c12 0 17-8.67 15-26l-5-41c-.67-12-7.33-21.67-20-29l-51-34c-17.33-9.33-32.17-22.83-44.5-40.5C35.17 445.83 27.67 427.33 25 408l-7-58Z" horiz-adv-x="553" vert-adv-y="1000"/><glyph glyph-name="uni2157" unicode="⅗" d="m162 0 332 700h-95L65 0Zm151 70c-2.67-22 2.67-39.83 16-53.5C342.33 2.83 361-4 385-4h32c24.67 0 45.17 7.67 61.5 23s25.83 35.33 28.5 60l8 60c3.33 27.33.17 49.33-9.5 66s-24.83 25-45.5 25h-26c-8.67 0-17.33-2.67-26-8l7 58h102l8 70H348l-26-204h76c2.67 14 9.33 21 20 21h7c5.33 0 9.5-2 12.5-6s3.83-9 2.5-15l-6-56c-2-15.33-9-23-21-23h-7c-11.33 0-16.33 6.33-15 19l3 25h-76ZM27 420c-2.67-22 2.5-39.67 15.5-53 13-13.33 31.83-20 56.5-20h31c24.67 0 45 6.67 61 20s25.67 31 29 53l5 38c4 30.67-3.33 53.67-22 69 22 16 34.67 38.67 38 68l4 27c2.67 24.67-2.5 44.5-15.5 59.5S197.67 704 173 704h-31c-24.67 0-45.17-7.5-61.5-22.5S54.67 646.67 52 622l-6-41h76l4 27c2 17.33 8.67 26 20 26h7c12 0 17-8.67 15-26l-3-26c-2-13.33-9-20-21-20h-27l-8-70h27c12 0 17-7.33 15-22l-5-34c-1.33-12.67-8-19-20-19h-7c-11.33 0-16.33 6.33-15 19l3 25H31Z" horiz-adv-x="556" vert-adv-y="1000"/><glyph glyph-name="uni2158" unicode="⅘" d="m162 0 333 700h-96L66 0Zm152 70c-2.67-22 2.67-39.83 16-53.5C343.33 2.83 362-4 386-4h32c24.67 0 45 7.5 61 22.5s25.67 35.17 29 60.5l7 60c3.33 27.33.17 49.33-9.5 66S481 230 461 230h-27c-8.67 0-17.33-2.67-26-8l7 58h103l8 70H348l-25-204h75c2.67 14 9.33 21 20 21h8c12 0 17-7 15-21l-7-56c-2-15.33-9-23-21-23h-7c-11.33 0-16.33 6.33-15 19l3 25h-76Zm-80 345 8 69h-26l26 216H135L23 484l-8-69h116l-8-65h76l8 65ZM92 484l41 84c14 28 26 57 36 87h1c-10-34.67-17-64.67-21-90l-9-81Z" horiz-adv-x="556" vert-adv-y="1000"/><glyph glyph-name="uni2159" unicode="⅙" d="m124 0 332 700h-95L28 0Zm152 70c-2.67-22 2.67-39.83 16-53.5C305.33 2.83 324.33-4 349-4h32c24 0 44.33 7.67 61 23s26.33 35.33 29 60l6 46c3.33 27.33 0 49.33-10 66s-25 25-45 25h-26c-8.67 0-17.67-2.67-27-8l7 50c2 17.33 8.67 26 20 26h7c12 0 17-8.67 15-26l-4-24h76l5 38c2.67 24.67-2.5 44.5-15.5 59.5S448 354 424 354h-32c-24.67 0-45.17-7.5-61.5-22.5S304.33 296.67 301 272ZM113 594 83 350h76l43 350h-70c-2-18-10.17-32.5-24.5-43.5S75 640 53 640l-6-46ZM369 67c-11.33 0-16.33 6.33-15 19l5 46c2 14 8.67 21 20 21h8c11.33 0 16-7 14-21l-4-42c-2-15.33-8.67-23-20-23Z" horiz-adv-x="522" vert-adv-y="1000"/><glyph glyph-name="uni215A" unicode="⅚" d="m158 0 333 700h-96L62 0Zm152 70c-2.67-22 2.67-39.83 16-53.5C339.33 2.83 358.33-4 383-4h32c24 0 44.33 7.67 61 23s26.33 35.33 29 60l7 46c2.67 27.33-1 49.33-11 66s-24.67 25-44 25h-27c-8.67 0-17.67-2.67-27-8l7 50c2 17.33 8.67 26 20 26h8c11.33 0 16-8.67 14-26l-4-24h76l5 38c2.67 24.67-2.5 44.5-15.5 59.5S482 354 458 354h-32c-24.67 0-45.17-7.5-61.5-22.5S338.33 296.67 335 272ZM29 420c-2.67-22 2.67-39.67 16-53 13.33-13.33 32-20 56-20h32c24.67 0 45 7.33 61 22s25.67 34.67 29 60l7 60c4 27.33.83 49.33-9.5 66S195 580 175 580h-27c-7.33 0-15.67-2.33-25-7l7 57h103l8 70H63L38 496h76c.67 6 2.83 11 6.5 15s8.17 6 13.5 6h7c5.33 0 9.5-2 12.5-6s3.83-9 2.5-15l-7-56c-2-15.33-9-23-21-23h-7c-11.33 0-16 6.33-14 19l3 25H34ZM403 67c-11.33 0-16.33 6.33-15 19l6 46c1.33 14 8 21 20 21h8c11.33 0 16-7 14-21l-5-42c-2-15.33-8.67-23-20-23Z" horiz-adv-x="556" vert-adv-y="1000"/><glyph glyph-name="uni215B" unicode="⅛" d="m124 0 332 700h-95L28 0Zm152 70c-2.67-22 2.67-39.83 16-53.5C305.33 2.83 324.33-4 349-4h32c24 0 44.17 6.83 60.5 20.5S467.33 48 470 70l5 41c4 30.67-3.33 53.67-22 69 22 14.67 35 37.67 39 69l3 23c2.67 24.67-2.5 44.5-15.5 59.5S448 354 424 354h-32c-24.67 0-45.17-7.5-61.5-22.5S304.33 296.67 301 272l-3-23c-4-30.67 3.33-53.67 22-69-22-16-35-39-39-69ZM113 594 83 350h76l43 350h-70c-2-18-10.17-32.5-24.5-43.5S75 640 53 640l-6-46ZM369 67c-11.33 0-16.33 6.33-15 19l5 38c1.33 14 7.67 21 19 21h8c11.33 0 16.33-7 15-21l-5-38c-1.33-12.67-7.67-19-19-19Zm18 148c-11.33 0-16.33 7-15 21l4 29c2 12.67 8.67 19 20 19h7c12 0 17-6.33 15-19l-4-29c-1.33-14-7.67-21-19-21Z" horiz-adv-x="526" vert-adv-y="1000"/><glyph glyph-name="uni215C" unicode="⅜" d="M65 0h97l332 700h-95Zm249 70c-2.67-22 2.67-39.83 16-53.5C343.33 2.83 362.33-4 387-4h32c24 0 44 6.83 60 20.5S504.67 48 508 70l5 41c4 30.67-3.33 53.67-22 69 22 14.67 35 37.67 39 69l3 23c2.67 24.67-2.5 44.5-15.5 59.5S486 354 462 354h-32c-24.67 0-45.17-7.5-61.5-22.5S342.33 296.67 339 272l-3-23c-4-30.67 3.33-53.67 22-69-22-16-35-39-39-69ZM27 420c-2.67-22 2.5-39.67 15.5-53 13-13.33 31.83-20 56.5-20h31c24.67 0 45 6.67 61 20s25.67 31 29 53l5 38c4 30.67-3.33 53.67-22 69 22 16 34.67 38.67 38 68l4 27c2.67 24.67-2.5 44.5-15.5 59.5S197.67 704 173 704h-31c-24.67 0-45.17-7.5-61.5-22.5S54.67 646.67 52 622l-6-41h76l4 27c2 17.33 8.67 26 20 26h7c12 0 17-8.67 15-26l-3-26c-2-13.33-9-20-21-20h-27l-8-70h27c12 0 17-7.33 15-22l-5-34c-1.33-12.67-8-19-20-19h-7c-11.33 0-16.33 6.33-15 19l3 25H31ZM407 67c-11.33 0-16.33 6.33-15 19l5 38c1.33 14 7.67 21 19 21h8c11.33 0 16.33-7 15-21l-5-38c-1.33-12.67-7.67-19-19-19Zm18 148c-11.33 0-16.33 7-15 21l4 29c2 12.67 8.67 19 20 19h7c12 0 17-6.33 15-19l-4-29c-1.33-14-7.67-21-19-21Z" horiz-adv-x="564" vert-adv-y="1000"/><glyph glyph-name="uni215D" unicode="⅝" d="m158 0 333 700h-96L62 0Zm152 70c-2.67-22 2.67-39.83 16-53.5C339.33 2.83 358.33-4 383-4h32c24 0 44.17 6.83 60.5 20.5S501.33 48 504 70l6 41c3.33 30.67-4 53.67-22 69 22.67 16 35.33 39 38 69l3 23c2.67 24.67-2.5 44.5-15.5 59.5S482 354 458 354h-32c-24.67 0-45.17-7.5-61.5-22.5S338.33 296.67 335 272l-3-23c-3.33-32 4.33-55 23-69-23.33-16.67-36.33-39.67-39-69ZM29 420c-2.67-22 2.67-39.67 16-53 13.33-13.33 32-20 56-20h32c24.67 0 45 7.33 61 22s25.67 34.67 29 60l7 60c4 27.33.83 49.33-9.5 66S195 580 175 580h-27c-7.33 0-15.67-2.33-25-7l7 57h103l8 70H63L38 496h76c.67 6 2.83 11 6.5 15s8.17 6 13.5 6h7c5.33 0 9.5-2 12.5-6s3.83-9 2.5-15l-7-56c-2-15.33-9-23-21-23h-7c-11.33 0-16 6.33-14 19l3 25H34ZM403 67c-11.33 0-16.33 6.33-15 19l5 38c1.33 14 8 21 20 21h7c11.33 0 16.33-7 15-21l-5-38c-1.33-12.67-7.67-19-19-19Zm19 148c-12 0-17 7-15 21l4 29c2 12.67 8.33 19 19 19h8c12 0 17-6.33 15-19l-4-29c-2-14-8.67-21-20-21Z" horiz-adv-x="560" vert-adv-y="1000"/><glyph glyph-name="uni215E" unicode="⅞" d="m136 0 333 700h-95L40 0Zm153 70c-2.67-22 2.67-39.83 16-53.5C318.33 2.83 337.33-4 362-4h32c24 0 44 6.83 60 20.5S479.67 48 483 70l5 41c4 29.33-3.33 52.33-22 69 22 14.67 35 37.67 39 69l3 23c2.67 24.67-2.5 44.5-15.5 59.5S461 354 437 354h-32c-24.67 0-45.17-7.5-61.5-22.5S317.33 296.67 314 272l-3-23c-4-31.33 3.33-54.33 22-69-22-16-35-39-39-69ZM104 350l127 306 5 44H50l-8-70h103L27 350ZM382 67c-12 0-17 6.33-15 19l5 38c1.33 14 7.67 21 19 21h8c11.33 0 16.33-7 15-21l-5-38c-2-12.67-8.67-19-20-19Zm18 148c-11.33 0-16.33 7-15 21l4 29c2 12.67 8.33 19 19 19h8c12 0 17-6.33 15-19l-4-29c-1.33-14-7.67-21-19-21Z" horiz-adv-x="538" vert-adv-y="1000"/><glyph glyph-name="uni215F" unicode="⅟" d="m124 0 332 700h-95L28 0Zm-11 594L83 350h76l43 350h-70c-2-18-10.17-32.5-24.5-43.5S75 640 53 640l-6-46Z" horiz-adv-x="413" vert-adv-y="1000"/><glyph glyph-name="uni2189" unicode="↉" d="M69 0h97l332 700h-95ZM31 432c-2.67-25.33 2.5-45.83 15.5-61.5 13-15.67 31.83-23.5 56.5-23.5h31c24.67 0 45.17 7.83 61.5 23.5s26.17 36.17 29.5 61.5l23 187c3.33 25.33-1.5 45.83-14.5 61.5-13 15.67-31.83 23.5-56.5 23.5h-31c-24.67 0-45.33-7.83-62-23.5S57.33 644.33 54 619ZM315 70c-2.67-22 2.67-39.83 16-53.5C344.33 2.83 363-4 387-4h32c24 0 44 6.83 60 20.5S504.67 48 508 70l5 38c4 31.33-3.33 54.33-22 69 22 16 34.67 38.67 38 68l4 27c3.33 24.67-1.5 44.5-14.5 59.5S486.67 354 462 354h-32c-24 0-44.17-7.5-60.5-22.5S343.33 296.67 340 272l-5-41h75l4 27c2 17.33 8.67 26 20 26h7c12 0 17-8.67 15-26l-3-26c-2-13.33-9-20-21-20h-26l-8-70h26c12 0 17-7.33 15-22l-4-34c-1.33-12.67-8-19-20-19h-7c-12 0-17 6.33-15 19l3 25h-76ZM122 417c-11.33 0-16 7-14 21l21 174c2 14.67 8.67 22 20 22h8c11.33 0 16-7.33 14-22l-21-174c-2-14-8.67-21-20-21Z" horiz-adv-x="564" vert-adv-y="1000"/><glyph glyph-name="uni2190" unicode="←" d="m20 350 219-138-6 93h241v90H233l6 93Z" horiz-adv-x="494" vert-adv-y="1000"/><glyph glyph-name="uni2191" unicode="↑" d="M202 364V123h90v241l93-6-138 219-138-219Z" horiz-adv-x="494" vert-adv-y="1000"/><glyph glyph-name="uni2192" unicode="→" d="M20 305h241l-6-93 219 138-219 138 6-93H20Z" horiz-adv-x="494" vert-adv-y="1000"/><glyph glyph-name="uni2193" unicode="↓" d="m247 123 138 219-93-6v241h-90V336l-93 6Z" horiz-adv-x="494" vert-adv-y="1000"/><glyph glyph-name="uni2196" unicode="↖" d="m86 511 58-254 61 71 170-170 64 64-170 170 71 61Z" horiz-adv-x="494" vert-adv-y="1000"/><glyph glyph-name="uni2197" unicode="↗" d="m150 158 171 170 61-71 57 254-253-58 71-61L86 222Z" horiz-adv-x="494" vert-adv-y="1000"/><glyph glyph-name="uni2198" unicode="↘" d="m86 447 171-171-71-61 253-57-57 253-61-71-171 171Z" horiz-adv-x="494" vert-adv-y="1000"/><glyph glyph-name="uni2199" unicode="↙" d="m86 158 254 57-71 61 170 171-64 64-170-171-61 71Z" horiz-adv-x="494" vert-adv-y="1000"/><glyph glyph-name="uni2202" unicode="∂" d="M0 106c-4.67-33.33 1.67-60 19-80S61.33-4 94-4h55c33.33 0 61.67 9.67 85 29s37.33 45 42 77l66 471c6.67 44-1 79.5-23 106.5S265.33 720 224 720H101l-13-99h105c14 0 24.67-5 32-15 7.33-10 10.33-23.33 9-40l-17-106c-9.33 16-28.33 24-57 24h-2c-30 0-56.17-10.17-78.5-30.5S43.67 406.67 39 374Zm127-12c-12.67 0-19 6.67-19 20l37 252c1.33 13.33 8.67 20 22 20h20c13.33 0 19.33-6.67 18-20l-37-252c0-13.33-7-20-21-20Z" horiz-adv-x="333" vert-adv-y="1000"/><glyph glyph-name="uni2205" unicode="∅" d="M44 350c0-53.33 10.83-103.67 32.5-151s51.83-88 90.5-122l-64-91h101l30 44C288.67.67 346.67-14 408-14c100 0 185.5 35.5 256.5 106.5S771 249.33 771 350c0 53.33-10.83 103.5-32.5 150.5S686.67 588 648 622l64 92H611l-30-44c-54.67 29.33-112.33 44-173 44-100.67 0-186.5-35.67-257.5-107S44 450 44 350Zm552 198c56.67-54.67 85-120.67 85-198 0-75.33-26.67-139.83-80-193.5C547.67 102.83 483.33 76 408 76c-42 0-82.33 9.67-121 29ZM134 350c0 75.33 26.83 139.83 80.5 193.5C268.17 597.17 332.67 624 408 624c40.67 0 81-9.67 121-29L219 152c-56.67 55.33-85 121.33-85 198Z" horiz-adv-x="815" vert-adv-y="1000"/><glyph glyph-name="uni220F" unicode="∏" d="M35-100h108v710h70v-710h107v800H35Z" horiz-adv-x="355" vert-adv-y="1000"/><glyph glyph-name="uni2211" unicode="∑" d="m30 619 129-320L30-19v-81h283v99H151l118 300-118 302h162v99H30Z" horiz-adv-x="323" vert-adv-y="1000"/><glyph glyph-name="uni2212" unicode="−" d="M30 305h275v90H30Z" horiz-adv-x="335" vert-adv-y="1000"/><glyph glyph-name="uni221A" unicode="√" d="m25 132 59 40 65-272h91l178 850h-89L197 122c-5.33-24-8.67-54.33-10-91h-2c1.33 32-.67 61.67-6 89l-36 194-156-105Z" horiz-adv-x="380" vert-adv-y="1000"/><glyph glyph-name="uni222B" unicode="∫" d="M9-1v-99h50c34 0 61.33 10.33 82 31s31 48 31 82v616c0 14.67 7.33 22 22 22h33v99h-50c-34 0-61.33-10.33-82-31s-31-47.67-31-81V21C64 6.33 56.67-1 42-1Z" horiz-adv-x="236" vert-adv-y="1000"/><glyph glyph-name="uni2248" unicode="≈" d="M102 218c0 25.33 7.33 38 22 38 6 0 13.5-4 22.5-12s20.83-16.17 35.5-24.5c14.67-8.33 31.67-12.5 51-12.5 34 0 61.17 11.5 81.5 34.5S345 295 345 333h-79c0-11.33-2.67-20.5-8-27.5S245.67 295 237 295c-7.33 0-15.83 4.17-25.5 12.5S189.67 324 175 332c-14.67 8-31.67 12-51 12-33.33 0-59.83-11.5-79.5-34.5S15 256 15 218Zm-8 149c0 10.67 2.67 19.67 8 27 5.33 7.33 11.67 11 19 11s15.67-4.17 25-12.5 21.33-16.67 36-25c14.67-8.33 31.67-12.5 51-12.5 34 0 61.17 11.5 81.5 34.5S345 443 345 481h-88c0-24.67-7.33-37-22-37-6.67 0-14.67 4-24 12s-21.33 16-36 24c-14.67 8-31.67 12-51 12-33.33 0-59.83-11.33-79.5-34S15 405 15 367Z" horiz-adv-x="358" vert-adv-y="1000"/><glyph glyph-name="uni2260" unicode="≠" d="M30 230h56l-24-69h76l25 69h142v90H195l22 60h88v90h-56l24 69h-76l-25-69H30v-90h110l-22-60H30Z" horiz-adv-x="335" vert-adv-y="1000"/><glyph glyph-name="uni2264" unicode="≤" d="m20 388 285-165v104l-147 79 147 80v103L20 425Zm285-277v90H30v-90Z" horiz-adv-x="335" vert-adv-y="1000"/><glyph glyph-name="uni2265" unicode="≥" d="M178 406 30 327V223l285 165v37L30 589V486ZM30 201v-90h275v90Z" horiz-adv-x="335" vert-adv-y="1000"/><glyph glyph-name="uni23F4" unicode="⏴" d="M268 212v277L49 350Z" horiz-adv-x="317" vert-adv-y="1000"/><glyph glyph-name="uni23F5" unicode="⏵" d="M49 489V212l219 139Z" horiz-adv-x="317" vert-adv-y="1000"/><glyph glyph-name="uni23F6" unicode="⏶" d="M20 241h277L158 460Z" horiz-adv-x="317" vert-adv-y="1000"/><glyph glyph-name="uni23F7" unicode="⏷" d="M297 460H20l138-219Z" horiz-adv-x="317" vert-adv-y="1000"/><glyph glyph-name="uni2460" unicode="①" d="M10 185C2.67 128.33 13.67 82.5 43 47.5S114.67-5 170-5h72c55.33 0 102.17 17.5 140.5 52.5S443.33 128.33 450 185l40 330c7.33 56.67-3.67 102.5-33 137.5S385.33 705 330 705h-72c-54.67 0-101.17-17.33-139.5-52S57.33 572.33 50 515ZM180 72c-31.33 0-55.17 10.33-71.5 31S86.33 151 91 185l41 330c4 34 16.67 61.33 38 82s47.33 31 78 31h72c31.33 0 55.17-10.33 71.5-31s22.17-48 17.5-82l-40-330c-4.67-34-17.67-61.33-39-82s-47.33-31-78-31Zm-13 347h65l-30-244h76l42 350h-69c-2-18-10.17-32.5-24.5-43.5S194 465 172 465Z" horiz-adv-x="500" vert-adv-y="1000"/><glyph glyph-name="uni2461" unicode="②" d="M10 185C2.67 128.33 13.67 82.5 43 47.5S114.67-5 170-5h72c55.33 0 102.17 17.5 140.5 52.5S443.33 128.33 450 185l40 330c7.33 56.67-3.67 102.5-33 137.5S385.33 705 330 705h-72c-54.67 0-101.17-17.33-139.5-52S57.33 572.33 50 515ZM180 72c-31.33 0-55.17 10.33-71.5 31S86.33 151 91 185l41 330c4 34 16.67 61.33 38 82s47.33 31 78 31h72c31.33 0 55.17-10.33 71.5-31s22.17-48 17.5-82l-40-330c-4.67-34-17.67-61.33-39-82s-47.33-31-78-31Zm145 99 9 70H214c2 9.33 8 17 18 23l52 35c17.33 10 32 23.83 44 41.5s19.33 36.17 22 55.5l6 46c2.67 24.67-2.33 44.5-15 59.5S309.67 524 285 524h-32c-24 0-44.33-7.5-61-22.5s-26.33-34.83-29-59.5l-6-53h75l5 40c2 16.67 8.67 25 20 25h7c12 0 17-8.33 15-25l-5-42c-2-12.67-8.33-22-19-28l-52-34c-17.33-10-32.17-23.83-44.5-41.5-12.33-17.67-19.83-35.83-22.5-54.5l-7-58Z" horiz-adv-x="500" vert-adv-y="1000"/><glyph glyph-name="uni2462" unicode="③" d="M10 185C2.67 128.33 13.67 82.5 43 47.5S114.67-5 170-5h72c55.33 0 102.17 17.5 140.5 52.5S443.33 128.33 450 185l40 330c7.33 56.67-3.67 102.5-33 137.5S385.33 705 330 705h-72c-54.67 0-101.17-17.33-139.5-52S57.33 572.33 50 515ZM180 72c-31.33 0-55.17 10.33-71.5 31S86.33 151 91 185l41 330c4 34 16.67 61.33 38 82s47.33 31 78 31h72c31.33 0 55.17-10.33 71.5-31s22.17-48 17.5-82l-40-330c-4.67-34-17.67-61.33-39-82s-47.33-31-78-31Zm-41 173c-2.67-22 2.5-39.67 15.5-53 13-13.33 31.5-20 55.5-20h32c24.67 0 45 6.67 61 20s25.67 31 29 53l4 38c4 30.67-3.33 53.67-22 69 22 14.67 35 37.33 39 68l3 27c3.33 24.67-1.33 44.5-14 59.5S310.67 529 286 529h-32c-24 0-44.33-7.5-61-22.5s-26.67-34.83-30-59.5l-5-41h76l3 27c2 17.33 9 26 21 26h7c11.33 0 16-8.67 14-26l-3-26c-1.33-13.33-8-20-20-20h-26l-9-70h26c12 0 17.33-7.33 16-22l-4-34c-2-12.67-8.67-19-20-19h-7c-12 0-17.33 6.33-16 19l4 25h-76Z" horiz-adv-x="500" vert-adv-y="1000"/><glyph glyph-name="uni2463" unicode="④" d="M10 185C2.67 128.33 13.67 82.5 43 47.5S114.67-5 170-5h72c55.33 0 102.17 17.5 140.5 52.5S443.33 128.33 450 185l40 330c7.33 56.67-3.67 102.5-33 137.5S385.33 705 330 705h-72c-54.67 0-101.17-17.33-139.5-52S57.33 572.33 50 515ZM180 72c-31.33 0-55.17 10.33-71.5 31S86.33 151 91 185l41 330c4 34 16.67 61.33 38 82s47.33 31 78 31h72c31.33 0 55.17-10.33 71.5-31s22.17-48 17.5-82l-40-330c-4.67-34-17.67-61.33-39-82s-47.33-31-78-31Zm-56 168h117l-8-65h76l8 65h26l9 69h-27l26 216H244L133 309Zm77 69 41 84c14 28 26 57 36 87h2c-10.67-32.67-17.67-62.67-21-90l-10-81Z" horiz-adv-x="500" vert-adv-y="1000"/><glyph glyph-name="uni2464" unicode="⑤" d="M10 185C2.67 128.33 13.67 82.5 43 47.5S114.67-5 170-5h72c55.33 0 102.17 17.5 140.5 52.5S443.33 128.33 450 185l40 330c7.33 56.67-3.67 102.5-33 137.5S385.33 705 330 705h-72c-54.67 0-101.17-17.33-139.5-52S57.33 572.33 50 515ZM180 72c-31.33 0-55.17 10.33-71.5 31S86.33 151 91 185l41 330c4 34 16.67 61.33 38 82s47.33 31 78 31h72c31.33 0 55.17-10.33 71.5-31s22.17-48 17.5-82l-40-330c-4.67-34-17.67-61.33-39-82s-47.33-31-78-31Zm-38 173c-2.67-22 2.67-39.67 16-53 13.33-13.33 32-20 56-20h32c24.67 0 45 7.33 61 22s25.67 34.67 29 60l8 60c3.33 27.33 0 49.33-10 66s-25 25-45 25h-27c-8.67 0-17.33-2.67-26-8l7 58h102l9 70H176l-25-204h76v1c2.67 13.33 9 20 19 20h8c12 0 17.33-7 16-21l-8-56c-1.33-15.33-8-23-20-23h-7c-12 0-17 6.33-15 19l3 25h-76Z" horiz-adv-x="500" vert-adv-y="1000"/><glyph glyph-name="uni2465" unicode="⑥" d="M10 185C2.67 128.33 13.67 82.5 43 47.5S114.67-5 170-5h72c55.33 0 102.17 17.5 140.5 52.5S443.33 128.33 450 185l40 330c7.33 56.67-3.67 102.5-33 137.5S385.33 705 330 705h-72c-54.67 0-101.17-17.33-139.5-52S57.33 572.33 50 515ZM180 72c-31.33 0-55.17 10.33-71.5 31S86.33 151 91 185l41 330c4 34 16.67 61.33 38 82s47.33 31 78 31h72c31.33 0 55.17-10.33 71.5-31s22.17-48 17.5-82l-40-330c-4.67-34-17.67-61.33-39-82s-47.33-31-78-31Zm-37 170c-2.67-22 2.5-39.67 15.5-53 13-13.33 31.83-20 56.5-20h32c24 0 44.33 7.5 61 22.5s26.33 35.17 29 60.5l6 46c3.33 26.67-.17 48.5-10.5 65.5S307.33 389 288 389h-26c-9.33 0-18-3-26-9l6 51c2 16.67 8.67 25 20 25h8c11.33 0 16-8.33 14-25l-4-25h76l5 38c3.33 24.67-1.5 44.5-14.5 59.5S314.67 526 290 526h-31c-24.67 0-45.33-7.5-62-22.5s-26.67-34.83-30-59.5Zm92-2c-11.33 0-16.33 6.33-15 19l6 45c2 14 8.67 21 20 21h8c11.33 0 16-7 14-21l-5-42c-2-14.67-8.67-22-20-22Z" horiz-adv-x="500" vert-adv-y="1000"/><glyph glyph-name="uni2466" unicode="⑦" d="M10 185C2.67 128.33 13.67 82.5 43 47.5S114.67-5 170-5h72c55.33 0 102.17 17.5 140.5 52.5S443.33 128.33 450 185l40 330c7.33 56.67-3.67 102.5-33 137.5S385.33 705 330 705h-72c-54.67 0-101.17-17.33-139.5-52S57.33 572.33 50 515ZM180 72c-31.33 0-55.17 10.33-71.5 31S86.33 151 91 185l41 330c4 34 16.67 61.33 38 82s47.33 31 78 31h72c31.33 0 55.17-10.33 71.5-31s22.17-48 17.5-82l-40-330c-4.67-34-17.67-61.33-39-82s-47.33-31-78-31Zm-20 103h77l125 306 6 44H182l-8-70h103Z" horiz-adv-x="500" vert-adv-y="1000"/><glyph glyph-name="uni2467" unicode="⑧" d="M10 185C2.67 128.33 13.67 82.5 43 47.5S114.67-5 170-5h72c55.33 0 102.17 17.5 140.5 52.5S443.33 128.33 450 185l40 330c7.33 56.67-3.67 102.5-33 137.5S385.33 705 330 705h-72c-54.67 0-101.17-17.33-139.5-52S57.33 572.33 50 515ZM180 72c-31.33 0-55.17 10.33-71.5 31S86.33 151 91 185l41 330c4 34 16.67 61.33 38 82s47.33 31 78 31h72c31.33 0 55.17-10.33 71.5-31s22.17-48 17.5-82l-40-330c-4.67-34-17.67-61.33-39-82s-47.33-31-78-31Zm-40 173c-2.67-22 2.5-39.67 15.5-53 13-13.33 31.83-20 56.5-20h32c24 0 44.33 6.67 61 20s26.33 31 29 53l4 41c4 30.67-3.33 53.67-22 69 22 14.67 35 37.67 39 69l3 23c3.33 24.67-1.5 44.5-14.5 59.5S311.67 529 287 529h-31c-24.67 0-45.33-7.5-62-22.5s-26.67-34.83-30-59.5l-3-23c-4-30.67 3.33-53.67 22-69-22-16-35-39-39-69Zm92-3c-12 0-17 6.33-15 19l5 38c2 14 8.67 21 20 21h8c11.33 0 16-7 14-21l-5-38c-2-12.67-8.33-19-19-19Zm18 148c-11.33 0-16 7-14 21l3 29c2 12.67 8.67 19 20 19h8c11.33 0 16-6.33 14-19l-3-29c-2-14-8.67-21-20-21Z" horiz-adv-x="500" vert-adv-y="1000"/><glyph glyph-name="uni2468" unicode="⑨" d="M10 185C2.67 128.33 13.67 82.5 43 47.5S114.67-5 170-5h72c55.33 0 102.17 17.5 140.5 52.5S443.33 128.33 450 185l40 330c7.33 56.67-3.67 102.5-33 137.5S385.33 705 330 705h-72c-54.67 0-101.17-17.33-139.5-52S57.33 572.33 50 515ZM180 72c-31.33 0-55.17 10.33-71.5 31S86.33 151 91 185l41 330c4 34 16.67 61.33 38 82s47.33 31 78 31h72c31.33 0 55.17-10.33 71.5-31s22.17-48 17.5-82l-40-330c-4.67-34-17.67-61.33-39-82s-47.33-31-78-31Zm-39 176c-2.67-24.67 2.5-44.5 15.5-59.5S188 166 212 166h32c24.67 0 45.17 7.5 61.5 22.5s25.83 34.83 28.5 59.5l26 203c2 21.33-3.5 38.67-16.5 52-13 13.33-31.83 20-56.5 20h-31c-24.67 0-45.33-7.5-62-22.5s-26.33-34.83-29-59.5l-6-46c-3.33-27.33 0-49.33 10-66s25-25 45-25h27c8.67 0 17.33 2.67 26 8l-6-50c-2-16.67-9-25-21-25h-7c-11.33 0-16 8.33-14 25l3 24h-76Zm108 119c-11.33 0-16.33 7-15 21l6 42c2 16 8.67 24 20 24h7c12 0 17-7 15-21l-6-45v-2c-2-12.67-8.67-19-20-19Z" horiz-adv-x="500" vert-adv-y="1000"/><glyph glyph-name="uni24EA" unicode="⓪" d="M10 185C2.67 128.33 13.67 82.5 43 47.5S114.67-5 170-5h72c55.33 0 102.17 17.5 140.5 52.5S443.33 128.33 450 185l40 330c7.33 56.67-3.67 102.5-33 137.5S385.33 705 330 705h-72c-54.67 0-101.17-17.33-139.5-52S57.33 572.33 50 515ZM180 72c-31.33 0-55.17 10.33-71.5 31S86.33 151 91 185l41 330c4 34 16.67 61.33 38 82s47.33 31 78 31h72c31.33 0 55.17-10.33 71.5-31s22.17-48 17.5-82l-40-330c-4.67-34-17.67-61.33-39-82s-47.33-31-78-31Zm-39 185c-2.67-25.33 2.5-45.83 15.5-61.5 13-15.67 31.83-23.5 56.5-23.5h31c24.67 0 45.33 7.83 62 23.5s26.33 36.17 29 61.5l24 187c2.67 25.33-2.5 45.83-15.5 61.5-13 15.67-31.5 23.5-55.5 23.5h-31c-24.67 0-45.5-7.83-62.5-23.5S167.67 469.33 165 444Zm92-15c-11.33 0-16.33 7-15 21l22 174c1.33 14.67 8 22 20 22h8c10.67 0 15.33-7.33 14-22l-22-174c-1.33-14-7.67-21-19-21Z" horiz-adv-x="500" vert-adv-y="1000"/><glyph glyph-name="uni25CA" unicode="◊" d="M30 350 185 0h62l155 350-155 350h-62Zm272 0-86-214-86 214 86 214Z" horiz-adv-x="432" vert-adv-y="1000"/><glyph glyph-name="uniFB00" unicode="ﬀ" d="M15 390h49L16 0h107l48 390h92L215 0h107l48 390h73l11 90h-73l14 119c2 14.67 10.67 22 26 22h50l12 99h-68c-33.33 0-61.5-10.33-84.5-31s-36.83-47.67-41.5-81l-15-128h-92l14 119c3.33 14.67 12 22 26 22h41l12 99h-59c-33.33 0-61.5-10.33-84.5-31S95 641.33 91 608L75 480H25Z" horiz-adv-x="429" vert-adv-y="1000"/><glyph glyph-name="uniFB01" unicode="ﬁ" d="m244 390 11 90h-73l14 119c3.33 14.67 12 22 26 22h50l12 99h-68c-33.33 0-61.5-10.33-84.5-31S95 641.33 91 608L75 480H25l-10-90h49L16 0h107l48 390ZM330 0l59 480H281L222 0Zm-38 573h108l15 121H307Z" horiz-adv-x="403" vert-adv-y="1000"/><glyph glyph-name="uniFB02" unicode="ﬂ" d="m244 390 11 90h-73l14 119c3.33 14.67 12 22 26 22h50l12 99h-68c-33.33 0-61.5-10.33-84.5-31S95 641.33 91 608L75 480H25l-10-90h49L16 0h107l48 390ZM222 0h108l88 720H310Z" horiz-adv-x="403" vert-adv-y="1000"/></font>
</defs>
</svg>
