<svg><defs><font id="Spaceland-Eight" horiz-adv-x="825" vert-adv-y="825"><font-face font-family="Spaceland Eight" font-weight="400" ascent="1010" descent="-310"/><glyph glyph-name="uni21" unicode="!" d="M27 0h82v103H27Zm7 183h68l7 517H27Z" horiz-adv-x="136" vert-adv-y="1000"/><glyph glyph-name="uni22" unicode="&quot;" d="m13 700 7-255h62l7 255Zm110 0 7-255h61l7 255Z" horiz-adv-x="211" vert-adv-y="1000"/><glyph glyph-name="uni23" unicode="#" d="M322 198v69h-55l14 166h62v69h-56l17 198h-69l-18-198h-60l17 198h-70L87 502H26v-69h55L67 267H5v-69h56L44 0h69l17 198h61L174 0h69l18 198Zm-186 69 15 166h60l-14-166Z" horiz-adv-x="348" vert-adv-y="1000"/><glyph glyph-name="uni24" unicode="$" d="m70 382 101-112c8-6.67 12-15.33 12-26V99c0-13.33-6.67-20-20-20h-30c-13.33 0-20 6.67-20 20v130H25V93c0-28 8.17-50.67 24.5-68S87.67-1.67 115-3v-93h64v93c27.33.67 49.5 9.67 66.5 27S271 64.33 271 93v148c0 16.67-4 33.5-12 50.5S240.33 322 227 332L125 444c-8 6.67-12 15.33-12 26v131c0 13.33 6.67 20 20 20h30c13.33 0 20-6.67 20-20V472h88v135c0 28.67-8.5 51.67-25.5 69s-39.17 26.33-66.5 27v93h-64v-93c-27.33-1.33-49.17-10.67-65.5-28S25 635 25 607V473c0-17.33 4.17-34.33 12.5-51s19.17-30 32.5-40Z" horiz-adv-x="296" vert-adv-y="1000"/><glyph glyph-name="uni25" unicode="%" d="M18 445c0-30 8.5-54.17 25.5-72.5S83.33 345 112 345h16c28.67 0 51.67 9.17 69 27.5s26 42.5 26 72.5v159c0 29.33-8.67 53.17-26 71.5S156.67 703 128 703h-16c-28.67 0-51.5-9.17-68.5-27.5S18 633.33 18 604ZM291 96c0-29.33 8.67-53.17 26-71.5S357.33-3 386-3h16c28.67 0 51.67 9.17 69 27.5s26 42.17 26 71.5v160c0 29.33-8.67 53.17-26 71.5S430.67 355 402 355h-16c-28.67 0-51.67-9.17-69-27.5s-26-42.17-26-71.5ZM179 0l229 700h-73L105 0Zm185 259c0 20 8.33 30 25 30h10c16.67 0 25-10 25-30V93c0-20-8.33-30-25-30h-10c-16.67 0-25 10-25 30ZM90 607c0 20 8.33 30 25 30h10c16.67 0 25-10 25-30V441c0-20-8.33-30-25-30h-10c-16.67 0-25 10-25 30Z" horiz-adv-x="514" vert-adv-y="1000"/><glyph glyph-name="uni26" unicode="&amp;" d="M30 607V458c0-36.67 12.33-64 37-82-24.67-18-37-45.33-37-82V84c0-26.67 8.67-47.83 26-63.5C73.33 4.83 96.33-3 125-3h34c28.67 0 51.67 7.83 69 23.5s26 36.83 26 63.5v254h42v76H137c-16.67 0-25 10-25 30v150c0 22 8.33 33 25 33h10c16.67 0 25-11 25-33V488h82v119c0 28.67-8.67 51.83-26 69.5S187.67 703 159 703h-34c-28.67 0-51.67-8.83-69-26.5S30 635.67 30 607Zm82-299c0 20 8.33 30 25 30h35V101c0-18.67-8.33-28-25-28h-10c-16.67 0-25 9.33-25 28Z" horiz-adv-x="301" vert-adv-y="1000"/><glyph glyph-name="uni27" unicode="'" d="M20 445h62l7 255H13Z" horiz-adv-x="102" vert-adv-y="1000"/><glyph glyph-name="uni28" unicode="(" d="M128 750c-29.33 0-53-9.33-71-28s-27-43.67-27-75V3c0-31.33 9-56.33 27-75s41.67-28 71-28h27v69h-27c-8.67 0-15.5 3.17-20.5 9.5S100-7 100 3v644c0 10 2.5 18.17 7.5 24.5 5 6.33 11.83 9.5 20.5 9.5h27v69Z" horiz-adv-x="160" vert-adv-y="1000"/><glyph glyph-name="uni29" unicode=")" d="M5-100h26c29.33 0 53.17 9.5 71.5 28.5S130-27.67 130 3v644c0 30.67-9.17 55.5-27.5 74.5S60.33 750 31 750H5v-69h26c8.67 0 15.67-3.17 21-9.5s8-14.5 8-24.5V3c0-10-2.67-18.17-8-24.5-5.33-6.33-12.33-9.5-21-9.5H5Z" horiz-adv-x="160" vert-adv-y="1000"/><glyph glyph-name="uni2a" unicode="*" d="m7 606 71-38-71-39 38-51 45 52-14-84h64l-13 83 44-52 38 51-70 41 69 37-37 51-44-50 13 85H76l14-85-45 50Z" horiz-adv-x="216" vert-adv-y="1000"/><glyph glyph-name="uni2b" unicode="+" d="M30 315h77v-88h70v88h77v70h-77v88h-70v-88H30Z" horiz-adv-x="284" vert-adv-y="1000"/><glyph glyph-name="uni2c" unicode="," d="M17-120h68l34 223H37Z" horiz-adv-x="146" vert-adv-y="1000"/><glyph glyph-name="uni2d" unicode="-" d="M20 235h148v70H20Z" horiz-adv-x="188" vert-adv-y="1000"/><glyph glyph-name="uni2e" unicode="." d="M27 0h82v103H27Z" horiz-adv-x="136" vert-adv-y="1000"/><glyph glyph-name="uni2f" unicode="/" d="M0-100h70l150 850h-70Z" horiz-adv-x="220" vert-adv-y="1000"/><glyph glyph-name="uni30" unicode="0" d="M125 703c-28.67 0-51.67-9.17-69-27.5S30 633.33 30 604V96c0-29.33 8.67-53.17 26-71.5S96.33-3 125-3h34c28.67 0 51.67 9.17 69 27.5s26 42.17 26 71.5v508c0 29.33-8.67 53.17-26 71.5S187.67 703 159 703Zm12-630c-16.67 0-25 10-25 30v494c0 20 8.33 30 25 30h10c16.67 0 25-10 25-30V103c0-20-8.33-30-25-30Z" horiz-adv-x="284" vert-adv-y="1000"/><glyph glyph-name="uni31" unicode="1" d="M111 569V0h82v700h-74c0-25.33-8.33-45.17-25-59.5-16.67-14.33-40.33-21.17-71-20.5v-51Z" horiz-adv-x="245" vert-adv-y="1000"/><glyph glyph-name="uni32" unicode="2" d="M252 0v76H107v104c0 10 3 19.67 9 29l101 152c21.33 26.67 32 57 32 91v155c0 28.67-8.67 51.83-26 69.5S182.67 703 154 703h-34c-28.67 0-51.67-8.83-69-26.5S25 635.67 25 607V488h82v106c0 22 8.33 33 25 33h10c16.67 0 25-11 25-33V442c0-11.33-3.33-21-10-29L57 261c-21.33-26.67-32-57-32-91V0Z" horiz-adv-x="272" vert-adv-y="1000"/><glyph glyph-name="uni33" unicode="3" d="M25 228V84c0-26.67 8.67-47.83 26-63.5C68.33 4.83 91.33-3 120-3h34c28.67 0 51.67 7.83 69 23.5s26 36.83 26 63.5v210c0 36.67-12.67 64-38 82 25.33 18 38 45.33 38 82v149c0 28.67-8.67 51.83-26 69.5S182.67 703 154 703h-34c-28.67 0-51.67-8.83-69-26.5S25 635.67 25 607V488h82v106c0 22 8.33 33 25 33h10c16.67 0 25-11 25-33V444c0-20-8.33-30-25-30h-32v-76h32c16.67 0 25-10 25-30V101c0-18.67-8.33-28-25-28h-10c-16.67 0-25 9.33-25 28v127Z" horiz-adv-x="279" vert-adv-y="1000"/><glyph glyph-name="uni34" unicode="4" d="m234 223 1 477H120L10 223v-75h143V0h82v148h36v75Zm-153 0 62 289c6 23.33 10.33 47.33 13 72h2c-3.33-36.67-5-61-5-73V223Z" horiz-adv-x="281" vert-adv-y="1000"/><glyph glyph-name="uni35" unicode="5" d="M110 338c0 20 8.33 30 25 30h11c16.67 0 25-10 25-30V105c0-21.33-8.33-32-25-32h-10c-16.67 0-25 9.33-25 28v127H29V84c0-26.67 8.67-47.83 26-63.5C72.33 4.83 95.33-3 124-3h35c28 0 50.67 9 68 27s26 41.33 26 70v238c0 32-7.17 57.67-21.5 77S198 438 174 438h-29c-12 0-23.67-4-35-12v198h125v76H28V338Z" horiz-adv-x="278" vert-adv-y="1000"/><glyph glyph-name="uni36" unicode="6" d="M30 84c0-26.67 8.67-47.83 26-63.5C73.33 4.83 96.33-3 125-3h34c28.67 0 51.67 8.83 69 26.5s26 41.17 26 70.5v225c0 31.33-7.17 56.83-21.5 76.5S199 425 175 425h-29c-11.33 0-22.67-4-34-12v181c0 22 8.33 33 25 33h10c16.67 0 25-11 25-33V488h82v119c0 28.67-8.67 51.83-26 69.5S187.67 703 159 703h-34c-28.67 0-51.67-8.83-69-26.5S30 635.67 30 607Zm107-11c-16.67 0-25 9.33-25 28v224c0 20 8.33 30 25 30h10c16.67 0 25-10 25-30V105c0-21.33-8.33-32-25-32Z" horiz-adv-x="279" vert-adv-y="1000"/><glyph glyph-name="uni37" unicode="7" d="M144 624 38 0h80l110 652v48H10v-76Z" horiz-adv-x="248" vert-adv-y="1000"/><glyph glyph-name="uni38" unicode="8" d="M67 376c-24.67-18-37-45.33-37-82V84c0-26.67 8.67-47.83 26-63.5C73.33 4.83 96.33-3 125-3h34c28.67 0 51.67 7.83 69 23.5s26 36.83 26 63.5v210c0 36.67-12.67 64-38 82 25.33 18 38 45.33 38 82v149c0 28.67-8.67 51.83-26 69.5S187.67 703 159 703h-34c-28.67 0-51.67-8.83-69-26.5S30 635.67 30 607V458c0-36.67 12.33-64 37-82Zm45-68c0 20 8.33 30 25 30h10c16.67 0 25-10 25-30V101c0-18.67-8.33-28-25-28h-10c-16.67 0-25 9.33-25 28Zm0 286c0 22 8.33 33 25 33h10c16.67 0 25-11 25-33V444c0-20-8.33-30-25-30h-10c-16.67 0-25 10-25 30Z" horiz-adv-x="284" vert-adv-y="1000"/><glyph glyph-name="uni39" unicode="9" d="M25 212V93c0-28.67 8.67-51.83 26-69.5S91.33-3 120-3h34c28.67 0 51.67 8.83 69 26.5s26 40.83 26 69.5v523c0 26.67-8.67 47.83-26 63.5-17.33 15.67-40.33 23.5-69 23.5h-34c-28.67 0-51.67-8.83-69-26.5S25 635.33 25 606V391c0-31.33 7-56.83 21-76.5S79 285 103 285h30c11.33 0 22.67 4 34 12V106c0-22-8.33-33-25-33h-10c-16.67 0-25 11-25 33v106Zm82 383c0 21.33 8.33 32 25 32h10c16.67 0 25-9.33 25-28V385c0-20-8.33-30-25-30h-10c-16.67 0-25 10-25 30Z" horiz-adv-x="279" vert-adv-y="1000"/><glyph glyph-name="uni3a" unicode=":" d="M109 377v103H27V377Zm0-377v103H27V0Z" horiz-adv-x="136" vert-adv-y="1000"/><glyph glyph-name="uni3b" unicode=";" d="M27 377h82v103H27ZM7-120h68l34 223H27Z" horiz-adv-x="136" vert-adv-y="1000"/><glyph glyph-name="uni3c" unicode="&lt;" d="M253 199v80l-129 71 129 71v80L20 366v-32Z" horiz-adv-x="284" vert-adv-y="1000"/><glyph glyph-name="uni3d" unicode="=" d="M30 380h224v70H30Zm0-60v-69h224v69Z" horiz-adv-x="284" vert-adv-y="1000"/><glyph glyph-name="uni3e" unicode="&gt;" d="M20 501v-80l130-71-130-71v-80l233 135v32Z" horiz-adv-x="284" vert-adv-y="1000"/><glyph glyph-name="uni3f" unicode="?" d="M108 472v129c0 13.33 6.67 20 20 20h30c13.33 0 20-6.67 20-20V453c0-6.67-1.67-12.67-5-18l-67-112c-3.33-6-4.67-12-4-18l9-122h68l8 96c1.33 10 4 18 8 24l48 92c15.33 21.33 23 46 23 74v138c0 28.67-8.67 51.83-26 69.5S199.33 703 170 703h-54c-29.33 0-52.67-8.83-70-26.5S20 635.67 20 607V472ZM104 0h82v103h-82Z" horiz-adv-x="288" vert-adv-y="1000"/><glyph glyph-name="uni40" unicode="@" d="M30 412V99C30 39 47.17-9.17 81.5-45.5S161.33-100 218-100h98v63H206c-31.33 0-56.83 12.83-76.5 38.5S100 60.67 100 102v309c0 38.67 9.83 69.67 29.5 93s45.5 35 77.5 35h90c32 0 57.67-10 77-30s29-46.33 29-79V178c0-40-7.67-60-23-60-14.67 0-22 14.33-22 43v269h-76v-18c-12 12-26 18-42 18h-32c-18.67 0-33.83-8-45.5-24-11.67-16-17.5-36.67-17.5-62V148c0-25.33 5.83-46 17.5-62s26.83-24 45.5-24h32c26.67 0 45.33 14 56 42 17.33-32 45-48 83-48 28.67 0 51.5 10.83 68.5 32.5S473 139.33 473 176v263c0 48.67-17.17 88-51.5 118s-79.83 45-136.5 45h-66c-56.67 0-102.33-17.33-137-52s-52-80.67-52-138Zm191-260v189c0 13.33 6.67 20 20 20h20c13.33 0 20-6.67 20-20V152c0-13.33-6.67-20-20-20h-20c-13.33 0-20 6.67-20 20Z" horiz-adv-x="503" vert-adv-y="1000"/><glyph glyph-name="uni41" unicode="A" d="M7 0h82l17 162h81L204 0h82l-81 700H88Zm106 237 30 281c2 22 3 46.33 3 73h2c0-34 1-58.33 3-73l29-281Z" horiz-adv-x="293" vert-adv-y="1000"/><glyph glyph-name="uni42" unicode="B" d="M35 0h150c28.67 0 51.83 8.17 69.5 24.5S281 62.67 281 90v195c0 37.33-16 63-48 77 28.67 16 43 41 43 75v178c0 25.33-8.83 45.83-26.5 61.5-17.67 15.67-40.83 23.5-69.5 23.5H35Zm138 323c13.33 0 20-6.67 20-20V96c0-13.33-6.67-20-20-20h-50v247Zm-5 301c13.33 0 20-6.33 20-19V419c0-13.33-6.67-20-20-20h-45v225Z" horiz-adv-x="306" vert-adv-y="1000"/><glyph glyph-name="uni43" unicode="C" d="M35 93c0-28.67 8.83-51.83 26.5-69.5S102.33-3 131-3h54c28.67 0 51.83 8.83 69.5 26.5S281 64.33 281 93v131h-88V99c0-13.33-6.67-20-20-20h-30c-13.33 0-20 6.67-20 20v502c0 13.33 6.67 20 20 20h30c13.33 0 20-6.67 20-20V472h88v135c0 28.67-8.83 51.83-26.5 69.5S213.67 703 185 703h-54c-28.67 0-51.83-8.83-69.5-26.5S35 635.67 35 607Z" horiz-adv-x="311" vert-adv-y="1000"/><glyph glyph-name="uni44" unicode="D" d="M35 0h150c28.67 0 51.83 8.67 69.5 26S281 66.67 281 96v508c0 29.33-8.83 52.67-26.5 70s-40.83 26-69.5 26H35Zm138 624c13.33 0 20-6.67 20-20V96c0-13.33-6.67-20-20-20h-50v548Z" horiz-adv-x="316" vert-adv-y="1000"/><glyph glyph-name="uni45" unicode="E" d="M227 0v76H123v236h96v76h-96v236h104v76H35V0Z" horiz-adv-x="250" vert-adv-y="1000"/><glyph glyph-name="uni46" unicode="F" d="M35 0h88v312h96v76h-96v236h104v76H35Z" horiz-adv-x="240" vert-adv-y="1000"/><glyph glyph-name="uni47" unicode="G" d="M35 93c0-28.67 8.83-51.83 26.5-69.5S102.33-3 131-3h54c28.67 0 51.83 8.83 69.5 26.5S281 64.33 281 93v276H151v-75h42V99c0-13.33-6.67-20-20-20h-30c-13.33 0-20 6.67-20 20v502c0 13.33 6.67 20 20 20h30c13.33 0 20-6.67 20-20V472h88v135c0 28.67-8.83 51.83-26.5 69.5S213.67 703 185 703h-54c-28.67 0-51.83-8.83-69.5-26.5S35 635.67 35 607Z" horiz-adv-x="311" vert-adv-y="1000"/><glyph glyph-name="uni48" unicode="H" d="M35 0h88v312h70V0h88v700h-88V388h-70v312H35Z" horiz-adv-x="316" vert-adv-y="1000"/><glyph glyph-name="uni49" unicode="I" d="M35 0h88v700H35Z" horiz-adv-x="158" vert-adv-y="1000"/><glyph glyph-name="uni4a" unicode="J" d="M15 93c0-28.67 8.83-51.83 26.5-69.5S82.33-3 111-3h54c28.67 0 51.83 8.83 69.5 26.5S261 64.33 261 93v607h-88V99c0-13.33-6.67-20-20-20h-30c-13.33 0-20 6.67-20 20v114H15Z" horiz-adv-x="296" vert-adv-y="1000"/><glyph glyph-name="uni4b" unicode="K" d="M35 700V0h88v291L196 0h85l-99 361 94 339h-85l-68-270v270Z" horiz-adv-x="286" vert-adv-y="1000"/><glyph glyph-name="uni4c" unicode="L" d="M35 0h192v76H123v624H35Z" horiz-adv-x="237" vert-adv-y="1000"/><glyph glyph-name="uni4d" unicode="M" d="M112 0v515c0 4-1 29-3 75h1c4-47.33 6.33-72.33 7-75L175 0h92l58 513c2.67 19.33 4.67 44.33 6 75h2c-2-46-3-71-3-75V0h82v700H280l-54-533c-2.67-19.33-4-44.33-4-75h-2c0 35.33-1 60.33-3 75l-55 533H30V0Z" horiz-adv-x="442" vert-adv-y="1000"/><glyph glyph-name="uni4e" unicode="N" d="M120 0v364c0 12-1.67 36.33-5 73h2c2.67-29.33 6.67-53.33 12-72L198 0h85v700h-85V334c0-12 1.67-36.33 5-73h-2c-2.67 27.33-6.33 51.33-11 72l-70 367H35V0Z" horiz-adv-x="318" vert-adv-y="1000"/><glyph glyph-name="uni4f" unicode="O" d="M131 703c-28.67 0-51.83-8.83-69.5-26.5S35 635.67 35 607V93c0-28.67 8.83-51.83 26.5-69.5S102.33-3 131-3h54c28.67 0 51.83 8.83 69.5 26.5S281 64.33 281 93v514c0 28.67-8.83 51.83-26.5 69.5S213.67 703 185 703Zm12-624c-13.33 0-20 6.67-20 20v502c0 13.33 6.67 20 20 20h30c13.33 0 20-6.67 20-20V99c0-13.33-6.67-20-20-20Z" horiz-adv-x="316" vert-adv-y="1000"/><glyph glyph-name="uni50" unicode="P" d="M35 0h88v302h62c28.67 0 51.83 8.67 69.5 26s26.5 40.67 26.5 70v206c0 29.33-8.83 52.67-26.5 70s-40.83 26-69.5 26H35Zm138 624c13.33 0 20-6.67 20-20V398c0-13.33-6.67-20-20-20h-50v246Z" horiz-adv-x="298" vert-adv-y="1000"/><glyph glyph-name="uni51" unicode="Q" d="M131 703c-28.67 0-51.83-8.83-69.5-26.5S35 635.67 35 607V93c0-26.67 7.33-48.5 22-65.5S91.67.67 117-2v-46c0-28.67 8.67-51.67 26-69s40.33-26 69-26h35v75h-22c-17.33 0-26 9-26 27v39c25.33 2.67 45.33 12.5 60 29.5 14.67 17 22 38.83 22 65.5v514c0 28.67-8.83 51.83-26.5 69.5S213.67 703 185 703Zm-8-102c0 13.33 6.67 20 20 20h30c13.33 0 20-6.67 20-20V99c0-13.33-6.67-20-20-20h-30c-13.33 0-20 6.67-20 20Z" horiz-adv-x="316" vert-adv-y="1000"/><glyph glyph-name="uni52" unicode="R" d="M35 0h88v302h32L211 0h82l-58 314c30.67 16 46 44 46 84v206c0 29.33-8.83 52.67-26.5 70s-40.83 26-69.5 26H35Zm138 624c13.33 0 20-6.67 20-20V398c0-13.33-6.67-20-20-20h-50v246Z" horiz-adv-x="305" vert-adv-y="1000"/><glyph glyph-name="uni53" unicode="S" d="M25 473c0-17.33 4.17-34.33 12.5-51s19.17-30 32.5-40l101-112c8-6.67 12-15.33 12-26V99c0-13.33-6.67-20-20-20h-30c-13.33 0-20 6.67-20 20v130H25V93c0-28.67 8.83-51.83 26.5-69.5S92.33-3 121-3h54c28.67 0 51.83 8.83 69.5 26.5S271 64.33 271 93v148c0 16.67-4 33.5-12 50.5S240.33 322 227 332L125 444c-8 6.67-12 15.33-12 26v131c0 13.33 6.67 20 20 20h30c13.33 0 20-6.67 20-20V472h88v135c0 28.67-8.83 51.83-26.5 69.5S203.67 703 175 703h-54c-28.67 0-51.83-8.83-69.5-26.5S25 635.67 25 607Z" horiz-adv-x="296" vert-adv-y="1000"/><glyph glyph-name="uni54" unicode="T" d="M5 624h77V0h89v624h77v76H5Z" horiz-adv-x="253" vert-adv-y="1000"/><glyph glyph-name="uni55" unicode="U" d="M35 93c0-28.67 8.83-51.83 26.5-69.5S102.33-3 131-3h54c28.67 0 51.83 8.83 69.5 26.5S281 64.33 281 93v607h-88V99c0-13.33-6.67-20-20-20h-30c-13.33 0-20 6.67-20 20v601H35Z" horiz-adv-x="316" vert-adv-y="1000"/><glyph glyph-name="uni56" unicode="V" d="M80 0h116l74 700h-82l-46-524c-2-14.67-3-39-3-73h-2c0 34-1 58.33-3 73L87 700H5Z" horiz-adv-x="275" vert-adv-y="1000"/><glyph glyph-name="uni57" unicode="W" d="M5 700 77 0h116l47 521c1.33 14.67 2 39 2 73h2c0-26.67 1-51 3-73L294 0h117l70 700h-81l-44-524c-1.33-14.67-2-39-2-73h-2c0 26.67-1 51-3 73l-44 524H182l-44-524c-1.33-14.67-2-39-2-73h-2c0 34-.67 58.33-2 73L87 700Z" horiz-adv-x="486" vert-adv-y="1000"/><glyph glyph-name="uni58" unicode="X" d="M5 0h85l41 194c5.33 22.67 8 46.67 8 72h2c0-25.33 2.67-49.33 8-72L190 0h85l-90 361 85 339h-85l-36-172c-5.33-23.33-8-47.67-8-73h-2c0 25.33-2.67 49.67-8 73L95 700H10l86-339Z" horiz-adv-x="280" vert-adv-y="1000"/><glyph glyph-name="uni59" unicode="Y" d="M95 261V0h88v264l89 436h-84l-42-271c-3.33-17.33-5-41.33-5-72h-2c0 27.33-2 51.33-6 72L91 700H7Z" horiz-adv-x="278" vert-adv-y="1000"/><glyph glyph-name="uni5a" unicode="Z" d="M14 63V0h200v76H98l116 561v63H14v-76h115Z" horiz-adv-x="228" vert-adv-y="1000"/><glyph glyph-name="uni5b" unicode="[" d="M158-100v69h-58v712h58v69H30v-850Z" horiz-adv-x="163" vert-adv-y="1000"/><glyph glyph-name="uni5c" unicode="\" d="m0 750 150-850h70L70 750Z" horiz-adv-x="220" vert-adv-y="1000"/><glyph glyph-name="uni5d" unicode="]" d="M5-100h128v850H5v-69h59V-31H5Z" horiz-adv-x="163" vert-adv-y="1000"/><glyph glyph-name="uni5e" unicode="^" d="M17 463h73l49 126 48-126h74L155 700h-32Z" horiz-adv-x="284" vert-adv-y="1000"/><glyph glyph-name="uni5f" unicode="_" d="M0-120h167v70H0Z" horiz-adv-x="167" vert-adv-y="1000"/><glyph glyph-name="uni60" unicode="`" d="M117 854H30l66-137h63Z" horiz-adv-x="189" vert-adv-y="1000"/><glyph glyph-name="uni61" unicode="a" d="M30 86c0-26.67 6-48.17 18-64.5S76-3 96-3h33c18 0 32.67 6.67 44 20V0h82v394c0 26.67-8.33 48.17-25 64.5S191.67 483 165 483h-44c-26.67 0-48.33-8.17-65-24.5S31 420.67 31 394v-67h82v57c0 6 1.83 11.33 5.5 16s8.5 7 14.5 7h20c6 0 10.83-2.33 14.5-7s5.5-10 5.5-16V268c-12 14-26.67 21-44 21H96c-20 0-36-8.17-48-24.5S30 226.33 30 199Zm82 107c0 13.33 6.67 20 20 20h20c13.33 0 20-6.67 20-20V93c0-13.33-6.67-20-20-20h-20c-13.33 0-20 6.67-20 20Z" horiz-adv-x="285" vert-adv-y="1000"/><glyph glyph-name="uni62" unicode="b" d="M30 0h82v17c11.33-13.33 26-20 44-20h33c20 0 36 8.17 48 24.5s18 37.83 18 64.5v308c0 26.67-6 48.17-18 64.5S209 483 189 483h-33c-18 0-32.67-6.67-44-20v257H30Zm83 387c0 13.33 6.67 20 20 20h20c13.33 0 20-6.67 20-20V93c0-13.33-6.67-20-20-20h-20c-13.33 0-20 6.67-20 20Z" horiz-adv-x="285" vert-adv-y="1000"/><glyph glyph-name="uni63" unicode="c" d="M30 394V86c0-26.67 8.33-48.17 25-64.5S93.33-3 120-3h44c26.67 0 48.33 8.17 65 24.5s25 37.83 25 64.5v93h-82V93c0-13.33-6.67-20-20-20h-20c-13.33 0-20 6.67-20 20v294c0 13.33 6.67 20 20 20h20c13.33 0 20-6.67 20-20v-86h82v93c0 26.67-8.33 48.17-25 64.5S190.67 483 164 483h-44c-26.67 0-48.33-8.17-65-24.5S30 420.67 30 394Z" horiz-adv-x="274" vert-adv-y="1000"/><glyph glyph-name="uni64" unicode="d" d="M96 483c-20 0-36-8.17-48-24.5S30 420.67 30 394V86c0-26.67 6-48.17 18-64.5S76-3 96-3h33c18 0 32.67 6.67 44 20V0h82v720h-82V463c-11.33 13.33-26 20-44 20Zm16-96c0 13.33 6.67 20 20 20h20c13.33 0 20-6.67 20-20V93c0-13.33-6.67-20-20-20h-20c-13.33 0-20 6.67-20 20Z" horiz-adv-x="285" vert-adv-y="1000"/><glyph glyph-name="uni65" unicode="e" d="M30 394V86c0-26.67 8.33-48.17 25-64.5S93.33-3 120-3h44c26.67 0 48.33 8.17 65 24.5s25 37.83 25 64.5v75h-82V93c0-13.33-6.67-20-20-20h-20c-13.33 0-20 6.67-20 20v113h142v188c0 26.67-8.33 48.17-25 64.5S190.67 483 164 483h-44c-26.67 0-48.33-8.17-65-24.5S30 420.67 30 394Zm82-7c0 13.33 6.67 20 20 20h20c13.33 0 20-6.67 20-20V276h-60Z" horiz-adv-x="282" vert-adv-y="1000"/><glyph glyph-name="uni66" unicode="f" d="M205 411v69h-67v137c0 8 2.5 14.5 7.5 19.5s11.83 7.5 20.5 7.5h39v76h-52c-28.67 0-52-9-70-27s-27-41.33-27-70V480H8v-69h48V0h82v411Z" horiz-adv-x="214" vert-adv-y="1000"/><glyph glyph-name="uni67" unicode="g" d="M96 483c-20 0-36-8.17-48-24.5S30 420.67 30 394V86c0-26.67 6-48.17 18-64.5S76-3 96-3h33c18 0 32.67 6.67 44 20V-97c0-13.33-6.67-20-20-20h-19c-13.33 0-20 6.67-20 20v49H32v-56c0-26.67 8.17-48.17 24.5-64.5S94.33-193 121-193h44c26.67 0 48.33 8.17 65 24.5s25 37.83 25 64.5v584h-82v-17c-11.33 13.33-26 20-44 20Zm16-96c0 13.33 6.67 20 20 20h20c13.33 0 20-6.67 20-20V93c0-13.33-6.67-20-20-20h-20c-13.33 0-20 6.67-20 20Z" horiz-adv-x="285" vert-adv-y="1000"/><glyph glyph-name="uni68" unicode="h" d="M30 720V0h82v387c0 13.33 6.67 20 20 20h20c13.33 0 20-6.67 20-20V0h82v394c0 26.67-6 48.17-18 64.5S208 483 188 483h-33c-17.33 0-31.67-6.33-43-19v256Z" horiz-adv-x="284" vert-adv-y="1000"/><glyph glyph-name="uni69" unicode="i" d="M30 0h82v480H30Zm0 681V578h82v103Z" horiz-adv-x="142" vert-adv-y="1000"/><glyph glyph-name="uni6a" unicode="j" d="M9-190c31.33 0 56.33 9.33 75 28s28 43.67 28 75v567H30V-81c0-10-3-18-9-24s-14.33-9-25-9h-24v-76Zm21 871V578h82v103Z" horiz-adv-x="142" vert-adv-y="1000"/><glyph glyph-name="uni6b" unicode="k" d="M30 720V0h82v194L183 0h85l-94 245 91 235h-85l-68-185v425Z" horiz-adv-x="273" vert-adv-y="1000"/><glyph glyph-name="uni6c" unicode="l" d="M30 0h82v720H30Z" horiz-adv-x="142" vert-adv-y="1000"/><glyph glyph-name="uni6d" unicode="m" d="M30 0h82v387c0 13.33 6.67 20 20 20h20c13.33 0 20-6.67 20-20V0h82v387c0 13.33 6.67 20 20 20h20c13.33 0 20-6.67 20-20V0h82v394c0 26.67-6.83 48.17-20.5 64.5S343.67 483 321 483h-38c-20.67 0-37.67-6.67-51-20-11.33 13.33-26 20-44 20h-33c-17.33 0-31.67-6.33-43-19v16H30Z" horiz-adv-x="426" vert-adv-y="1000"/><glyph glyph-name="uni6e" unicode="n" d="M30 480V0h82v387c0 13.33 6.67 20 20 20h20c13.33 0 20-6.67 20-20V0h82v394c0 26.67-6 48.17-18 64.5S208 483 188 483h-33c-17.33 0-31.67-6.33-43-19v16Z" horiz-adv-x="284" vert-adv-y="1000"/><glyph glyph-name="uni6f" unicode="o" d="M120 483c-26.67 0-48.33-8.17-65-24.5S30 420.67 30 394V86c0-26.67 8.33-48.17 25-64.5S93.33-3 120-3h44c26.67 0 48.33 8.17 65 24.5s25 37.83 25 64.5v308c0 26.67-8.33 48.17-25 64.5S190.67 483 164 483Zm12-410c-13.33 0-20 6.67-20 20v294c0 13.33 6.67 20 20 20h20c13.33 0 20-6.67 20-20V93c0-13.33-6.67-20-20-20Z" horiz-adv-x="284" vert-adv-y="1000"/><glyph glyph-name="uni70" unicode="p" d="M30 480v-670h82V17c11.33-13.33 26-20 44-20h33c20 0 36 8.17 48 24.5s18 37.83 18 64.5v308c0 26.67-6 48.17-18 64.5S209 483 189 483h-33c-18 0-32.67-6.67-44-20v17Zm83-93c0 13.33 6.67 20 20 20h20c13.33 0 20-6.67 20-20V93c0-13.33-6.67-20-20-20h-20c-13.33 0-20 6.67-20 20Z" horiz-adv-x="285" vert-adv-y="1000"/><glyph glyph-name="uni71" unicode="q" d="M30 86c0-26.67 6-48.17 18-64.5S76-3 96-3h33c18 0 32.67 6.67 44 20v-207h82v670h-82v-17c-11.33 13.33-26 20-44 20H96c-20 0-36-8.17-48-24.5S30 420.67 30 394Zm82 301c0 13.33 6.67 20 20 20h20c13.33 0 20-6.67 20-20V93c0-13.33-6.67-20-20-20h-20c-13.33 0-20 6.67-20 20Z" horiz-adv-x="285" vert-adv-y="1000"/><glyph glyph-name="uni72" unicode="r" d="M30 480V0h82v367c0 12 4.67 21.67 14 29 9.33 7.33 21.67 11 37 11h40v76h-33c-24 0-43.33-10-58-30v27Z" horiz-adv-x="211" vert-adv-y="1000"/><glyph glyph-name="uni73" unicode="s" d="M25 394v-89c0-14.67 4.33-28.5 13-41.5S58 241 72 235l83-37c10-4.67 15-12.33 15-23V93c0-13.33-6.67-20-20-20h-20c-13.33 0-20 6.67-20 20v68H28V86c0-26.67 8.33-48.17 25-64.5S91.33-3 118-3h44c26.67 0 48.33 8.17 65 24.5s25 37.83 25 64.5v106c0 14.67-4.33 28.5-13 41.5S219 256 205 262l-83 37c-10 3.33-15 10.67-15 22v66c0 13.33 6.67 20 20 20h20c13.33 0 20-6.67 20-20v-64h82v71c0 26.67-8.33 48.17-25 64.5S185.67 483 159 483h-44c-26.67 0-48.33-8.17-65-24.5S25 420.67 25 394Z" horiz-adv-x="272" vert-adv-y="1000"/><glyph glyph-name="uni74" unicode="t" d="M202 411v69h-67v100H53V480H5v-69h48V97c0-28.67 8.83-52 26.5-70S120.67 0 150 0h52v76h-39c-8.67 0-15.5 2.5-20.5 7.5S135 95 135 103v308Z" horiz-adv-x="215" vert-adv-y="1000"/><glyph glyph-name="uni75" unicode="u" d="M30 86c0-26.67 6-48.17 18-64.5S76-3 96-3h33c17.33 0 31.67 6.33 43 19V0h82v480h-82V93c0-13.33-6.67-20-20-20h-20c-13.33 0-20 6.67-20 20v387H30Z" horiz-adv-x="284" vert-adv-y="1000"/><glyph glyph-name="uni76" unicode="v" d="M7 480 79 0h106l72 480h-80l-40-331c-2.67-19.33-4-43.67-4-73h-2c0 29.33-1.33 53.67-4 73L87 480Z" horiz-adv-x="264" vert-adv-y="1000"/><glyph glyph-name="uni77" unicode="w" d="M7 480 74 0h96l37 328c2 14.67 3 39 3 73h2c0-29.33 1.33-53.67 4-73L253 0h96l67 480h-80l-36-331c-2-22-3-46.33-3-73h-2c0 26.67-1 51-3 73l-37 331h-87l-37-331c-2-22-3-46.33-3-73h-2c0 26.67-1 51-3 73L87 480Z" horiz-adv-x="423" vert-adv-y="1000"/><glyph glyph-name="uni78" unicode="x" d="M5 0h86l32 107c8.67 19.33 13 42.67 13 70h2c0-24.67 4.33-48 13-70L183 0h85l-88 245 85 235h-85l-29-98c-8.67-19.33-13-42.67-13-70h-2c0 25.33-4.33 48.67-13 70l-29 98H8l86-235Z" horiz-adv-x="273" vert-adv-y="1000"/><glyph glyph-name="uni79" unicode="y" d="M7 480 80 0h34l-10-81c-.67-10-5-18-13-24s-17.33-9-28-9H45v-76h31c55.33 0 88.67 34.33 100 103l82 567h-80l-41-326c-2.67-19.33-4-43.67-4-73h-2c0 29.33-1.33 53.67-4 73L88 480Z" horiz-adv-x="265" vert-adv-y="1000"/><glyph glyph-name="uni7a" unicode="z" d="M10 480v-69h110L10 57V0h200v70H100l110 353v57Z" horiz-adv-x="220" vert-adv-y="1000"/><glyph glyph-name="uni7b" unicode="{" d="M36 290c19.33 0 29-11.33 29-34V3c0-31.33 9-56.33 27-75s41.67-28 71-28h20v69h-20c-18.67 0-28 11-28 33v242c0 35.33-13 62.33-39 81 26 18.67 39 45.67 39 81v243c0 9.33 2.5 17 7.5 23s11.83 9 20.5 9h20v69h-20c-29.33 0-53-9.33-71-28s-27-43.67-27-75V394c0-22.67-9.67-34-29-34H20v-70Z" horiz-adv-x="188" vert-adv-y="1000"/><glyph glyph-name="uni7c" unicode="|" d="M30-100h70v850H30Z" horiz-adv-x="130" vert-adv-y="1000"/><glyph glyph-name="uni7d" unicode="}" d="M24-100c29.33 0 53.17 9.5 71.5 28.5S123-27.67 123 3v253c0 22.67 9.33 34 28 34h17v70h-17c-18.67 0-28 11.33-28 34v253c0 30.67-9.17 55.5-27.5 74.5S53.33 750 24 750H5v-69h19c19.33 0 29-10.67 29-32V406c0-36 13-63 39-81-26-18-39-45-39-81V2c0-22-9.67-33-29-33H5v-69Z" horiz-adv-x="188" vert-adv-y="1000"/><glyph glyph-name="uni7e" unicode="~" d="M15 303h68c0 23.33 6.67 35 20 35 6 0 12.83-3.67 20.5-11s17.67-14.67 30-22c12.33-7.33 26.5-11 42.5-11 26.67 0 48.33 9.33 65 28s25 43.33 25 74h-68c0-22.67-7-34-21-34-5.33 0-17.17 7.17-35.5 21.5S123.67 405 103 405c-26.67 0-48-9.33-64-28s-24-43.33-24-74Z" horiz-adv-x="300" vert-adv-y="1000"/><glyph glyph-name="unia1" unicode="¡" d="M109 377v103H27V377Zm0-567-7 487H34l-7-487Z" horiz-adv-x="136" vert-adv-y="1000"/><glyph glyph-name="unia2" unicode="¢" d="M30 196c0-25.33 7.67-46.17 23-62.5s35.67-25.17 61-26.5L113 0h57l1 107c25.33 1.33 45.5 10.17 60.5 26.5S254 170.67 254 196v93h-82v-86c0-13.33-6.67-20-20-20h-20c-13.33 0-20 6.67-20 20v294c0 13.33 6.67 20 20 20h20c13.33 0 20-6.67 20-20v-86h82v93c0 25.33-7.5 46.17-22.5 62.5S196.33 591.67 171 593v107h-57V593c-25.33-1.33-45.67-10.17-61-26.5-15.33-16.33-23-37.17-23-62.5Z" horiz-adv-x="274" vert-adv-y="1000"/><glyph glyph-name="unia3" unicode="£" d="M123 76v209h92v51h-92v265c0 13.33 6.67 20 20 20h30c13.33 0 20-6.67 20-20V491h88v116c0 28.67-8.83 51.83-26.5 69.5S213.67 703 185 703h-54c-28.67 0-51.83-8.83-69.5-26.5S35 635.67 35 607V336H2v-51h33V76H2V0h283v76Z" horiz-adv-x="311" vert-adv-y="1000"/><glyph glyph-name="unia4" unicode="¤" d="m78 70 30 85c3.33-.67 9-1 17-1h34c8 0 14 .33 18 1l29-85 60 22-33 95c14 18 21 40 21 66v194c0 26.67-7 49-21 67l33 95-60 22-30-86c-3.33.67-9 1-17 1h-34c-7.33 0-13-.33-17-1l-30 86-60-22 34-95c-14.67-18-22-40.33-22-67V253c0-26.67 7-49 21-67L18 92Zm34 371c0 20 8.33 30 25 30h10c16.67 0 25-10 25-30V259c0-20-8.33-30-25-30h-10c-16.67 0-25 10-25 30Z" horiz-adv-x="284" vert-adv-y="1000"/><glyph glyph-name="unia5" unicode="¥" d="m7 700 89-440v-6H33v-51h63v-42H33v-51h62V0h88v110h62v51h-61v42h61v51h-61v10l88 436h-84l-42-271c-3.33-17.33-5-41.33-5-72h-2c0 27.33-2 51.33-6 72L91 700Z" horiz-adv-x="278" vert-adv-y="1000"/><glyph glyph-name="unia6" unicode="¦" d="M100 396v354H30V396Zm0-496v354H30v-354Z" horiz-adv-x="130" vert-adv-y="1000"/><glyph glyph-name="unia7" unicode="§" d="M25 614V245c0-15.33 4.33-29.5 13-42.5s20-22.17 34-27.5l83-36c10-4.67 15-12.33 15-23V-4c0-13.33-6.67-20-20-20h-20c-13.33 0-20 6.67-20 20v65H28v-72c0-26.67 8.33-48.17 25-64.5S91.33-100 118-100h44c26.67 0 48.33 8.17 65 24.5s25 37.83 25 64.5v369c0 15.33-4.17 29.5-12.5 42.5S219.67 422.67 205 428l-83 37c-10 3.33-15 10.67-15 22v120c0 13.33 6.67 20 20 20h20c13.33 0 20-6.67 20-20v-64h82v71c0 26.67-8.33 48.17-25 64.5S185.67 703 159 703h-44c-26.67 0-48.33-8.17-65-24.5S25 640.67 25 614Zm130-250c10-3.33 15-11 15-23V217l-48 22c-10 4.67-15 12.33-15 23v124Z" horiz-adv-x="272" vert-adv-y="1000"/><glyph glyph-name="unia8" unicode="¨" d="M30 720h71v92H30Zm102 92v-92h71v92Z" horiz-adv-x="233" vert-adv-y="1000"/><glyph glyph-name="unia9" unicode="©" d="M30 165c0-50.67 14.83-91.67 44.5-123S143.33-5 192-5h55c48.67 0 87.83 15.67 117.5 47S409 114.33 409 165v371c0 50.67-14.83 91.5-44.5 122.5S295.67 705 247 705h-55c-48.67 0-87.83-15.5-117.5-46.5S30 586.67 30 536Zm63 371c0 32.67 9.17 59 27.5 79s42.17 30 71.5 30h55c29.33 0 53-10 71-30s27-46.33 27-79V164c0-32.67-9-59-27-79s-41.67-30-71-30h-55c-29.33 0-53.17 10-71.5 30S93 131.33 93 164Zm112-8c-19.33 0-34.83-6-46.5-18-11.67-12-17.5-27.67-17.5-47V238c0-19.33 5.83-35 17.5-47s27.17-18 46.5-18h33c19.33 0 35 6 47 18s18 27.67 18 47v63h-60v-59c0-9.33-4.67-14-14-14h-14c-9.33 0-14 4.67-14 14v217c0 9.33 4.67 14 14 14h14c9.33 0 14-4.67 14-14v-60h60v64c0 19.33-6 35-18 47s-27.67 18-47 18Z" horiz-adv-x="439" vert-adv-y="1000"/><glyph glyph-name="uniaa" unicode="ª" d="M23 416c0-20.67 4.5-37.17 13.5-49.5 9-12.33 21.17-18.5 36.5-18.5h25c14 0 25 5 33 15v-13h64v294c0 20.67-6.33 37.33-19 50-12.67 12.67-29.33 19-50 19H92c-20.67 0-37.33-6.33-50-19-12.67-12.67-19-29.33-19-50v-48h63v41c0 11.33 5 17 15 17h15c10 0 15-5.67 15-17v-85c-8 10-19 15-33 15H73c-15.33 0-27.5-6.17-36.5-18.5S23 519.33 23 498Zm63 78c0 10 5 15 15 15h15c10 0 15-5 15-15v-73c0-10-5-15-15-15h-15c-10 0-15 5-15 15Z" horiz-adv-x="218" vert-adv-y="1000"/><glyph glyph-name="uniab" unicode="«" d="m133 260 69-168h74l-74 168 74 169h-74Zm-108 0L95 92h73L95 260l73 169H95Z" horiz-adv-x="296" vert-adv-y="1000"/><glyph glyph-name="uniac" unicode="¬" d="M30 341h154v-74h70v144H30Z" horiz-adv-x="284" vert-adv-y="1000"/><glyph glyph-name="uniad" unicode="­" d="M20 235h148v70H20Z" horiz-adv-x="188" vert-adv-y="1000"/><glyph glyph-name="uniae" unicode="®" d="M30 165c0-50.67 14.83-91.67 44.5-123S143.33-5 192-5h55c48.67 0 87.83 15.67 117.5 47S409 114.33 409 165v371c0 50.67-14.83 91.5-44.5 122.5S295.67 705 247 705h-55c-48.67 0-87.83-15.5-117.5-46.5S30 586.67 30 536Zm63 371c0 32.67 9.17 59 27.5 79s42.17 30 71.5 30h55c29.33 0 53-10 71-30s27-46.33 27-79V164c0-32.67-9-59-27-79s-41.67-30-71-30h-55c-29.33 0-53.17 10-71.5 30S93 131.33 93 164Zm110-361v126h18l28-126h56l-32 135c21.33 12.67 32 33 32 61v85c0 21.33-6.17 38.17-18.5 50.5-12.33 12.33-29.17 18.5-50.5 18.5h-92V175Zm28 299c9.33 0 14-4.67 14-14v-94c0-9.33-4.67-14-14-14h-28v122Z" horiz-adv-x="439" vert-adv-y="1000"/><glyph glyph-name="uniaf" unicode="¯" d="M30 723h177v70H30Z" horiz-adv-x="237" vert-adv-y="1000"/><glyph glyph-name="unib0" unicode="°" d="M105 723c-28.67 0-51.67-9.17-69-27.5S10 653.33 10 624v-64c0-30 8.67-54.17 26-72.5S76.33 460 105 460h10c28 0 50.67 9.17 68 27.5s26 42.5 26 72.5v64c0 29.33-8.67 53.17-26 71.5S143 723 115 723Zm0-199c-16.67 0-25 10-25 30v76c0 20 8.33 30 25 30h10c16.67 0 25-10 25-30v-76c0-20-8.33-30-25-30Z" horiz-adv-x="219" vert-adv-y="1000"/><glyph glyph-name="unib1" unicode="±" d="M30 370h77v-89h70v89h77v70h-77v88h-70v-88H30Zm0-129v-69h224v69Z" horiz-adv-x="284" vert-adv-y="1000"/><glyph glyph-name="unib2" unicode="²" d="M86 753c-20.67 0-37.17-6.33-49.5-19C24.17 721.33 18 704.67 18 684v-62h59v51c0 16.67 6 25 18 25h7c12 0 18-8.33 18-25v-64c0-10.67-4.33-18.67-13-24l-47-49c-28-18-42-44-42-78v-58h163v55H77v10c0 10 4.33 18 13 24l47 49c28 19.33 42 45.33 42 78v68c0 20.67-6.17 37.33-18.5 50-12.33 12.67-28.83 19-49.5 19Z" horiz-adv-x="195" vert-adv-y="1000"/><glyph glyph-name="unib3" unicode="³" d="M18 515v-55c0-18.67 6.17-33.67 18.5-45 12.33-11.33 28.83-17 49.5-17h25c20.67 0 37.17 5.67 49.5 17 12.33 11.33 18.5 26.33 18.5 45v61c0 26.67-9 46.33-27 59 18 12.67 27 32.33 27 59v45c0 20.67-6.17 37.33-18.5 50-12.33 12.67-28.83 19-49.5 19H86c-20.67 0-37.17-6.33-49.5-19C24.17 721.33 18 704.67 18 684v-53h59v42c0 16.67 6 25 18 25h7c12 0 18-8.33 18-25v-45c0-13.33-6-20-18-20H79v-55h23c12 0 18-7.33 18-22v-58c0-13.33-6-20-18-20h-7c-12 0-18 6.67-18 20v42Z" horiz-adv-x="200" vert-adv-y="1000"/><glyph glyph-name="unib4" unicode="´" d="m94 717 65 137H72L30 717Z" horiz-adv-x="189" vert-adv-y="1000"/><glyph glyph-name="unib5" unicode="µ" d="M112-190 100-3h29c17.33 0 31.67 6.33 43 19V0h82v480h-82V93c0-13.33-6.67-20-20-20h-20c-13.33 0-20 6.67-20 20v387H30v-670Z" horiz-adv-x="284" vert-adv-y="1000"/><glyph glyph-name="unib6" unicode="¶" d="M111 700c-28.67 0-51.83-8.67-69.5-26S15 633.33 15 604V378c0-29.33 8.83-52.67 26.5-70s40.83-26 69.5-26h11v-382h69v800Zm179-800v800h-70v-800Z" horiz-adv-x="320" vert-adv-y="1000"/><glyph glyph-name="unib7" unicode="·" d="M27 298h82v104H27Z" horiz-adv-x="136" vert-adv-y="1000"/><glyph glyph-name="unib8" unicode="¸" d="M30-118c0-14.67 4-26.33 12-35 8-8.67 18.67-13 32-13h11c14.67 0 26.17 4 34.5 12 8.33 8 12.5 18.67 12.5 32v44c0 13.33-2.83 24-8.5 32S110.33-34 101-34H89c-5.33 0-9.33-2.33-12-7l6 44H49L36-80h34l1 1c1.33 7.33 4 11 8 11h6c6 0 9-4.67 9-14v-38c0-6.67-3-10-9-10H75c-4.67 0-7 3.33-7 10v15H30Z" horiz-adv-x="162" vert-adv-y="1000"/><glyph glyph-name="unib9" unicode="¹" d="M17 657h61V400h60v350H84c0-18-5.83-32-17.5-42S38.33 693 17 693Z" horiz-adv-x="174" vert-adv-y="1000"/><glyph glyph-name="uniba" unicode="º" d="M91 713c-20.67 0-37.17-6.33-49.5-19C29.17 681.33 23 664.67 23 644V416c0-20.67 6.17-37.17 18.5-49.5C53.83 354.17 70.33 348 91 348h35c20.67 0 37.17 6.17 49.5 18.5 12.33 12.33 18.5 28.83 18.5 49.5v228c0 20.67-6.17 37.33-18.5 50-12.33 12.67-28.83 19-49.5 19Zm10-307c-10 0-15 5-15 15v218c0 10 5 15 15 15h15c10 0 15-5 15-15V421c0-10-5-15-15-15Z" horiz-adv-x="217" vert-adv-y="1000"/><glyph glyph-name="unibb" unicode="»" d="m128 429 73-169-73-168h73l70 168-70 169ZM93 92l70 168-70 169H20l73-169L20 92Z" horiz-adv-x="296" vert-adv-y="1000"/><glyph glyph-name="unibc" unicode="¼" d="M63 0h75l229 700h-74Zm200 123V68h102V0h60v68h25v55h-25v227h-84ZM17 607h61V350h60v350H84c0-18-5.83-32-17.5-42S38.33 643 17 643Zm300-484 35 116c8 19.33 14.33 42.67 19 70l2-1c-5.33-28-8-52-8-72V123Z" horiz-adv-x="457" vert-adv-y="1000"/><glyph glyph-name="unibd" unicode="½" d="M63 0h75l229 700h-74Zm211 0h163v55H333v10c0 10 4.33 18 13 24l47 49c28 19.33 42 45.33 42 78v68c0 20.67-6.17 37.33-18.5 50-12.33 12.67-28.83 19-49.5 19h-25c-20.67 0-37.17-6.33-49.5-19-12.33-12.67-18.5-29.33-18.5-50v-62h59v51c0 16.67 6 25 18 25h7c12 0 18-8.33 18-25v-64c0-10.67-4.33-18.67-13-24l-47-49c-28-18-42-44-42-78ZM17 607h61V350h60v350H84c0-18-5.83-32-17.5-42S38.33 643 17 643Z" horiz-adv-x="451" vert-adv-y="1000"/><glyph glyph-name="unibe" unicode="¾" d="M89 0h74l229 700h-73Zm199 123V68h102V0h60v68h25v55h-25v227h-84ZM18 581h59v42c0 16.67 6 25 18 25h7c12 0 18-8.33 18-25v-45c0-13.33-6-20-18-20H79v-55h23c12 0 18-7.33 18-22v-58c0-13.33-6-20-18-20h-7c-12 0-18 6.67-18 20v42H18v-55c0-18.67 6.17-33.67 18.5-45 12.33-11.33 28.83-17 49.5-17h25c20.67 0 37.17 5.67 49.5 17 12.33 11.33 18.5 26.33 18.5 45v61c0 26.67-9 46.33-27 59 18 12.67 27 32.33 27 59v45c0 20.67-6.17 37.33-18.5 50-12.33 12.67-28.83 19-49.5 19H86c-20.67 0-37.17-6.33-49.5-19C24.17 671.33 18 654.67 18 634Zm324-458 36 116c8.67 24.67 15 48 19 70l1-1c-5.33-28-8-52-8-72V123Z" horiz-adv-x="482" vert-adv-y="1000"/><glyph glyph-name="unibf" unicode="¿" d="M116-190h54c29.33 0 52.67 8.67 70 26s26 40.67 26 70V8h-88v-96c0-13.33-6.67-20-20-20h-30c-13.33 0-20 6.67-20 20V27c0 7.33 2 13.33 6 18l66 112c3.33 6 4.67 12 4 18l-9 122h-68l-8-96c-1.33-10-4-18-8-24L43 85C27.67 63.67 20 39 20 11V-94c0-29.33 8.67-52.67 26-70s40.67-26 70-26Zm66 670h-82V377h82Z" horiz-adv-x="281" vert-adv-y="1000"/><glyph glyph-name="unic0" unicode="À" d="M7 0h82l17 162h81L204 0h82l-81 700H88Zm106 237 30 281c2 22 3 46.33 3 73h2c0-34 1-58.33 3-73l29-281Zm13 514h64l-42 137H61Z" horiz-adv-x="293" vert-adv-y="1000"/><glyph glyph-name="unic1" unicode="Á" d="M7 0h82l17 162h81L204 0h82l-81 700H88Zm106 237 30 281c2 22 3 46.33 3 73h2c0-34 1-58.33 3-73l29-281Zm-10 514h63l66 137h-88Z" horiz-adv-x="293" vert-adv-y="1000"/><glyph glyph-name="unic2" unicode="Â" d="M7 0h82l17 162h81L204 0h82l-81 700H88Zm111 750 29 76 29-76h58l-58 137h-59L59 750Zm-5-513 30 281c2 22 3 46.33 3 73h2c0-34 1-58.33 3-73l29-281Z" horiz-adv-x="293" vert-adv-y="1000"/><glyph glyph-name="unic3" unicode="Ã" d="M7 0h82l17 162h81L204 0h82l-81 700H88Zm100 754c0 15.33 5 23 15 23 2.67 0 9.83-4.33 21.5-13s24.5-13 38.5-13c20 0 35.83 6.83 47.5 20.5 11.67 13.67 17.5 31.83 17.5 54.5h-53c0-16-5-24-15-24-3.33 0-10.67 4.5-22 13.5S132.67 829 118 829c-19.33 0-34.67-6.83-46-20.5-11.33-13.67-17-31.83-17-54.5Zm6-517 30 281c2 22 3 46.33 3 73h2c0-34 1-58.33 3-73l29-281Z" horiz-adv-x="293" vert-adv-y="1000"/><glyph glyph-name="unic4" unicode="Ä" d="M7 0h82l17 162h81L204 0h82l-81 700H88Zm106 237 30 281c2 22 3 46.33 3 73h2c0-34 1-58.33 3-73l29-281ZM60 754h71v92H60Zm173 0v92h-71v-92Z" horiz-adv-x="293" vert-adv-y="1000"/><glyph glyph-name="unic5" unicode="Å" d="M7 0h82l17 162h81L204 0h82l-81 700H88Zm140 898c-21.33 0-39-7-53-21s-21-31.67-21-53 7-39.17 21-53.5c14-14.33 31.67-21.5 53-21.5 20.67 0 38.17 7.17 52.5 21.5 14.33 14.33 21.5 32.17 21.5 53.5 0 20.67-7.17 38.17-21.5 52.5-14.33 14.33-31.83 21.5-52.5 21.5Zm-34-661 30 281c2 22 3 46.33 3 73h2c0-34 1-58.33 3-73l29-281Zm34 560c-8 0-14.5 2.5-19.5 7.5S120 816 120 824s2.5 14.5 7.5 19.5S139 851 147 851s14.5-2.5 19.5-7.5S174 832 174 824s-2.5-14.5-7.5-19.5S155 797 147 797Z" horiz-adv-x="293" vert-adv-y="1000"/><glyph glyph-name="unic6" unicode="Æ" d="M7 0h84l34 162h81V0h192v76H294v236h96v76h-96v236h104v76H167Zm133 237 58 278c4.67 20.67 8.33 43.67 11 69h2c-3.33-34.67-5-58-5-70V237Z" horiz-adv-x="421" vert-adv-y="1000"/><glyph glyph-name="unic7" unicode="Ç" d="M35 93c0-28.67 8.83-51.83 26.5-69.5S102.33-3 131-3h9l-12-77h35v1c1.33 7.33 4.33 11 9 11h6c6 0 9-4.67 9-14v-38c0-6.67-3.33-10-10-10h-10c-4.67 0-7 3.33-7 10v15h-37v-13c0-14.67 4-26.33 12-35 8-8.67 18.67-13 32-13h11c14 0 25.33 4 34 12 8.67 8 13 18.67 13 32v44c0 13.33-3 24-9 32s-13.67 12-23 12h-11c-4.67 0-9-2.33-13-7l6 38h10c28.67 0 51.83 8.83 69.5 26.5S281 64.33 281 93v131h-88V99c0-13.33-6.67-20-20-20h-30c-13.33 0-20 6.67-20 20v502c0 13.33 6.67 20 20 20h30c13.33 0 20-6.67 20-20V472h88v135c0 28.67-8.83 51.83-26.5 69.5S213.67 703 185 703h-54c-28.67 0-51.83-8.83-69.5-26.5S35 635.67 35 607Z" horiz-adv-x="311" vert-adv-y="1000"/><glyph glyph-name="unic8" unicode="È" d="M35 0h192v76H123v236h96v76h-96v236h104v76H35Zm76 751h64l-42 137H45Z" horiz-adv-x="250" vert-adv-y="1000"/><glyph glyph-name="unic9" unicode="É" d="M227 0v76H123v236h96v76h-96v236h104v76H35V0Zm-76 751 65 137h-87L87 751Z" horiz-adv-x="250" vert-adv-y="1000"/><glyph glyph-name="unica" unicode="Ê" d="M35 0h192v76H123v236h96v76h-96v236h104v76H35Zm9 750h58l29 76 29-76h58l-57 137h-60Z" horiz-adv-x="250" vert-adv-y="1000"/><glyph glyph-name="unicb" unicode="Ë" d="M227 0v76H123v236h96v76h-96v236h104v76H35V0Zm-80 846v-92h71v92ZM45 754h71v92H45Z" horiz-adv-x="250" vert-adv-y="1000"/><glyph glyph-name="unicc" unicode="Ì" d="M35 0h88v700H35Zm45 888H-7l66-137h63Z" horiz-adv-x="158" vert-adv-y="1000"/><glyph glyph-name="unicd" unicode="Í" d="M35 0h88v700H35Zm63 751 66 137H77L35 751Z" horiz-adv-x="158" vert-adv-y="1000"/><glyph glyph-name="unice" unicode="Î" d="M35 0h88v700H35ZM-9 750h59l29 76 29-76h58l-57 137H49Z" horiz-adv-x="158" vert-adv-y="1000"/><glyph glyph-name="unicf" unicode="Ï" d="M35 0h88v700H35Zm60 846v-92h70v92Zm-32-92v92H-7v-92Z" horiz-adv-x="158" vert-adv-y="1000"/><glyph glyph-name="unid0" unicode="Ð" d="M35 328V0h150c28.67 0 51.83 8.67 69.5 26S281 66.67 281 96v508c0 29.33-8.83 52.67-26.5 70s-40.83 26-69.5 26H35V372H3v-44Zm128 0v44h-40v252h50c13.33 0 20-6.67 20-20V96c0-13.33-6.67-20-20-20h-50v252Z" horiz-adv-x="316" vert-adv-y="1000"/><glyph glyph-name="unid1" unicode="Ñ" d="M35 0h85v364c0 12-1.67 36.33-5 73h2c2.67-29.33 6.67-53.33 12-72L198 0h85v700h-85V334c0-12 1.67-36.33 5-73h-2c-2.67 27.33-6.33 51.33-11 72l-70 367H35Zm96 829c-20 0-35.67-6.83-47-20.5-11.33-13.67-17-31.83-17-54.5h53c0 15.33 4.67 23 14 23 3.33 0 10.83-4.33 22.5-13s24.5-13 38.5-13c20 0 35.67 6.83 47 20.5 11.33 13.67 17 31.83 17 54.5h-52c0-16-5-24-15-24-3.33 0-10.83 4.5-22.5 13.5S145 829 131 829Z" horiz-adv-x="318" vert-adv-y="1000"/><glyph glyph-name="unid2" unicode="Ò" d="M131 703c-28.67 0-51.83-8.83-69.5-26.5S35 635.67 35 607V93c0-28.67 8.83-51.83 26.5-69.5S102.33-3 131-3h54c28.67 0 51.83 8.83 69.5 26.5S281 64.33 281 93v514c0 28.67-8.83 51.83-26.5 69.5S213.67 703 185 703Zm-8-102c0 13.33 6.67 20 20 20h30c13.33 0 20-6.67 20-20V99c0-13.33-6.67-20-20-20h-30c-13.33 0-20 6.67-20 20ZM72 888l66-137h63l-42 137Z" horiz-adv-x="316" vert-adv-y="1000"/><glyph glyph-name="unid3" unicode="Ó" d="M35 93c0-28.67 8.83-51.83 26.5-69.5S102.33-3 131-3h54c28.67 0 51.83 8.83 69.5 26.5S281 64.33 281 93v514c0 28.67-8.83 51.83-26.5 69.5S213.67 703 185 703h-54c-28.67 0-51.83-8.83-69.5-26.5S35 635.67 35 607Zm88 508c0 13.33 6.67 20 20 20h30c13.33 0 20-6.67 20-20V99c0-13.33-6.67-20-20-20h-30c-13.33 0-20 6.67-20 20Zm54 150 66 137h-87l-42-137Z" horiz-adv-x="316" vert-adv-y="1000"/><glyph glyph-name="unid4" unicode="Ô" d="M35 93c0-28.67 8.83-51.83 26.5-69.5S102.33-3 131-3h54c28.67 0 51.83 8.83 69.5 26.5S281 64.33 281 93v514c0 28.67-8.83 51.83-26.5 69.5S213.67 703 185 703h-54c-28.67 0-51.83-8.83-69.5-26.5S35 635.67 35 607Zm108-14c-13.33 0-20 6.67-20 20v502c0 13.33 6.67 20 20 20h30c13.33 0 20-6.67 20-20V99c0-13.33-6.67-20-20-20ZM71 750h58l29 76 29-76h58l-57 137h-60Z" horiz-adv-x="316" vert-adv-y="1000"/><glyph glyph-name="unid5" unicode="Õ" d="M35 93c0-28.67 8.83-51.83 26.5-69.5S102.33-3 131-3h54c28.67 0 51.83 8.83 69.5 26.5S281 64.33 281 93v514c0 28.67-8.83 51.83-26.5 69.5S213.67 703 185 703h-54c-28.67 0-51.83-8.83-69.5-26.5S35 635.67 35 607Zm88 508c0 13.33 6.67 20 20 20h30c13.33 0 20-6.67 20-20V99c0-13.33-6.67-20-20-20h-30c-13.33 0-20 6.67-20 20Zm7 228c-20 0-35.67-6.83-47-20.5-11.33-13.67-17-31.83-17-54.5h53c0 15.33 4.67 23 14 23 3.33 0 10.83-4.33 22.5-13s24.5-13 38.5-13c20 0 35.67 6.83 47 20.5 11.33 13.67 17 31.83 17 54.5h-52c0-16-5.33-24-16-24-2.67 0-9.83 4.5-21.5 13.5S144 829 130 829Z" horiz-adv-x="316" vert-adv-y="1000"/><glyph glyph-name="unid6" unicode="Ö" d="M35 93c0-28.67 8.83-51.83 26.5-69.5S102.33-3 131-3h54c28.67 0 51.83 8.83 69.5 26.5S281 64.33 281 93v514c0 28.67-8.83 51.83-26.5 69.5S213.67 703 185 703h-54c-28.67 0-51.83-8.83-69.5-26.5S35 635.67 35 607Zm88 508c0 13.33 6.67 20 20 20h30c13.33 0 20-6.67 20-20V99c0-13.33-6.67-20-20-20h-30c-13.33 0-20 6.67-20 20ZM72 846v-92h70v92Zm172-92v92h-70v-92Z" horiz-adv-x="316" vert-adv-y="1000"/><glyph glyph-name="unid7" unicode="×" d="m93 350-58-58 49-49 58 58 58-58 49 49-58 58 58 58-49 49-58-58-58 58-49-49Z" horiz-adv-x="284" vert-adv-y="1000"/><glyph glyph-name="unid8" unicode="Ø" d="M131 703c-28.67 0-51.83-8.83-69.5-26.5S35 635.67 35 607V93c0-23.33 5.67-42.67 17-58L41 0l22-9 7 24C87.33 3 107.67-3 131-3h54c28.67 0 51.83 8.83 69.5 26.5S281 64.33 281 93v514c0 23.33-5.67 42.67-17 58l11 35-22 9-7-25c-16.67 12.67-37 19-61 19Zm-8-429v327c0 13.33 6.67 20 20 20h30c13.33 0 20-6.67 20-20v-94Zm70 152V99c0-13.33-6.67-20-20-20h-30c-13.33 0-20 6.67-20 20v93Z" horiz-adv-x="316" vert-adv-y="1000"/><glyph glyph-name="unid9" unicode="Ù" d="M35 93c0-28.67 8.83-51.83 26.5-69.5S102.33-3 131-3h54c28.67 0 51.83 8.83 69.5 26.5S281 64.33 281 93v607h-88V99c0-13.33-6.67-20-20-20h-30c-13.33 0-20 6.67-20 20v601H35Zm103 658h63l-42 137H72Z" horiz-adv-x="316" vert-adv-y="1000"/><glyph glyph-name="unida" unicode="Ú" d="M35 93c0-28.67 8.83-51.83 26.5-69.5S102.33-3 131-3h54c28.67 0 51.83 8.83 69.5 26.5S281 64.33 281 93v607h-88V99c0-13.33-6.67-20-20-20h-30c-13.33 0-20 6.67-20 20v601H35Zm79 658h63l66 137h-87Z" horiz-adv-x="316" vert-adv-y="1000"/><glyph glyph-name="unidb" unicode="Û" d="M35 93c0-28.67 8.83-51.83 26.5-69.5S102.33-3 131-3h54c28.67 0 51.83 8.83 69.5 26.5S281 64.33 281 93v607h-88V99c0-13.33-6.67-20-20-20h-30c-13.33 0-20 6.67-20 20v601H35Zm94 657 29 76 29-76h58l-57 137h-60L71 750Z" horiz-adv-x="316" vert-adv-y="1000"/><glyph glyph-name="unidc" unicode="Ü" d="M35 93c0-28.67 8.83-51.83 26.5-69.5S102.33-3 131-3h54c28.67 0 51.83 8.83 69.5 26.5S281 64.33 281 93v607h-88V99c0-13.33-6.67-20-20-20h-30c-13.33 0-20 6.67-20 20v601H35Zm107 661v92H72v-92Zm102 0v92h-70v-92Z" horiz-adv-x="316" vert-adv-y="1000"/><glyph glyph-name="unidd" unicode="Ý" d="M95 261V0h88v264l89 436h-84l-42-271c-3.33-17.33-5-41.33-5-72h-2c0 27.33-2 51.33-6 72L91 700H7Zm0 490h64l65 137h-87Z" horiz-adv-x="278" vert-adv-y="1000"/><glyph glyph-name="unide" unicode="Þ" d="M123 0v151h62c28.67 0 51.83 8.83 69.5 26.5S281 218.33 281 247v207c0 28.67-8.83 51.67-26.5 69s-40.83 26-69.5 26h-62v151H35V0Zm50 474c13.33 0 20-6.67 20-20V247c0-13.33-6.67-20-20-20h-50v247Z" horiz-adv-x="298" vert-adv-y="1000"/><glyph glyph-name="unidf" unicode="ß" d="M30 0h82v634c0 13.33 6.67 20 20 20h15c13.33 0 20-6.67 20-20V431c0-13.33-6.67-20-20-20h-7v-70h12c13.33 0 20-6.67 20-20V90c0-13.33-6.67-20-20-20h-12V0h24c26.67 0 48.33 7.5 65 22.5s25 34.83 25 59.5v227c0 31.33-12.67 54.33-38 69 22 14.67 33 36.33 33 65v199c0 24-8.33 43.5-25 58.5S185.67 723 159 723h-39c-26.67 0-48.33-7.5-65-22.5S30 666 30 642Z" horiz-adv-x="281" vert-adv-y="1000"/><glyph glyph-name="unie0" unicode="à" d="M96 289c-20 0-36-8.17-48-24.5S30 226.33 30 199V86c0-26.67 6-48.17 18-64.5S76-3 96-3h33c18 0 32.67 6.67 44 20V0h82v394c0 26.67-8.33 48.17-25 64.5S191.67 483 165 483h-44c-26.67 0-48.33-8.17-65-24.5S31 420.67 31 394v-67h82v57c0 6 1.83 11.33 5.5 16s8.5 7 14.5 7h20c6 0 10.83-2.33 14.5-7s5.5-10 5.5-16V268c-12 14-26.67 21-44 21ZM57 668l65-137h64l-42 137Zm55-475c0 13.33 6.67 20 20 20h20c13.33 0 20-6.67 20-20V93c0-13.33-6.67-20-20-20h-20c-13.33 0-20 6.67-20 20Z" horiz-adv-x="285" vert-adv-y="1000"/><glyph glyph-name="unie1" unicode="á" d="M30 86c0-26.67 6-48.17 18-64.5S76-3 96-3h33c18 0 32.67 6.67 44 20V0h82v394c0 26.67-8.33 48.17-25 64.5S191.67 483 165 483h-44c-26.67 0-48.33-8.17-65-24.5S31 420.67 31 394v-67h82v57c0 6 1.83 11.33 5.5 16s8.5 7 14.5 7h20c6 0 10.83-2.33 14.5-7s5.5-10 5.5-16V268c-12 14-26.67 21-44 21H96c-20 0-36-8.17-48-24.5S30 226.33 30 199Zm69 445h63l66 137h-87Zm13-338c0 13.33 6.67 20 20 20h20c13.33 0 20-6.67 20-20V93c0-13.33-6.67-20-20-20h-20c-13.33 0-20 6.67-20 20Z" horiz-adv-x="285" vert-adv-y="1000"/><glyph glyph-name="unie2" unicode="â" d="M30 86c0-26.67 6-48.17 18-64.5S76-3 96-3h33c18 0 32.67 6.67 44 20V0h82v394c0 26.67-8.33 48.17-25 64.5S191.67 483 165 483h-44c-26.67 0-48.33-8.17-65-24.5S31 420.67 31 394v-67h82v57c0 6 1.83 11.33 5.5 16s8.5 7 14.5 7h20c6 0 10.83-2.33 14.5-7s5.5-10 5.5-16V268c-12 14-26.67 21-44 21H96c-20 0-36-8.17-48-24.5S30 226.33 30 199Zm25 444h59l29 76 29-76h58l-58 137h-59Zm57-337c0 13.33 6.67 20 20 20h20c13.33 0 20-6.67 20-20V93c0-13.33-6.67-20-20-20h-20c-13.33 0-20 6.67-20 20Z" horiz-adv-x="285" vert-adv-y="1000"/><glyph glyph-name="unie3" unicode="ã" d="M96 289c-20 0-36-8.17-48-24.5S30 226.33 30 199V86c0-26.67 6-48.17 18-64.5S76-3 96-3h33c18 0 32.67 6.67 44 20V0h82v394c0 26.67-8.33 48.17-25 64.5S191.67 483 165 483h-44c-26.67 0-48.33-8.17-65-24.5S31 420.67 31 394v-67h82v57c0 6 1.83 11.33 5.5 16s8.5 7 14.5 7h20c6 0 10.83-2.33 14.5-7s5.5-10 5.5-16V268c-12 14-26.67 21-44 21Zm8 245c0 15.33 4.67 23 14 23 2.67 0 9.83-4.33 21.5-13s24.5-13 38.5-13c20 0 35.83 6.83 47.5 20.5 11.67 13.67 17.5 31.83 17.5 54.5h-53c0-16-5-24-15-24-3.33 0-10.67 4.5-22 13.5S128.67 609 114 609c-19.33 0-34.67-6.83-46-20.5-11.33-13.67-17-31.83-17-54.5Zm8-341c0 13.33 6.67 20 20 20h20c13.33 0 20-6.67 20-20V93c0-13.33-6.67-20-20-20h-20c-13.33 0-20 6.67-20 20Z" horiz-adv-x="285" vert-adv-y="1000"/><glyph glyph-name="unie4" unicode="ä" d="M30 86c0-26.67 6-48.17 18-64.5S76-3 96-3h33c18 0 32.67 6.67 44 20V0h82v394c0 26.67-8.33 48.17-25 64.5S191.67 483 165 483h-44c-26.67 0-48.33-8.17-65-24.5S31 420.67 31 394v-67h82v57c0 6 1.83 11.33 5.5 16s8.5 7 14.5 7h20c6 0 10.83-2.33 14.5-7s5.5-10 5.5-16V268c-12 14-26.67 21-44 21H96c-20 0-36-8.17-48-24.5S30 226.33 30 199Zm102-13c-13.33 0-20 6.67-20 20v100c0 13.33 6.67 20 20 20h20c13.33 0 20-6.67 20-20V93c0-13.33-6.67-20-20-20Zm-5 461v92H57v-92Zm32 92v-92h70v92Z" horiz-adv-x="285" vert-adv-y="1000"/><glyph glyph-name="unie5" unicode="å" d="M30 86c0-26.67 6-48.17 18-64.5S76-3 96-3h33c18 0 32.67 6.67 44 20V0h82v394c0 26.67-8.33 48.17-25 64.5S191.67 483 165 483h-44c-26.67 0-48.33-8.17-65-24.5S31 420.67 31 394v-67h82v57c0 6 1.83 11.33 5.5 16s8.5 7 14.5 7h20c6 0 10.83-2.33 14.5-7s5.5-10 5.5-16V268c-12 14-26.67 21-44 21H96c-20 0-36-8.17-48-24.5S30 226.33 30 199Zm113 592c-21.33 0-39-7-53-21s-21-31.67-21-53 7-39.17 21-53.5c14-14.33 31.67-21.5 53-21.5 20.67 0 38.17 7.17 52.5 21.5 14.33 14.33 21.5 32.17 21.5 53.5 0 20.67-7.17 38.17-21.5 52.5-14.33 14.33-31.83 21.5-52.5 21.5Zm-31-485c0 13.33 6.67 20 20 20h20c13.33 0 20-6.67 20-20V93c0-13.33-6.67-20-20-20h-20c-13.33 0-20 6.67-20 20Zm4 411c0 8 2.5 14.5 7.5 19.5S135 631 143 631s14.5-2.5 19.5-7.5S170 612 170 604s-2.5-14.5-7.5-19.5S151 577 143 577s-14.5 2.5-19.5 7.5S116 596 116 604Z" horiz-adv-x="285" vert-adv-y="1000"/><glyph glyph-name="unie6" unicode="æ" d="M30 86c0-26.67 6-48.17 18-64.5S76-3 96-3h33c25.33 0 44 13.33 56 40 16-26.67 41.67-40 77-40h45c26.67 0 48.33 8.17 65 24.5s25 37.83 25 64.5v75h-82V93c0-13.33-6.67-20-20-20h-20c-13.33 0-20 6.67-20 20v113h142v188c0 26.67-8.33 48.17-25 64.5S333.67 483 307 483h-45c-18.67 0-34.67-4-48-12-14 8-30.33 12-49 12h-44c-26.67 0-48.33-8.17-65-24.5S31 420.67 31 394v-67h82v57c0 6 1.83 11.33 5.5 16s8.5 7 14.5 7h20c6 0 10.83-2.33 14.5-7s5.5-10 5.5-16V268c-12 14-26.67 21-44 21H96c-20 0-36-8.17-48-24.5S30 226.33 30 199Zm82 107c0 13.33 6.67 20 20 20h20c13.33 0 20-6.67 20-20V93c0-13.33-6.67-20-20-20h-20c-13.33 0-20 6.67-20 20Zm143 194c0 13.33 6.67 20 20 20h20c13.33 0 20-6.67 20-20V276h-60Z" horiz-adv-x="425" vert-adv-y="1000"/><glyph glyph-name="unie7" unicode="ç" d="M30 394V86c0-26.67 8.33-48.17 25-64.5S93.33-3 120-3h4l-12-77h35v1c1.33 7.33 4.33 11 9 11h6c6 0 9-4.67 9-14v-38c0-6.67-3.33-10-10-10h-10c-4.67 0-7 3.33-7 10v15h-38v-13c0-14.67 4.17-26.33 12.5-35 8.33-8.67 19.17-13 32.5-13h11c14 0 25.33 4 34 12 8.67 8 13 18.67 13 32v44c0 13.33-3 24-9 32s-13.67 12-23 12h-11c-4.67 0-9-2.33-13-7l6 38h5c26.67 0 48.33 8.17 65 24.5s25 37.83 25 64.5v93h-82V93c0-13.33-6.67-20-20-20h-20c-13.33 0-20 6.67-20 20v294c0 13.33 6.67 20 20 20h20c13.33 0 20-6.67 20-20v-86h82v93c0 26.67-8.33 48.17-25 64.5S190.67 483 164 483h-44c-26.67 0-48.33-8.17-65-24.5S30 420.67 30 394Z" horiz-adv-x="274" vert-adv-y="1000"/><glyph glyph-name="unie8" unicode="è" d="M30 394V86c0-26.67 8.33-48.17 25-64.5S93.33-3 120-3h44c26.67 0 48.33 8.17 65 24.5s25 37.83 25 64.5v75h-82V93c0-13.33-6.67-20-20-20h-20c-13.33 0-20 6.67-20 20v113h142v188c0 26.67-8.33 48.17-25 64.5S190.67 483 164 483h-44c-26.67 0-48.33-8.17-65-24.5S30 420.67 30 394Zm91 137h64l-42 137H56Zm-9-144c0 13.33 6.67 20 20 20h20c13.33 0 20-6.67 20-20V276h-60Z" horiz-adv-x="282" vert-adv-y="1000"/><glyph glyph-name="unie9" unicode="é" d="M30 394V86c0-26.67 8.33-48.17 25-64.5S93.33-3 120-3h44c26.67 0 48.33 8.17 65 24.5s25 37.83 25 64.5v75h-82V93c0-13.33-6.67-20-20-20h-20c-13.33 0-20 6.67-20 20v113h142v188c0 26.67-8.33 48.17-25 64.5S190.67 483 164 483h-44c-26.67 0-48.33-8.17-65-24.5S30 420.67 30 394Zm68 137h63l66 137h-87Zm14-144c0 13.33 6.67 20 20 20h20c13.33 0 20-6.67 20-20V276h-60Z" horiz-adv-x="282" vert-adv-y="1000"/><glyph glyph-name="uniea" unicode="ê" d="M30 394V86c0-26.67 8.33-48.17 25-64.5S93.33-3 120-3h44c26.67 0 48.33 8.17 65 24.5s25 37.83 25 64.5v75h-82V93c0-13.33-6.67-20-20-20h-20c-13.33 0-20 6.67-20 20v113h142v188c0 26.67-8.33 48.17-25 64.5S190.67 483 164 483h-44c-26.67 0-48.33-8.17-65-24.5S30 420.67 30 394Zm83 136 29 76 29-76h58l-58 137h-59L54 530Zm-1-254v111c0 13.33 6.67 20 20 20h20c13.33 0 20-6.67 20-20V276Z" horiz-adv-x="282" vert-adv-y="1000"/><glyph glyph-name="unieb" unicode="ë" d="M30 394V86c0-26.67 8.33-48.17 25-64.5S93.33-3 120-3h44c26.67 0 48.33 8.17 65 24.5s25 37.83 25 64.5v75h-82V93c0-13.33-6.67-20-20-20h-20c-13.33 0-20 6.67-20 20v113h142v188c0 26.67-8.33 48.17-25 64.5S190.67 483 164 483h-44c-26.67 0-48.33-8.17-65-24.5S30 420.67 30 394Zm82-7c0 13.33 6.67 20 20 20h20c13.33 0 20-6.67 20-20V276h-60Zm14 147v92H56v-92Zm32 92v-92h70v92Z" horiz-adv-x="282" vert-adv-y="1000"/><glyph glyph-name="uniec" unicode="ì" d="M30 0h82v480H30Zm42 668h-87l66-137h63Z" horiz-adv-x="142" vert-adv-y="1000"/><glyph glyph-name="unied" unicode="í" d="M30 0h82v480H30Zm60 531 66 137H69L27 531Z" horiz-adv-x="142" vert-adv-y="1000"/><glyph glyph-name="uniee" unicode="î" d="M30 0h82v480H30Zm-47 530h59l29 76 29-76h58l-57 137H41Z" horiz-adv-x="142" vert-adv-y="1000"/><glyph glyph-name="unief" unicode="ï" d="M30 0h82v480H30ZM-9 626v-92h67v92Zm93 0v-92h67v92Z" horiz-adv-x="142" vert-adv-y="1000"/><glyph glyph-name="unif0" unicode="ð" d="M115 483c-24.67 0-45-8.33-61-25s-24-38-24-64V86c0-26.67 8.33-48.17 25-64.5S93.33-3 120-3h44c27.33 0 49.17 7.83 65.5 23.5S254 57 254 83v471c0 30-10.17 56.17-30.5 78.5S176 672.33 142 685h-1l19 54-37 13-19-53-66 24v-80l41-16-20-56 37-13 19 55 15-5c28-12 42-32 42-60v-85c-10 13.33-26.67 20-50 20Zm-3-96c0 13.33 6.67 20 20 20h20c13.33 0 20-6.67 20-20V93c0-13.33-6.67-20-20-20h-20c-13.33 0-20 6.67-20 20Z" horiz-adv-x="284" vert-adv-y="1000"/><glyph glyph-name="unif1" unicode="ñ" d="M112 0v387c0 13.33 6.67 20 20 20h20c13.33 0 20-6.67 20-20V0h82v394c0 26.67-6 48.17-18 64.5S208 483 188 483h-33c-17.33 0-31.67-6.33-43-19v16H30V0ZM98 534c0 15.33 4.67 23 14 23 3.33 0 10.67-4.33 22-13s24-13 38-13c20 0 35.83 6.83 47.5 20.5 11.67 13.67 17.5 31.83 17.5 54.5h-53c0-16-5-24-15-24-3.33 0-10.67 4.5-22 13.5S123 609 109 609c-20 0-35.67-6.83-47-20.5-11.33-13.67-17-31.83-17-54.5Z" horiz-adv-x="284" vert-adv-y="1000"/><glyph glyph-name="unif2" unicode="ò" d="M120 483c-26.67 0-48.33-8.17-65-24.5S30 420.67 30 394V86c0-26.67 8.33-48.17 25-64.5S93.33-3 120-3h44c26.67 0 48.33 8.17 65 24.5s25 37.83 25 64.5v308c0 26.67-8.33 48.17-25 64.5S190.67 483 164 483Zm-8-96c0 13.33 6.67 20 20 20h20c13.33 0 20-6.67 20-20V93c0-13.33-6.67-20-20-20h-20c-13.33 0-20 6.67-20 20ZM56 668l65-137h64l-42 137Z" horiz-adv-x="284" vert-adv-y="1000"/><glyph glyph-name="unif3" unicode="ó" d="M30 86c0-26.67 8.33-48.17 25-64.5S93.33-3 120-3h44c26.67 0 48.33 8.17 65 24.5s25 37.83 25 64.5v308c0 26.67-8.33 48.17-25 64.5S190.67 483 164 483h-44c-26.67 0-48.33-8.17-65-24.5S30 420.67 30 394Zm82 301c0 13.33 6.67 20 20 20h20c13.33 0 20-6.67 20-20V93c0-13.33-6.67-20-20-20h-20c-13.33 0-20 6.67-20 20Zm49 144 66 137h-87L98 531Z" horiz-adv-x="284" vert-adv-y="1000"/><glyph glyph-name="unif4" unicode="ô" d="M30 86c0-26.67 8.33-48.17 25-64.5S93.33-3 120-3h44c26.67 0 48.33 8.17 65 24.5s25 37.83 25 64.5v308c0 26.67-8.33 48.17-25 64.5S190.67 483 164 483h-44c-26.67 0-48.33-8.17-65-24.5S30 420.67 30 394Zm102-13c-13.33 0-20 6.67-20 20v294c0 13.33 6.67 20 20 20h20c13.33 0 20-6.67 20-20V93c0-13.33-6.67-20-20-20ZM54 530h59l29 76 29-76h58l-58 137h-59Z" horiz-adv-x="284" vert-adv-y="1000"/><glyph glyph-name="unif5" unicode="õ" d="M30 86c0-26.67 8.33-48.17 25-64.5S93.33-3 120-3h44c26.67 0 48.33 8.17 65 24.5s25 37.83 25 64.5v308c0 26.67-8.33 48.17-25 64.5S190.67 483 164 483h-44c-26.67 0-48.33-8.17-65-24.5S30 420.67 30 394Zm82 301c0 13.33 6.67 20 20 20h20c13.33 0 20-6.67 20-20V93c0-13.33-6.67-20-20-20h-20c-13.33 0-20 6.67-20 20Zm1 222c-19.33 0-34.67-6.83-46-20.5-11.33-13.67-17-31.83-17-54.5h53c0 15.33 4.67 23 14 23 2.67 0 9.83-4.33 21.5-13s24.5-13 38.5-13c20 0 35.83 6.83 47.5 20.5 11.67 13.67 17.5 31.83 17.5 54.5h-53c0-16-5-24-15-24-3.33 0-10.67 4.5-22 13.5S127.67 609 113 609Z" horiz-adv-x="284" vert-adv-y="1000"/><glyph glyph-name="unif6" unicode="ö" d="M30 86c0-26.67 8.33-48.17 25-64.5S93.33-3 120-3h44c26.67 0 48.33 8.17 65 24.5s25 37.83 25 64.5v308c0 26.67-8.33 48.17-25 64.5S190.67 483 164 483h-44c-26.67 0-48.33-8.17-65-24.5S30 420.67 30 394Zm82 301c0 13.33 6.67 20 20 20h20c13.33 0 20-6.67 20-20V93c0-13.33-6.67-20-20-20h-20c-13.33 0-20 6.67-20 20ZM56 626v-92h70v92Zm172-92v92h-70v-92Z" horiz-adv-x="284" vert-adv-y="1000"/><glyph glyph-name="unif7" unicode="÷" d="M254 315v70H30v-70ZM104 429h76v91h-76Zm0-248h76v90h-76Z" horiz-adv-x="284" vert-adv-y="1000"/><glyph glyph-name="unif8" unicode="ø" d="M120 483c-26.67 0-48.33-8.17-65-24.5S30 420.67 30 394V86c0-26.67 8.33-48.33 25-65L47 0l22-9 6 16C86.33.33 101.33-3 120-3h44c26.67 0 48.33 8.17 65 24.5s25 37.83 25 64.5v308c0 24.67-7.33 45.33-22 62l9 24-22 9-6-18c-14 8-30.33 12-49 12Zm-8-299v203c0 13.33 6.67 20 20 20h20c13.33 0 20-6.67 20-20v-32Zm60 100V93c0-13.33-6.67-20-20-20h-20c-13.33 0-20 6.67-20 20v20Z" horiz-adv-x="284" vert-adv-y="1000"/><glyph glyph-name="unif9" unicode="ù" d="M30 86c0-26.67 6-48.17 18-64.5S76-3 96-3h33c17.33 0 31.67 6.33 43 19V0h82v480h-82V93c0-13.33-6.67-20-20-20h-20c-13.33 0-20 6.67-20 20v387H30Zm26 582 65-137h64l-42 137Z" horiz-adv-x="284" vert-adv-y="1000"/><glyph glyph-name="unifa" unicode="ú" d="M30 86c0-26.67 6-48.17 18-64.5S76-3 96-3h33c17.33 0 31.67 6.33 43 19V0h82v480h-82V93c0-13.33-6.67-20-20-20h-20c-13.33 0-20 6.67-20 20v387H30Zm68 445h63l66 137h-87Z" horiz-adv-x="284" vert-adv-y="1000"/><glyph glyph-name="unifb" unicode="û" d="M30 86c0-26.67 6-48.17 18-64.5S76-3 96-3h33c17.33 0 31.67 6.33 43 19V0h82v480h-82V93c0-13.33-6.67-20-20-20h-20c-13.33 0-20 6.67-20 20v387H30Zm24 444h59l29 76 29-76h58l-58 137h-59Z" horiz-adv-x="284" vert-adv-y="1000"/><glyph glyph-name="unifc" unicode="ü" d="M30 86c0-26.67 6-48.17 18-64.5S76-3 96-3h33c17.33 0 31.67 6.33 43 19V0h82v480h-82V93c0-13.33-6.67-20-20-20h-20c-13.33 0-20 6.67-20 20v387H30Zm26 540v-92h70v92Zm172-92v92h-70v-92Z" horiz-adv-x="284" vert-adv-y="1000"/><glyph glyph-name="unifd" unicode="ý" d="M7 480 80 0h34l-10-81c-.67-10-5-18-13-24s-17.33-9-28-9H45v-76h31c55.33 0 88.67 34.33 100 103l82 567h-80l-41-326c-2.67-19.33-4-43.67-4-73h-2c0 29.33-1.33 53.67-4 73L88 480Zm79 51h63l66 137h-87Z" horiz-adv-x="265" vert-adv-y="1000"/><glyph glyph-name="unife" unicode="þ" d="M30 720v-910h82V17c11.33-13.33 26-20 44-20h33c20 0 36 8.17 48 24.5s18 37.83 18 64.5v308c0 26.67-6 48.17-18 64.5S209 483 189 483h-33c-18 0-32.67-6.67-44-20v257Zm83-333c0 13.33 6.67 20 20 20h20c13.33 0 20-6.67 20-20V93c0-13.33-6.67-20-20-20h-20c-13.33 0-20 6.67-20 20Z" horiz-adv-x="285" vert-adv-y="1000"/><glyph glyph-name="uniff" unicode="ÿ" d="M80 0h34l-10-81c-.67-10-5-18-13-24s-17.33-9-28-9H45v-76h31c55.33 0 88.67 34.33 100 103l82 567h-80l-41-326c-2.67-19.33-4-43.67-4-73h-2c0 29.33-1.33 53.67-4 73L88 480H7Zm34 534v92H44v-92Zm102 0v92h-70v-92Z" horiz-adv-x="265" vert-adv-y="1000"/><glyph glyph-name="uni0100" unicode="Ā" d="M7 0h82l17 162h81L204 0h82l-81 700H88Zm228 757v69H59v-69ZM113 237l30 281c2 22 3 46.33 3 73h2c0-34 1-58.33 3-73l29-281Z" horiz-adv-x="293" vert-adv-y="1000"/><glyph glyph-name="uni0101" unicode="ā" d="M30 86c0-26.67 6-48.17 18-64.5S76-3 96-3h33c18 0 32.67 6.67 44 20V0h82v394c0 26.67-8.33 48.17-25 64.5S191.67 483 165 483h-44c-26.67 0-48.33-8.17-65-24.5S31 420.67 31 394v-67h82v57c0 6 1.83 11.33 5.5 16s8.5 7 14.5 7h20c6 0 10.83-2.33 14.5-7s5.5-10 5.5-16V268c-12 14-26.67 21-44 21H96c-20 0-36-8.17-48-24.5S30 226.33 30 199Zm201 451v69H55v-69ZM132 73c-13.33 0-20 6.67-20 20v100c0 13.33 6.67 20 20 20h20c13.33 0 20-6.67 20-20V93c0-13.33-6.67-20-20-20Z" horiz-adv-x="285" vert-adv-y="1000"/><glyph glyph-name="uni0102" unicode="Ă" d="M7 0h82l17 162h81L204 0h82l-81 700H88Zm48 828c0-22 6.67-39.67 20-53 13.33-13.33 31.33-20 54-20h36c22.67 0 40.67 6.67 54 20 13.33 13.33 20 31 20 53v32h-65v-31c0-11.33-6-17-18-17h-18c-12 0-18 5.67-18 17v31H55Zm58-591 30 281c2 22 3 46.33 3 73h2c0-34 1-58.33 3-73l29-281Z" horiz-adv-x="293" vert-adv-y="1000"/><glyph glyph-name="uni0103" unicode="ă" d="M96 289c-20 0-36-8.17-48-24.5S30 226.33 30 199V86c0-26.67 6-48.17 18-64.5S76-3 96-3h33c18 0 32.67 6.67 44 20V0h82v394c0 26.67-8.33 48.17-25 64.5S191.67 483 165 483h-44c-26.67 0-48.33-8.17-65-24.5S31 420.67 31 394v-67h82v57c0 6 1.83 11.33 5.5 16s8.5 7 14.5 7h20c6 0 10.83-2.33 14.5-7s5.5-10 5.5-16V268c-12 14-26.67 21-44 21ZM51 640v-32c0-22 6.67-39.67 20-53 13.33-13.33 31.33-20 54-20h36c22.67 0 40.67 6.67 54 20 13.33 13.33 20 31 20 53v32h-65v-31c0-11.33-6-17-18-17h-18c-12 0-18 5.67-18 17v31Zm61-447c0 13.33 6.67 20 20 20h20c13.33 0 20-6.67 20-20V93c0-13.33-6.67-20-20-20h-20c-13.33 0-20 6.67-20 20Z" horiz-adv-x="285" vert-adv-y="1000"/><glyph glyph-name="uni0104" unicode="Ą" d="M7 0h82l17 162h81L204 0h21l-22-34c-10-16.67-15-34.67-15-54 0-18 6-32.67 18-44 12-11.33 27.67-17 47-17h55v50l-40-1c-10 0-18.17 2.33-24.5 7-6.33 4.67-9.5 10.67-9.5 18 0 10.67 4 21.33 12 32l27 43h13l-81 700H88Zm106 237 30 281c2 22 3 46.33 3 73h2c0-34 1-58.33 3-73l29-281Z" horiz-adv-x="293" vert-adv-y="1000"/><glyph glyph-name="uni0105" unicode="ą" d="M96 289c-20 0-36-8.17-48-24.5S30 226.33 30 199V86c0-26.67 6-48.17 18-64.5S76-3 96-3h33c18 0 32.67 6.67 44 20V0h13l-22-34c-10-16.67-15-34.67-15-54 0-18 6-32.67 18-44 12-11.33 27.67-17 47-17h56v50l-41-1c-10 0-18.17 2.33-24.5 7-6.33 4.67-9.5 10.67-9.5 18 0 10 4 20.67 12 32l27 43h21v394c0 26.67-8.33 48.17-25 64.5S191.67 483 165 483h-44c-26.67 0-48.33-8.17-65-24.5S31 420.67 31 394v-67h82v57c0 6 1.83 11.33 5.5 16s8.5 7 14.5 7h20c6 0 10.83-2.33 14.5-7s5.5-10 5.5-16V268c-12 14-26.67 21-44 21Zm36-216c-13.33 0-20 6.67-20 20v100c0 13.33 6.67 20 20 20h20c13.33 0 20-6.67 20-20V93c0-13.33-6.67-20-20-20Z" horiz-adv-x="285" vert-adv-y="1000"/><glyph glyph-name="uni0106" unicode="Ć" d="M35 607V93c0-28.67 8.83-51.83 26.5-69.5S102.33-3 131-3h54c28.67 0 51.83 8.83 69.5 26.5S281 64.33 281 93v131h-88V99c0-13.33-6.67-20-20-20h-30c-13.33 0-20 6.67-20 20v502c0 13.33 6.67 20 20 20h30c13.33 0 20-6.67 20-20V472h88v135c0 28.67-8.83 51.83-26.5 69.5S213.67 703 185 703h-54c-28.67 0-51.83-8.83-69.5-26.5S35 635.67 35 607Zm79 144h63l66 137h-87Z" horiz-adv-x="311" vert-adv-y="1000"/><glyph glyph-name="uni0107" unicode="ć" d="M30 394V86c0-26.67 8.33-48.17 25-64.5S93.33-3 120-3h44c26.67 0 48.33 8.17 65 24.5s25 37.83 25 64.5v93h-82V93c0-13.33-6.67-20-20-20h-20c-13.33 0-20 6.67-20 20v294c0 13.33 6.67 20 20 20h20c13.33 0 20-6.67 20-20v-86h82v93c0 26.67-8.33 48.17-25 64.5S190.67 483 164 483h-44c-26.67 0-48.33-8.17-65-24.5S30 420.67 30 394Zm68 137h63l66 137h-87Z" horiz-adv-x="274" vert-adv-y="1000"/><glyph glyph-name="uni0108" unicode="Ĉ" d="M35 607V93c0-28.67 8.83-51.83 26.5-69.5S102.33-3 131-3h54c28.67 0 51.83 8.83 69.5 26.5S281 64.33 281 93v131h-88V99c0-13.33-6.67-20-20-20h-30c-13.33 0-20 6.67-20 20v502c0 13.33 6.67 20 20 20h30c13.33 0 20-6.67 20-20V472h88v135c0 28.67-8.83 51.83-26.5 69.5S213.67 703 185 703h-54c-28.67 0-51.83-8.83-69.5-26.5S35 635.67 35 607Zm94 143 29 76 29-76h58l-57 137h-60L71 750Z" horiz-adv-x="311" vert-adv-y="1000"/><glyph glyph-name="uni0109" unicode="ĉ" d="M30 394V86c0-26.67 8.33-48.17 25-64.5S93.33-3 120-3h44c26.67 0 48.33 8.17 65 24.5s25 37.83 25 64.5v93h-82V93c0-13.33-6.67-20-20-20h-20c-13.33 0-20 6.67-20 20v294c0 13.33 6.67 20 20 20h20c13.33 0 20-6.67 20-20v-86h82v93c0 26.67-8.33 48.17-25 64.5S190.67 483 164 483h-44c-26.67 0-48.33-8.17-65-24.5S30 420.67 30 394Zm83 136 29 76 29-76h58l-58 137h-59L54 530Z" horiz-adv-x="274" vert-adv-y="1000"/><glyph glyph-name="uni010A" unicode="Ċ" d="M35 93c0-28.67 8.83-51.83 26.5-69.5S102.33-3 131-3h54c28.67 0 51.83 8.83 69.5 26.5S281 64.33 281 93v131h-88V99c0-13.33-6.67-20-20-20h-30c-13.33 0-20 6.67-20 20v502c0 13.33 6.67 20 20 20h30c13.33 0 20-6.67 20-20V472h88v135c0 28.67-8.83 51.83-26.5 69.5S213.67 703 185 703h-54c-28.67 0-51.83-8.83-69.5-26.5S35 635.67 35 607Zm164 661v103h-82V754Z" horiz-adv-x="311" vert-adv-y="1000"/><glyph glyph-name="uni010B" unicode="ċ" d="M30 86c0-26.67 8.33-48.17 25-64.5S93.33-3 120-3h44c26.67 0 48.33 8.17 65 24.5s25 37.83 25 64.5v93h-82V93c0-13.33-6.67-20-20-20h-20c-13.33 0-20 6.67-20 20v294c0 13.33 6.67 20 20 20h20c13.33 0 20-6.67 20-20v-86h82v93c0 26.67-8.33 48.17-25 64.5S190.67 483 164 483h-44c-26.67 0-48.33-8.17-65-24.5S30 420.67 30 394Zm153 448v103h-82V534Z" horiz-adv-x="274" vert-adv-y="1000"/><glyph glyph-name="uni010C" unicode="Č" d="M35 607V93c0-28.67 8.83-51.83 26.5-69.5S102.33-3 131-3h54c28.67 0 51.83 8.83 69.5 26.5S281 64.33 281 93v131h-88V99c0-13.33-6.67-20-20-20h-30c-13.33 0-20 6.67-20 20v502c0 13.33 6.67 20 20 20h30c13.33 0 20-6.67 20-20V472h88v135c0 28.67-8.83 51.83-26.5 69.5S213.67 703 185 703h-54c-28.67 0-51.83-8.83-69.5-26.5S35 635.67 35 607Zm36 280 57-137h60l57 137h-58l-29-76-29 76Z" horiz-adv-x="311" vert-adv-y="1000"/><glyph glyph-name="uni010D" unicode="č" d="M120-3h44c26.67 0 48.33 8.17 65 24.5s25 37.83 25 64.5v93h-82V93c0-13.33-6.67-20-20-20h-20c-13.33 0-20 6.67-20 20v294c0 13.33 6.67 20 20 20h20c13.33 0 20-6.67 20-20v-86h82v93c0 26.67-8.33 48.17-25 64.5S190.67 483 164 483h-44c-26.67 0-48.33-8.17-65-24.5S30 420.67 30 394V86c0-26.67 8.33-48.17 25-64.5S93.33-3 120-3Zm-8 533h59l58 137h-58l-29-76-29 76H54Z" horiz-adv-x="274" vert-adv-y="1000"/><glyph glyph-name="uni010E" unicode="Ď" d="M35 0h150c28.67 0 51.83 8.67 69.5 26S281 66.67 281 96v508c0 29.33-8.83 52.67-26.5 70s-40.83 26-69.5 26H35Zm138 624c13.33 0 20-6.67 20-20V96c0-13.33-6.67-20-20-20h-50v548ZM55 887l58-137h59l58 137h-59l-28-76-30 76Z" horiz-adv-x="316" vert-adv-y="1000"/><glyph glyph-name="uni010F" unicode="ď" d="M30 86c0-26.67 6-48.17 18-64.5S76-3 96-3h33c18 0 32.67 6.67 44 20V0h82v720h-82V463c-11.33 13.33-26 20-44 20H96c-20 0-36-8.17-48-24.5S30 420.67 30 394Zm82 301c0 13.33 6.67 20 20 20h20c13.33 0 20-6.67 20-20V93c0-13.33-6.67-20-20-20h-20c-13.33 0-20 6.67-20 20Zm202 207 38 126h-65l-21-126Z" horiz-adv-x="352" vert-adv-y="1000"/><glyph glyph-name="uni0110" unicode="Đ" d="M35 328V0h150c28.67 0 51.83 8.67 69.5 26S281 66.67 281 96v508c0 29.33-8.83 52.67-26.5 70s-40.83 26-69.5 26H35V372H3v-44Zm128 0v44h-40v252h50c13.33 0 20-6.67 20-20V96c0-13.33-6.67-20-20-20h-50v252Z" horiz-adv-x="316" vert-adv-y="1000"/><glyph glyph-name="uni0111" unicode="đ" d="M77 483c-20 0-36-8.17-48-24.5S11 420.67 11 394V86c0-26.67 6-48.17 18-64.5S57-3 77-3h33c18 0 32.67 6.67 44 20V0h82v610h27v39h-27v71h-82v-71H70v-39h84V463c-11.33 13.33-26 20-44 20Zm16-96c0 13.33 6.67 20 20 20h20c13.33 0 20-6.67 20-20V93c0-13.33-6.67-20-20-20h-20c-13.33 0-20 6.67-20 20Z" horiz-adv-x="266" vert-adv-y="1000"/><glyph glyph-name="uni0112" unicode="Ē" d="M35 0h192v76H123v236h96v76h-96v236h104v76H35Zm185 757v69H43v-69Z" horiz-adv-x="250" vert-adv-y="1000"/><glyph glyph-name="uni0113" unicode="ē" d="M30 86c0-26.67 8.33-48.17 25-64.5S93.33-3 120-3h44c26.67 0 48.33 8.17 65 24.5s25 37.83 25 64.5v75h-82V93c0-13.33-6.67-20-20-20h-20c-13.33 0-20 6.67-20 20v113h142v188c0 26.67-8.33 48.17-25 64.5S190.67 483 164 483h-44c-26.67 0-48.33-8.17-65-24.5S30 420.67 30 394Zm24 520v-69h176v69Zm58-330v111c0 13.33 6.67 20 20 20h20c13.33 0 20-6.67 20-20V276Z" horiz-adv-x="282" vert-adv-y="1000"/><glyph glyph-name="uni0114" unicode="Ĕ" d="M35 0h192v76H123v236h96v76h-96v236h104v76H35Zm5 860v-32c0-22 6.67-39.67 20-53 13.33-13.33 31-20 53-20h37c22 0 39.67 6.67 53 20 13.33 13.33 20 31 20 53v32h-64v-31c0-11.33-6.33-17-19-17h-18c-12 0-18 5.67-18 17v31Z" horiz-adv-x="250" vert-adv-y="1000"/><glyph glyph-name="uni0115" unicode="ĕ" d="M30 394V86c0-26.67 8.33-48.17 25-64.5S93.33-3 120-3h44c26.67 0 48.33 8.17 65 24.5s25 37.83 25 64.5v75h-82V93c0-13.33-6.67-20-20-20h-20c-13.33 0-20 6.67-20 20v113h142v188c0 26.67-8.33 48.17-25 64.5S190.67 483 164 483h-44c-26.67 0-48.33-8.17-65-24.5S30 420.67 30 394Zm94 141h36c22.67 0 40.67 6.67 54 20 13.33 13.33 20 31 20 53v32h-65v-31c0-11.33-6-17-18-17h-18c-12 0-18 5.67-18 17v31H50v-32c0-22 6.67-39.67 20-53 13.33-13.33 31.33-20 54-20Zm-12-259v111c0 13.33 6.67 20 20 20h20c13.33 0 20-6.67 20-20V276Z" horiz-adv-x="282" vert-adv-y="1000"/><glyph glyph-name="uni0116" unicode="Ė" d="M227 0v76H123v236h96v76h-96v236h104v76H35V0Zm-55 754v103H90V754Z" horiz-adv-x="250" vert-adv-y="1000"/><glyph glyph-name="uni0117" unicode="ė" d="M30 86c0-26.67 8.33-48.17 25-64.5S93.33-3 120-3h44c26.67 0 48.33 8.17 65 24.5s25 37.83 25 64.5v75h-82V93c0-13.33-6.67-20-20-20h-20c-13.33 0-20 6.67-20 20v113h142v188c0 26.67-8.33 48.17-25 64.5S190.67 483 164 483h-44c-26.67 0-48.33-8.17-65-24.5S30 420.67 30 394Zm153 448v103h-82V534Zm-71-258v111c0 13.33 6.67 20 20 20h20c13.33 0 20-6.67 20-20V276Z" horiz-adv-x="282" vert-adv-y="1000"/><glyph glyph-name="uni0118" unicode="Ę" d="m154 0-22-34c-10.67-18-16-36-16-54s6.17-32.67 18.5-44c12.33-11.33 28.17-17 47.5-17h55v50l-40-1c-10 0-18.17 2.33-24.5 7-6.33 4.67-9.5 10.67-9.5 18 0 10 3.67 20.67 11 32l27 43h26v76H123v236h96v76h-96v236h104v76H35V0Z" horiz-adv-x="250" vert-adv-y="1000"/><glyph glyph-name="uni0119" unicode="ę" d="M30 86c0-26.67 8.33-48.17 25-64.5S93.33-3 120-3h11l-20-31c-10.67-18-16-36-16-54s6.17-32.67 18.5-44c12.33-11.33 28.17-17 47.5-17h55v50l-40-1c-10 0-18.17 2.33-24.5 7-6.33 4.67-9.5 10.67-9.5 18 0 10 3.67 20.67 11 32l26 41c22.67 3.33 40.83 12.83 54.5 28.5C247.17 42.17 254 62 254 86v75h-82V93c0-13.33-6.67-20-20-20h-20c-13.33 0-20 6.67-20 20v113h142v188c0 26.67-8.33 48.17-25 64.5S190.67 483 164 483h-44c-26.67 0-48.33-8.17-65-24.5S30 420.67 30 394Zm82 301c0 13.33 6.67 20 20 20h20c13.33 0 20-6.67 20-20V276h-60Z" horiz-adv-x="282" vert-adv-y="1000"/><glyph glyph-name="uni011A" unicode="Ě" d="M227 0v76H123v236h96v76h-96v236h104v76H35V0ZM44 887l57-137h60l57 137h-58l-29-76-29 76Z" horiz-adv-x="250" vert-adv-y="1000"/><glyph glyph-name="uni011B" unicode="ě" d="M120-3h44c26.67 0 48.33 8.17 65 24.5s25 37.83 25 64.5v75h-82V93c0-13.33-6.67-20-20-20h-20c-13.33 0-20 6.67-20 20v113h142v188c0 26.67-8.33 48.17-25 64.5S190.67 483 164 483h-44c-26.67 0-48.33-8.17-65-24.5S30 420.67 30 394V86c0-26.67 8.33-48.17 25-64.5S93.33-3 120-3Zm-8 533h59l58 137h-58l-29-76-29 76H54Zm0-254v111c0 13.33 6.67 20 20 20h20c13.33 0 20-6.67 20-20V276Z" horiz-adv-x="282" vert-adv-y="1000"/><glyph glyph-name="uni011C" unicode="Ĝ" d="M35 607V93c0-28.67 8.83-51.83 26.5-69.5S102.33-3 131-3h54c28.67 0 51.83 8.83 69.5 26.5S281 64.33 281 93v276H151v-75h42V99c0-13.33-6.67-20-20-20h-30c-13.33 0-20 6.67-20 20v502c0 13.33 6.67 20 20 20h30c13.33 0 20-6.67 20-20V472h88v135c0 28.67-8.83 51.83-26.5 69.5S213.67 703 185 703h-54c-28.67 0-51.83-8.83-69.5-26.5S35 635.67 35 607Zm94 143 29 76 29-76h58l-57 137h-60L71 750Z" horiz-adv-x="311" vert-adv-y="1000"/><glyph glyph-name="uni011D" unicode="ĝ" d="M30 86c0-26.67 6-48.17 18-64.5S76-3 96-3h33c18 0 32.67 6.67 44 20V-97c0-13.33-6.67-20-20-20h-19c-13.33 0-20 6.67-20 20v49H32v-56c0-26.67 8.17-48.17 24.5-64.5S94.33-193 121-193h44c26.67 0 48.33 8.17 65 24.5s25 37.83 25 64.5v584h-82v-17c-11.33 13.33-26 20-44 20H96c-20 0-36-8.17-48-24.5S30 420.67 30 394Zm82 301c0 13.33 6.67 20 20 20h20c13.33 0 20-6.67 20-20V93c0-13.33-6.67-20-20-20h-20c-13.33 0-20 6.67-20 20ZM55 530h59l29 76 29-76h58l-58 137h-59Z" horiz-adv-x="285" vert-adv-y="1000"/><glyph glyph-name="uni011E" unicode="Ğ" d="M35 93c0-28.67 8.83-51.83 26.5-69.5S102.33-3 131-3h54c28.67 0 51.83 8.83 69.5 26.5S281 64.33 281 93v276H151v-75h42V99c0-13.33-6.67-20-20-20h-30c-13.33 0-20 6.67-20 20v502c0 13.33 6.67 20 20 20h30c13.33 0 20-6.67 20-20V472h88v135c0 28.67-8.83 51.83-26.5 69.5S213.67 703 185 703h-54c-28.67 0-51.83-8.83-69.5-26.5S35 635.67 35 607Zm105 662h36c22.67 0 40.67 6.67 54 20 13.33 13.33 20 31 20 53v32h-65v-31c0-11.33-6-17-18-17h-18c-12 0-18 5.67-18 17v31H66v-32c0-22 6.67-39.67 20-53 13.33-13.33 31.33-20 54-20Z" horiz-adv-x="311" vert-adv-y="1000"/><glyph glyph-name="uni011F" unicode="ğ" d="M30 86c0-26.67 6-48.17 18-64.5S76-3 96-3h33c18 0 32.67 6.67 44 20V-97c0-13.33-6.67-20-20-20h-19c-13.33 0-20 6.67-20 20v49H32v-56c0-26.67 8.17-48.17 24.5-64.5S94.33-193 121-193h44c26.67 0 48.33 8.17 65 24.5s25 37.83 25 64.5v584h-82v-17c-11.33 13.33-26 20-44 20H96c-20 0-36-8.17-48-24.5S30 420.67 30 394Zm82 301c0 13.33 6.67 20 20 20h20c13.33 0 20-6.67 20-20V93c0-13.33-6.67-20-20-20h-20c-13.33 0-20 6.67-20 20ZM51 608c0-22 6.67-39.67 20-53 13.33-13.33 31.33-20 54-20h36c22.67 0 40.67 6.67 54 20 13.33 13.33 20 31 20 53v32h-65v-31c0-11.33-6-17-18-17h-18c-12 0-18 5.67-18 17v31H51Z" horiz-adv-x="285" vert-adv-y="1000"/><glyph glyph-name="uni0120" unicode="Ġ" d="M35 93c0-28.67 8.83-51.83 26.5-69.5S102.33-3 131-3h54c28.67 0 51.83 8.83 69.5 26.5S281 64.33 281 93v276H151v-75h42V99c0-13.33-6.67-20-20-20h-30c-13.33 0-20 6.67-20 20v502c0 13.33 6.67 20 20 20h30c13.33 0 20-6.67 20-20V472h88v135c0 28.67-8.83 51.83-26.5 69.5S213.67 703 185 703h-54c-28.67 0-51.83-8.83-69.5-26.5S35 635.67 35 607Zm164 661v103h-82V754Z" horiz-adv-x="311" vert-adv-y="1000"/><glyph glyph-name="uni0121" unicode="ġ" d="M30 86c0-26.67 6-48.17 18-64.5S76-3 96-3h33c18 0 32.67 6.67 44 20V-97c0-13.33-6.67-20-20-20h-19c-13.33 0-20 6.67-20 20v49H32v-56c0-26.67 8.17-48.17 24.5-64.5S94.33-193 121-193h44c26.67 0 48.33 8.17 65 24.5s25 37.83 25 64.5v584h-82v-17c-11.33 13.33-26 20-44 20H96c-20 0-36-8.17-48-24.5S30 420.67 30 394Zm102-13c-13.33 0-20 6.67-20 20v294c0 13.33 6.67 20 20 20h20c13.33 0 20-6.67 20-20V93c0-13.33-6.67-20-20-20Zm-30 461h82v103h-82Z" horiz-adv-x="285" vert-adv-y="1000"/><glyph glyph-name="uni0122" unicode="Ģ" d="M35 607V93c0-28.67 8.83-51.83 26.5-69.5S102.33-3 131-3h54c28.67 0 51.83 8.83 69.5 26.5S281 64.33 281 93v276H151v-75h42V99c0-13.33-6.67-20-20-20h-30c-13.33 0-20 6.67-20 20v502c0 13.33 6.67 20 20 20h30c13.33 0 20-6.67 20-20V472h88v135c0 28.67-8.83 51.83-26.5 69.5S213.67 703 185 703h-54c-28.67 0-51.83-8.83-69.5-26.5S35 635.67 35 607Zm122-776 39 126h-66l-21-126Z" horiz-adv-x="311" vert-adv-y="1000"/><glyph glyph-name="uni0123" unicode="ģ" d="M30 86c0-26.67 6-48.17 18-64.5S76-3 96-3h33c18 0 32.67 6.67 44 20V-97c0-13.33-6.67-20-20-20h-19c-13.33 0-20 6.67-20 20v49H32v-56c0-26.67 8.17-48.17 24.5-64.5S94.33-193 121-193h44c26.67 0 48.33 8.17 65 24.5s25 37.83 25 64.5v584h-82v-17c-11.33 13.33-26 20-44 20H96c-20 0-36-8.17-48-24.5S30 420.67 30 394Zm102-13c-13.33 0-20 6.67-20 20v294c0 13.33 6.67 20 20 20h20c13.33 0 20-6.67 20-20V93c0-13.33-6.67-20-20-20Zm38 461 21 126h-48l-39-126Z" horiz-adv-x="285" vert-adv-y="1000"/><glyph glyph-name="uni0124" unicode="Ĥ" d="M123 0v312h70V0h88v700h-88V388h-70v312H35V0ZM71 750h58l29 76 29-76h58l-57 137h-60Z" horiz-adv-x="316" vert-adv-y="1000"/><glyph glyph-name="uni0125" unicode="ĥ" d="M30 0h82v387c0 13.33 6.67 20 20 20h20c13.33 0 20-6.67 20-20V0h82v394c0 26.67-6 48.17-18 64.5S208 483 188 483h-33c-17.33 0-31.67-6.33-43-19v256H30Zm5 750 30 76 29-76h58L94 887H35l-58-137Z" horiz-adv-x="284" vert-adv-y="1000"/><glyph glyph-name="uni0126" unicode="Ħ" d="M311 581v45h-30v74h-88v-74h-70v74H35v-74H5v-45h30V0h88v312h70V0h88v581Zm-118 0V388h-70v193Z" horiz-adv-x="316" vert-adv-y="1000"/><glyph glyph-name="uni0127" unicode="ħ" d="M197 610v39h-85v71H30v-71H3v-39h27V0h82v387c0 13.33 6.67 20 20 20h20c13.33 0 20-6.67 20-20V0h82v394c0 26.67-6 48.17-18 64.5S208 483 188 483h-33c-17.33 0-31.67-6.33-43-19v146Z" horiz-adv-x="284" vert-adv-y="1000"/><glyph glyph-name="uni0128" unicode="Ĩ" d="M123 0v700H35V0ZM40 754c0 15.33 4.67 23 14 23 3.33 0 10.83-4.33 22.5-13s24.5-13 38.5-13c20 0 35.67 6.83 47 20.5 11.33 13.67 17 31.83 17 54.5h-52c0-16-5.33-24-16-24-2.67 0-9.83 4.5-21.5 13.5S65 829 51 829c-20 0-35.67-6.83-47-20.5-11.33-13.67-17-31.83-17-54.5Z" horiz-adv-x="158" vert-adv-y="1000"/><glyph glyph-name="uni0129" unicode="ĩ" d="M112 0v480H30V0ZM39 609c-19.33 0-34.5-6.83-45.5-20.5S-23 556.67-23 534h53c0 15.33 5 23 15 23 2.67 0 9.67-4.33 21-13s24-13 38-13c19.33 0 34.5 6.83 45.5 20.5S166 583.33 166 606h-53c0-16-5-24-15-24-2.67 0-9.67 4.5-21 13.5S53 609 39 609Z" horiz-adv-x="142" vert-adv-y="1000"/><glyph glyph-name="uni012A" unicode="Ī" d="M35 0h88v700H35ZM-9 757h176v69H-9Z" horiz-adv-x="158" vert-adv-y="1000"/><glyph glyph-name="uni012B" unicode="ī" d="M30 0h82v480H30Zm-42 537h166v69H-12Z" horiz-adv-x="142" vert-adv-y="1000"/><glyph glyph-name="uni012C" unicode="Ĭ" d="M35 0h88v700H35Zm-48 828c0-22 6.67-39.67 20-53 13.33-13.33 31.33-20 54-20h36c22.67 0 40.67 6.67 54 20 13.33 13.33 20 31 20 53v32h-65v-31c0-11.33-6-17-18-17H70c-12 0-18 5.67-18 17v31h-65Z" horiz-adv-x="158" vert-adv-y="1000"/><glyph glyph-name="uni012D" unicode="ĭ" d="M30 0h82v480H30Zm-49 608c0-22 6.67-39.67 20-53 13.33-13.33 31.33-20 54-20h32c22.67 0 40.67 6.67 54 20 13.33 13.33 20 31 20 53v32H96v-31c0-11.33-6-17-18-17H64c-12 0-18 5.67-18 17v31h-65Z" horiz-adv-x="142" vert-adv-y="1000"/><glyph glyph-name="uni012E" unicode="Į" d="M38-34C27.33-52 22-70 22-88s6-32.67 18-44c12-11.33 27.67-17 47-17h56v50l-40-1c-10.67 0-19.17 2.33-25.5 7-6.33 4.67-9.5 10.67-9.5 18 0 8.67 4 19.33 12 32l27 43h16v700H35V0h24Z" horiz-adv-x="158" vert-adv-y="1000"/><glyph glyph-name="uni012F" unicode="į" d="M26-34C16-50.67 11-68.67 11-88c0-18 6-32.67 18-44 12-11.33 27.67-17 47-17h55v50l-40-1c-10 0-18.17 2.33-24.5 7-6.33 4.67-9.5 10.67-9.5 18 0 10 4 20.67 12 32L96 0h16v480H30V0h18Zm86 612v103H30V578Z" horiz-adv-x="142" vert-adv-y="1000"/><glyph glyph-name="uni0130" unicode="İ" d="M35 0h88v700H35Zm3 754h82v103H38Z" horiz-adv-x="158" vert-adv-y="1000"/><glyph glyph-name="uni0131" unicode="ı" d="M30 0h82v480H30Z" horiz-adv-x="142" vert-adv-y="1000"/><glyph glyph-name="uni0132" unicode="Ĳ" d="M30 93c0-28.67 8.67-51.83 26-69.5S96.67-3 126-3h54c29.33 0 52.67 8.83 70 26.5s26 40.83 26 69.5v607h-88V99c0-13.33-6.67-20-20-20h-30c-13.33 0-20 6.67-20 20v114H30Zm0 607V313h88v387Z" horiz-adv-x="311" vert-adv-y="1000"/><glyph glyph-name="uni0133" unicode="ĳ" d="M93-190h57c31.33 0 56.5 9.5 75.5 28.5S254-117.67 254-87v567h-82V-81c0-10-3.17-18-9.5-24s-14.5-9-24.5-9H93ZM30 0h82v480H30Zm142 578h82v103h-82Zm-142 0h82v103H30Z" horiz-adv-x="284" vert-adv-y="1000"/><glyph glyph-name="uni0134" unicode="Ĵ" d="M15 93c0-28.67 8.83-51.83 26.5-69.5S82.33-3 111-3h54c28.67 0 51.83 8.83 69.5 26.5S261 64.33 261 93v607h-88V99c0-13.33-6.67-20-20-20h-30c-13.33 0-20 6.67-20 20v114H15Zm112 657h59l29 76 29-76h58l-58 137h-59Z" horiz-adv-x="296" vert-adv-y="1000"/><glyph glyph-name="uni0135" unicode="ĵ" d="M9-190c31.33 0 56.33 9.33 75 28s28 43.67 28 75v567H30V-81c0-10-3-18-9-24s-14.33-9-25-9h-24v-76Zm28 720 30 76 28-76h59L96 667H36l-57-137Z" horiz-adv-x="142" vert-adv-y="1000"/><glyph glyph-name="uni0136" unicode="Ķ" d="M35 0h88v291L196 0h85l-99 361 94 339h-85l-68-270v270H35Zm73-169h49l38 126h-66Z" horiz-adv-x="286" vert-adv-y="1000"/><glyph glyph-name="uni0137" unicode="ķ" d="M30 0h82v194L183 0h85l-94 245 91 235h-85l-68-185v425H30Zm69-169h49l38 126h-66Z" horiz-adv-x="273" vert-adv-y="1000"/><glyph glyph-name="uni0139" unicode="Ĺ" d="M227 0v76H123v624H35V0ZM37 751h64l65 137H79Z" horiz-adv-x="237" vert-adv-y="1000"/><glyph glyph-name="uni013A" unicode="ĺ" d="M30 0h82v720H30Zm60 751 66 137H69L27 751Z" horiz-adv-x="142" vert-adv-y="1000"/><glyph glyph-name="uni013B" unicode="Ļ" d="M227 0v76H123v624H35V0ZM81-169h49l38 126h-66Z" horiz-adv-x="237" vert-adv-y="1000"/><glyph glyph-name="uni013C" unicode="ļ" d="M30 0h82v720H30Zm-9-169h49l38 126H42Z" horiz-adv-x="142" vert-adv-y="1000"/><glyph glyph-name="uni013D" unicode="Ľ" d="M227 0v76H123v624H35V0Zm-32 562 35 138h-63l-18-138Z" horiz-adv-x="237" vert-adv-y="1000"/><glyph glyph-name="uni013E" unicode="ľ" d="M112 0v720H30V0Zm11 594h49l38 126h-66Z" horiz-adv-x="210" vert-adv-y="1000"/><glyph glyph-name="uni013F" unicode="Ŀ" d="M227 0v76H123v624H35V0Zm-64 298h63v104h-63Z" horiz-adv-x="237" vert-adv-y="1000"/><glyph glyph-name="uni0140" unicode="ŀ" d="M30 0h82v720H30Zm139 298h82v104h-82Z" horiz-adv-x="278" vert-adv-y="1000"/><glyph glyph-name="uni0141" unicode="Ł" d="m0 356 19-33 16 9V0h192v76H123v307l88 51-20 33-68-40v273H35V376Z" horiz-adv-x="237" vert-adv-y="1000"/><glyph glyph-name="uni0142" unicode="ł" d="m-5 354 19-33 30 17V0h82v386l49 28-19 33-30-17v290H44V383Z" horiz-adv-x="170" vert-adv-y="1000"/><glyph glyph-name="uni0143" unicode="Ń" d="M35 0h85v364c0 12-1.67 36.33-5 73h2c2.67-29.33 6.67-53.33 12-72L198 0h85v700h-85V334c0-12 1.67-36.33 5-73h-2c-2.67 27.33-6.33 51.33-11 72l-70 367H35Zm80 751h64l65 137h-87Z" horiz-adv-x="318" vert-adv-y="1000"/><glyph glyph-name="uni0144" unicode="ń" d="M30 0h82v387c0 13.33 6.67 20 20 20h20c13.33 0 20-6.67 20-20V0h82v394c0 26.67-6 48.17-18 64.5S208 483 188 483h-33c-17.33 0-31.67-6.33-43-19v16H30Zm63 531h63l66 137h-87Z" horiz-adv-x="284" vert-adv-y="1000"/><glyph glyph-name="uni0145" unicode="Ņ" d="M35 700V0h85v364c0 12-1.67 36.33-5 73h2c2.67-29.33 6.67-53.33 12-72L198 0h85v700h-85V334c0-12 1.67-36.33 5-73h-2c-2.67 27.33-6.33 51.33-11 72l-70 367Zm123-869 38 126h-66l-21-126Z" horiz-adv-x="318" vert-adv-y="1000"/><glyph glyph-name="uni0146" unicode="ņ" d="M30 0h82v387c0 13.33 6.67 20 20 20h20c13.33 0 20-6.67 20-20V0h82v394c0 26.67-6 48.17-18 64.5S208 483 188 483h-33c-17.33 0-31.67-6.33-43-19v16H30Zm110-169 39 126h-66L92-169Z" horiz-adv-x="284" vert-adv-y="1000"/><glyph glyph-name="uni0147" unicode="Ň" d="M35 700V0h85v364c0 12-1.67 36.33-5 73h2c2.67-29.33 6.67-53.33 12-72L198 0h85v700h-85V334c0-12 1.67-36.33 5-73h-2c-2.67 27.33-6.33 51.33-11 72l-70 367Zm94 50h60l57 137h-58l-29-76-29 76H72Z" horiz-adv-x="318" vert-adv-y="1000"/><glyph glyph-name="uni0148" unicode="ň" d="M30 0h82v387c0 13.33 6.67 20 20 20h20c13.33 0 20-6.67 20-20V0h82v394c0 26.67-6 48.17-18 64.5S208 483 188 483h-33c-17.33 0-31.67-6.33-43-19v16H30Zm77 530h60l57 137h-58l-29-76-29 76H49Z" horiz-adv-x="284" vert-adv-y="1000"/><glyph glyph-name="uni014A" unicode="Ŋ" d="M120 0v364c0 12-1.67 36.33-5 73h2c2.67-29.33 6.67-53.33 12-72L197 3v-94c0-13.33-6.67-20-20-20h-48v-82h58c28.67 0 51.83 8.83 69.5 26.5S283-125.67 283-97v797h-85V334c0-12 1.67-36.33 5-73h-2c-2.67 27.33-6.33 51.33-11 72l-70 367H35V0Z" horiz-adv-x="318" vert-adv-y="1000"/><glyph glyph-name="uni014B" unicode="ŋ" d="M30 480V0h82v387c0 13.33 6.67 20 20 20h20c13.33 0 20-6.67 20-20V-81c0-10-3.17-18-9.5-24s-14.5-9-24.5-9h-21v-76h33c31.33 0 56.5 9.5 75.5 28.5S254-117.67 254-87v481c0 26.67-6 48.17-18 64.5S208 483 188 483h-33c-17.33 0-31.67-6.33-43-19v16Z" horiz-adv-x="284" vert-adv-y="1000"/><glyph glyph-name="uni014C" unicode="Ō" d="M131 703c-28.67 0-51.83-8.83-69.5-26.5S35 635.67 35 607V93c0-28.67 8.83-51.83 26.5-69.5S102.33-3 131-3h54c28.67 0 51.83 8.83 69.5 26.5S281 64.33 281 93v514c0 28.67-8.83 51.83-26.5 69.5S213.67 703 185 703Zm-8-102c0 13.33 6.67 20 20 20h30c13.33 0 20-6.67 20-20V99c0-13.33-6.67-20-20-20h-30c-13.33 0-20 6.67-20 20ZM70 826v-69h176v69Z" horiz-adv-x="316" vert-adv-y="1000"/><glyph glyph-name="uni014D" unicode="ō" d="M120 483c-26.67 0-48.33-8.17-65-24.5S30 420.67 30 394V86c0-26.67 8.33-48.17 25-64.5S93.33-3 120-3h44c26.67 0 48.33 8.17 65 24.5s25 37.83 25 64.5v308c0 26.67-8.33 48.17-25 64.5S190.67 483 164 483Zm-8-96c0 13.33 6.67 20 20 20h20c13.33 0 20-6.67 20-20V93c0-13.33-6.67-20-20-20h-20c-13.33 0-20 6.67-20 20Zm118 150v69H54v-69Z" horiz-adv-x="284" vert-adv-y="1000"/><glyph glyph-name="uni014E" unicode="Ŏ" d="M35 93c0-28.67 8.83-51.83 26.5-69.5S102.33-3 131-3h54c28.67 0 51.83 8.83 69.5 26.5S281 64.33 281 93v514c0 28.67-8.83 51.83-26.5 69.5S213.67 703 185 703h-54c-28.67 0-51.83-8.83-69.5-26.5S35 635.67 35 607Zm88 508c0 13.33 6.67 20 20 20h30c13.33 0 20-6.67 20-20V99c0-13.33-6.67-20-20-20h-30c-13.33 0-20 6.67-20 20ZM66 860v-32c0-22 6.67-39.67 20-53 13.33-13.33 31.33-20 54-20h36c22.67 0 40.67 6.67 54 20 13.33 13.33 20 31 20 53v32h-65v-31c0-11.33-6-17-18-17h-18c-12 0-18 5.67-18 17v31Z" horiz-adv-x="316" vert-adv-y="1000"/><glyph glyph-name="uni014F" unicode="ŏ" d="M120 483c-26.67 0-48.33-8.17-65-24.5S30 420.67 30 394V86c0-26.67 8.33-48.17 25-64.5S93.33-3 120-3h44c26.67 0 48.33 8.17 65 24.5s25 37.83 25 64.5v308c0 26.67-8.33 48.17-25 64.5S190.67 483 164 483Zm12-410c-13.33 0-20 6.67-20 20v294c0 13.33 6.67 20 20 20h20c13.33 0 20-6.67 20-20V93c0-13.33-6.67-20-20-20ZM50 608c0-22 6.67-39.67 20-53 13.33-13.33 31.33-20 54-20h36c22.67 0 40.67 6.67 54 20 13.33 13.33 20 31 20 53v32h-65v-31c0-11.33-6-17-18-17h-18c-12 0-18 5.67-18 17v31H50Z" horiz-adv-x="284" vert-adv-y="1000"/><glyph glyph-name="uni0150" unicode="Ő" d="M35 93c0-28.67 8.83-51.83 26.5-69.5S102.33-3 131-3h54c28.67 0 51.83 8.83 69.5 26.5S281 64.33 281 93v514c0 28.67-8.83 51.83-26.5 69.5S213.67 703 185 703h-54c-28.67 0-51.83-8.83-69.5-26.5S35 635.67 35 607Zm88 508c0 13.33 6.67 20 20 20h30c13.33 0 20-6.67 20-20V99c0-13.33-6.67-20-20-20h-30c-13.33 0-20 6.67-20 20ZM81 751h49l54 137h-61Zm132 0 54 137h-61l-42-137Z" horiz-adv-x="316" vert-adv-y="1000"/><glyph glyph-name="uni0151" unicode="ő" d="M30 86c0-26.67 8.33-48.17 25-64.5S93.33-3 120-3h44c26.67 0 48.33 8.17 65 24.5s25 37.83 25 64.5v308c0 26.67-8.33 48.17-25 64.5S190.67 483 164 483h-44c-26.67 0-48.33-8.17-65-24.5S30 420.67 30 394Zm82 301c0 13.33 6.67 20 20 20h20c13.33 0 20-6.67 20-20V93c0-13.33-6.67-20-20-20h-20c-13.33 0-20 6.67-20 20ZM65 531h48l55 137h-61Zm131 0 55 137h-61l-42-137Z" horiz-adv-x="284" vert-adv-y="1000"/><glyph glyph-name="uni0152" unicode="Œ" d="M35 93c0-28.67 6.83-51.83 20.5-69.5S87.33-3 110-3h43c23.33 0 43 7.33 59 22V0h167v76H275v236h95v76h-95v236h104v76H212v-19c-16 14.67-35.67 22-59 22h-43c-22.67 0-40.83-8.83-54.5-26.5C41.83 658.83 35 635.67 35 607Zm88 508c0 13.33 6.67 20 20 20h30c13.33 0 20-6.67 20-20V99c0-13.33-6.67-20-20-20h-30c-13.33 0-20 6.67-20 20Z" horiz-adv-x="402" vert-adv-y="1000"/><glyph glyph-name="uni0153" unicode="œ" d="M30 86c0-26.67 7.67-48.17 23-64.5S88.67-3 114-3h42c23.33 0 42.33 6.67 57 20 14.67-13.33 33.33-20 56-20h43c25.33 0 45.67 8.17 61 24.5 15.33 16.33 23 37.83 23 64.5v75h-82V93c0-13.33-6.67-20-20-20h-20c-13.33 0-20 6.67-20 20v113h142v188c0 26.67-7.67 48.17-23 64.5S337.33 483 312 483h-43c-22.67 0-41.33-6.67-56-20-14.67 13.33-33.67 20-57 20h-42c-25.33 0-45.67-8.17-61-24.5-15.33-16.33-23-37.83-23-64.5Zm82 301c0 13.33 6.67 20 20 20h20c13.33 0 20-6.67 20-20V93c0-13.33-6.67-20-20-20h-20c-13.33 0-20 6.67-20 20Zm142 0c0 13.33 6.67 20 20 20h20c13.33 0 20-6.67 20-20V276h-60Z" horiz-adv-x="424" vert-adv-y="1000"/><glyph glyph-name="uni0154" unicode="Ŕ" d="M35 0h88v302h32L211 0h82l-58 314c30.67 16 46 44 46 84v206c0 29.33-8.83 52.67-26.5 70s-40.83 26-69.5 26H35Zm138 624c13.33 0 20-6.67 20-20V398c0-13.33-6.67-20-20-20h-50v246Zm-22 127 66 137h-88L87 751Z" horiz-adv-x="305" vert-adv-y="1000"/><glyph glyph-name="uni0155" unicode="ŕ" d="M112 0v367c0 12 4.67 21.67 14 29 9.33 7.33 21.67 11 37 11h40v76h-33c-24 0-43.33-10-58-30v27H30V0Zm17 531 66 137h-88L65 531Z" horiz-adv-x="211" vert-adv-y="1000"/><glyph glyph-name="uni0156" unicode="Ŗ" d="M35 0h88v302h32L211 0h82l-58 314c30.67 16 46 44 46 84v206c0 29.33-8.83 52.67-26.5 70s-40.83 26-69.5 26H35Zm138 624c13.33 0 20-6.67 20-20V398c0-13.33-6.67-20-20-20h-50v246Zm-10-793 38 126h-66l-21-126Z" horiz-adv-x="305" vert-adv-y="1000"/><glyph glyph-name="uni0157" unicode="ŗ" d="M30 0h82v367c0 12 4.67 21.67 14 29 9.33 7.33 21.67 11 37 11h40v76h-33c-24 0-43.33-10-58-30v27H30Zm38-169 39 126H41L20-169Z" horiz-adv-x="211" vert-adv-y="1000"/><glyph glyph-name="uni0158" unicode="Ř" d="M35 0h88v302h32L211 0h82l-58 314c30.67 16 46 44 46 84v206c0 29.33-8.83 52.67-26.5 70s-40.83 26-69.5 26H35Zm138 624c13.33 0 20-6.67 20-20V398c0-13.33-6.67-20-20-20h-50v246Zm-71 126h59l58 137h-59l-28-76-30 76H44Z" horiz-adv-x="305" vert-adv-y="1000"/><glyph glyph-name="uni0159" unicode="ř" d="M30 480V0h82v367c0 12 4.67 21.67 14 29 9.33 7.33 21.67 11 37 11h40v76h-33c-24 0-43.33-10-58-30v27Zm-8 187 58-137h59l58 137h-59l-28-76-30 76Z" horiz-adv-x="211" vert-adv-y="1000"/><glyph glyph-name="uni015A" unicode="Ś" d="m70 382 101-112c8-6.67 12-15.33 12-26V99c0-13.33-6.67-20-20-20h-30c-13.33 0-20 6.67-20 20v130H25V93c0-28.67 8.83-51.83 26.5-69.5S92.33-3 121-3h54c28.67 0 51.83 8.83 69.5 26.5S271 64.33 271 93v148c0 16.67-4 33.5-12 50.5S240.33 322 227 332L125 444c-8 6.67-12 15.33-12 26v131c0 13.33 6.67 20 20 20h30c13.33 0 20-6.67 20-20V472h88v135c0 28.67-8.83 51.83-26.5 69.5S203.67 703 175 703h-54c-28.67 0-51.83-8.83-69.5-26.5S25 635.67 25 607V473c0-17.33 4.17-34.33 12.5-51s19.17-30 32.5-40Zm34 369h63l66 137h-87Z" horiz-adv-x="296" vert-adv-y="1000"/><glyph glyph-name="uni015B" unicode="ś" d="m72 235 83-37c10-4.67 15-12.33 15-23V93c0-13.33-6.67-20-20-20h-20c-13.33 0-20 6.67-20 20v68H28V86c0-26.67 8.33-48.17 25-64.5S91.33-3 118-3h44c26.67 0 48.33 8.17 65 24.5s25 37.83 25 64.5v106c0 14.67-4.33 28.5-13 41.5S219 256 205 262l-83 37c-10 3.33-15 10.67-15 22v66c0 13.33 6.67 20 20 20h20c13.33 0 20-6.67 20-20v-64h82v71c0 26.67-8.33 48.17-25 64.5S185.67 483 159 483h-44c-26.67 0-48.33-8.17-65-24.5S25 420.67 25 394v-89c0-14.67 4.33-28.5 13-41.5S58 241 72 235Zm22 296h64l66 137h-88Z" horiz-adv-x="272" vert-adv-y="1000"/><glyph glyph-name="uni015C" unicode="Ŝ" d="m70 382 101-112c8-6.67 12-15.33 12-26V99c0-13.33-6.67-20-20-20h-30c-13.33 0-20 6.67-20 20v130H25V93c0-28.67 8.83-51.83 26.5-69.5S92.33-3 121-3h54c28.67 0 51.83 8.83 69.5 26.5S271 64.33 271 93v148c0 16.67-4 33.5-12 50.5S240.33 322 227 332L125 444c-8 6.67-12 15.33-12 26v131c0 13.33 6.67 20 20 20h30c13.33 0 20-6.67 20-20V472h88v135c0 28.67-8.83 51.83-26.5 69.5S203.67 703 175 703h-54c-28.67 0-51.83-8.83-69.5-26.5S25 635.67 25 607V473c0-17.33 4.17-34.33 12.5-51s19.17-30 32.5-40Zm49 368 29 76 29-76h58l-57 137h-60L61 750Z" horiz-adv-x="296" vert-adv-y="1000"/><glyph glyph-name="uni015D" unicode="ŝ" d="M25 394v-89c0-14.67 4.33-28.5 13-41.5S58 241 72 235l83-37c10-4.67 15-12.33 15-23V93c0-13.33-6.67-20-20-20h-20c-13.33 0-20 6.67-20 20v68H28V86c0-26.67 8.33-48.17 25-64.5S91.33-3 118-3h44c26.67 0 48.33 8.17 65 24.5s25 37.83 25 64.5v106c0 14.67-4.33 28.5-13 41.5S219 256 205 262l-83 37c-10 3.33-15 10.67-15 22v66c0 13.33 6.67 20 20 20h20c13.33 0 20-6.67 20-20v-64h82v71c0 26.67-8.33 48.17-25 64.5S185.67 483 159 483h-44c-26.67 0-48.33-8.17-65-24.5S25 420.67 25 394Zm26 136h58l30 76 28-76h59l-58 137h-59Z" horiz-adv-x="272" vert-adv-y="1000"/><glyph glyph-name="uni015E" unicode="Ş" d="M25 473c0-17.33 4.17-34.33 12.5-51s19.17-30 32.5-40l101-112c8-6.67 12-15.33 12-26V99c0-13.33-6.67-20-20-20h-30c-13.33 0-20 6.67-20 20v130H25V93c0-28.67 8.83-51.83 26.5-69.5S92.33-3 121-3h9l-12-77h35v1c1.33 7.33 4.33 11 9 11h6c6 0 9-4.67 9-14v-38c0-6.67-3.33-10-10-10h-10c-4.67 0-7 3.33-7 10v15h-37v-13c0-14.67 4-26.33 12-35 8-8.67 18.67-13 32-13h11c14 0 25.33 4 34 12 8.67 8 13 18.67 13 32v44c0 13.33-3 24-9 32s-13.67 12-23 12h-11c-4.67 0-9-2.33-13-7l6 38h10c28.67 0 51.83 8.83 69.5 26.5S271 64.33 271 93v148c0 16.67-4 33.5-12 50.5S240.33 322 227 332L125 444c-8 6.67-12 15.33-12 26v131c0 13.33 6.67 20 20 20h30c13.33 0 20-6.67 20-20V472h88v135c0 28.67-8.83 51.83-26.5 69.5S203.67 703 175 703h-54c-28.67 0-51.83-8.83-69.5-26.5S25 635.67 25 607Z" horiz-adv-x="296" vert-adv-y="1000"/><glyph glyph-name="uni015F" unicode="ş" d="M25 394v-89c0-14.67 4.33-28.5 13-41.5S58 241 72 235l83-37c10-4.67 15-12.33 15-23V93c0-13.33-6.67-20-20-20h-20c-13.33 0-20 6.67-20 20v68H28V86c0-26.67 8.33-48.17 25-64.5S91.33-3 118-3h3l-12-77h35v1c1.33 7.33 4.33 11 9 11h6c6 0 9-4.67 9-14v-38c0-6.67-3.33-10-10-10h-10c-4.67 0-7 3.33-7 10v15h-38v-13c0-14.67 4-26.33 12-35 8-8.67 18.67-13 32-13h12c14 0 25.33 4 34 12 8.67 8 13 18.67 13 32v44c0 13.33-3 24-9 32s-13.67 12-23 12h-12c-4 0-8-2.33-12-7l6 38h6c26.67 0 48.33 8.17 65 24.5s25 37.83 25 64.5v106c0 14.67-4.33 28.5-13 41.5S219 256 205 262l-83 37c-10 3.33-15 10.67-15 22v66c0 13.33 6.67 20 20 20h20c13.33 0 20-6.67 20-20v-64h82v71c0 26.67-8.33 48.17-25 64.5S185.67 483 159 483h-44c-26.67 0-48.33-8.17-65-24.5S25 420.67 25 394Z" horiz-adv-x="272" vert-adv-y="1000"/><glyph glyph-name="uni0160" unicode="Š" d="m70 382 101-112c8-6.67 12-15.33 12-26V99c0-13.33-6.67-20-20-20h-30c-13.33 0-20 6.67-20 20v130H25V93c0-28.67 8.83-51.83 26.5-69.5S92.33-3 121-3h54c28.67 0 51.83 8.83 69.5 26.5S271 64.33 271 93v148c0 16.67-4 33.5-12 50.5S240.33 322 227 332L125 444c-8 6.67-12 15.33-12 26v131c0 13.33 6.67 20 20 20h30c13.33 0 20-6.67 20-20V472h88v135c0 28.67-8.83 51.83-26.5 69.5S203.67 703 175 703h-54c-28.67 0-51.83-8.83-69.5-26.5S25 635.67 25 607V473c0-17.33 4.17-34.33 12.5-51s19.17-30 32.5-40Zm-9 505 57-137h60l57 137h-58l-29-76-29 76Z" horiz-adv-x="296" vert-adv-y="1000"/><glyph glyph-name="uni0161" unicode="š" d="M25 394v-89c0-14.67 4.33-28.5 13-41.5S58 241 72 235l83-37c10-4.67 15-12.33 15-23V93c0-13.33-6.67-20-20-20h-20c-13.33 0-20 6.67-20 20v68H28V86c0-26.67 8.33-48.17 25-64.5S91.33-3 118-3h44c26.67 0 48.33 8.17 65 24.5s25 37.83 25 64.5v106c0 14.67-4.33 28.5-13 41.5S219 256 205 262l-83 37c-10 3.33-15 10.67-15 22v66c0 13.33 6.67 20 20 20h20c13.33 0 20-6.67 20-20v-64h82v71c0 26.67-8.33 48.17-25 64.5S185.67 483 159 483h-44c-26.67 0-48.33-8.17-65-24.5S25 420.67 25 394Zm26 273 58-137h59l58 137h-59l-28-76-30 76Z" horiz-adv-x="272" vert-adv-y="1000"/><glyph glyph-name="uni0162" unicode="Ţ" d="M5 624h77V0h89v624h77v76H5Zm120-793 38 126H98L77-169Z" horiz-adv-x="253" vert-adv-y="1000"/><glyph glyph-name="uni0163" unicode="ţ" d="M202 411v69h-67v100H53V480H5v-69h48V97c0-28.67 8.83-52 26.5-70S120.67 0 150 0h52v76h-39c-8.67 0-15.5 2.5-20.5 7.5S135 95 135 103v308Zm-63-580 38 126h-66L90-169Z" horiz-adv-x="215" vert-adv-y="1000"/><glyph glyph-name="uni0164" unicode="Ť" d="M5 624h77V0h89v624h77v76H5Zm34 263 57-137h60l57 137h-58l-28-76-30 76Z" horiz-adv-x="253" vert-adv-y="1000"/><glyph glyph-name="uni0165" unicode="ť" d="M202 411v69h-67v100H53V480H5v-69h48V97c0-28.67 8.83-52 26.5-70S120.67 0 150 0h52v76h-39c-8.67 0-15.5 2.5-20.5 7.5S135 95 135 103v308Zm-3 123 38 126h-66l-21-126Z" horiz-adv-x="228" vert-adv-y="1000"/><glyph glyph-name="uni0166" unicode="Ŧ" d="M5 624h77V480H13v-45h69V0h89v435h69v45h-69v144h77v76H5Z" horiz-adv-x="253" vert-adv-y="1000"/><glyph glyph-name="uni0167" unicode="ŧ" d="M202 411v69h-67v100H53V480H5v-69h48v-94H5v-39h48V97c0-28.67 8.83-52 26.5-70S120.67 0 150 0h52v76h-39c-8.67 0-15.5 2.5-20.5 7.5S135 95 135 103v175h67v39h-67v94Z" horiz-adv-x="215" vert-adv-y="1000"/><glyph glyph-name="uni0168" unicode="Ũ" d="M35 93c0-28.67 8.83-51.83 26.5-69.5S102.33-3 131-3h54c28.67 0 51.83 8.83 69.5 26.5S281 64.33 281 93v607h-88V99c0-13.33-6.67-20-20-20h-30c-13.33 0-20 6.67-20 20v601H35Zm95 736c-20 0-35.67-6.83-47-20.5-11.33-13.67-17-31.83-17-54.5h53c0 15.33 4.67 23 14 23 3.33 0 10.83-4.33 22.5-13s24.5-13 38.5-13c20 0 35.67 6.83 47 20.5 11.33 13.67 17 31.83 17 54.5h-52c0-16-5.33-24-16-24-2.67 0-9.83 4.5-21.5 13.5S144 829 130 829Z" horiz-adv-x="316" vert-adv-y="1000"/><glyph glyph-name="uni0169" unicode="ũ" d="M30 480V86c0-26.67 6-48.17 18-64.5S76-3 96-3h33c17.33 0 31.67 6.33 43 19V0h82v480h-82V93c0-13.33-6.67-20-20-20h-20c-13.33 0-20 6.67-20 20v387Zm83 129c-19.33 0-34.67-6.83-46-20.5-11.33-13.67-17-31.83-17-54.5h53c0 15.33 4.67 23 14 23 2.67 0 9.83-4.33 21.5-13s24.5-13 38.5-13c20 0 35.83 6.83 47.5 20.5 11.67 13.67 17.5 31.83 17.5 54.5h-53c0-16-5-24-15-24-3.33 0-10.67 4.5-22 13.5S127.67 609 113 609Z" horiz-adv-x="284" vert-adv-y="1000"/><glyph glyph-name="uni016A" unicode="Ū" d="M35 93c0-28.67 8.83-51.83 26.5-69.5S102.33-3 131-3h54c28.67 0 51.83 8.83 69.5 26.5S281 64.33 281 93v607h-88V99c0-13.33-6.67-20-20-20h-30c-13.33 0-20 6.67-20 20v601H35Zm35 733v-69h176v69Z" horiz-adv-x="316" vert-adv-y="1000"/><glyph glyph-name="uni016B" unicode="ū" d="M30 86c0-26.67 6-48.17 18-64.5S76-3 96-3h33c17.33 0 31.67 6.33 43 19V0h82v480h-82V93c0-13.33-6.67-20-20-20h-20c-13.33 0-20 6.67-20 20v387H30Zm200 451v69H54v-69Z" horiz-adv-x="284" vert-adv-y="1000"/><glyph glyph-name="uni016C" unicode="Ŭ" d="M35 93c0-28.67 8.83-51.83 26.5-69.5S102.33-3 131-3h54c28.67 0 51.83 8.83 69.5 26.5S281 64.33 281 93v607h-88V99c0-13.33-6.67-20-20-20h-30c-13.33 0-20 6.67-20 20v601H35Zm31 735c0-22 6.67-39.67 20-53 13.33-13.33 31.33-20 54-20h36c22.67 0 40.67 6.67 54 20 13.33 13.33 20 31 20 53v32h-65v-31c0-11.33-6-17-18-17h-18c-12 0-18 5.67-18 17v31H66Z" horiz-adv-x="316" vert-adv-y="1000"/><glyph glyph-name="uni016D" unicode="ŭ" d="M30 86c0-26.67 6-48.17 18-64.5S76-3 96-3h33c17.33 0 31.67 6.33 43 19V0h82v480h-82V93c0-13.33-6.67-20-20-20h-20c-13.33 0-20 6.67-20 20v387H30Zm20 554v-32c0-22 6.67-39.67 20-53 13.33-13.33 31.33-20 54-20h36c22.67 0 40.67 6.67 54 20 13.33 13.33 20 31 20 53v32h-65v-31c0-11.33-6-17-18-17h-18c-12 0-18 5.67-18 17v31Z" horiz-adv-x="284" vert-adv-y="1000"/><glyph glyph-name="uni016E" unicode="Ů" d="M35 93c0-28.67 8.83-51.83 26.5-69.5S102.33-3 131-3h54c28.67 0 51.83 8.83 69.5 26.5S281 64.33 281 93v607h-88V99c0-13.33-6.67-20-20-20h-30c-13.33 0-20 6.67-20 20v601H35Zm49 731c0-21.33 7-39.17 21-53.5 14-14.33 31.67-21.5 53-21.5 20.67 0 38.17 7.17 52.5 21.5 14.33 14.33 21.5 32.17 21.5 53.5 0 20.67-7.17 38.17-21.5 52.5-14.33 14.33-31.83 21.5-52.5 21.5-21.33 0-39-7-53-21s-21-31.67-21-53Zm47 0c0 8 2.5 14.5 7.5 19.5S150 851 158 851s14.5-2.5 19.5-7.5S185 832 185 824s-2.5-14.5-7.5-19.5S166 797 158 797s-14.5 2.5-19.5 7.5S131 816 131 824Z" horiz-adv-x="316" vert-adv-y="1000"/><glyph glyph-name="uni016F" unicode="ů" d="M30 480V86c0-26.67 6-48.17 18-64.5S76-3 96-3h33c17.33 0 31.67 6.33 43 19V0h82v480h-82V93c0-13.33-6.67-20-20-20h-20c-13.33 0-20 6.67-20 20v387Zm38 124c0-21.33 7-39.17 21-53.5 14-14.33 31.67-21.5 53-21.5 20.67 0 38.17 7.17 52.5 21.5 14.33 14.33 21.5 32.17 21.5 53.5 0 20.67-7.17 38.17-21.5 52.5-14.33 14.33-31.83 21.5-52.5 21.5-21.33 0-39-7-53-21s-21-31.67-21-53Zm74-27c-8 0-14.5 2.5-19.5 7.5S115 596 115 604s2.5 14.5 7.5 19.5S134 631 142 631s14.5-2.5 19.5-7.5S169 612 169 604s-2.5-14.5-7.5-19.5S150 577 142 577Z" horiz-adv-x="284" vert-adv-y="1000"/><glyph glyph-name="uni0170" unicode="Ű" d="M35 93c0-28.67 8.83-51.83 26.5-69.5S102.33-3 131-3h54c28.67 0 51.83 8.83 69.5 26.5S281 64.33 281 93v607h-88V99c0-13.33-6.67-20-20-20h-30c-13.33 0-20 6.67-20 20v601H35Zm46 658h49l54 137h-61Zm83 0h49l54 137h-61Z" horiz-adv-x="316" vert-adv-y="1000"/><glyph glyph-name="uni0171" unicode="ű" d="M30 86c0-26.67 6-48.17 18-64.5S76-3 96-3h33c17.33 0 31.67 6.33 43 19V0h82v480h-82V93c0-13.33-6.67-20-20-20h-20c-13.33 0-20 6.67-20 20v387H30Zm35 445h48l55 137h-61Zm83 0h48l55 137h-61Z" horiz-adv-x="284" vert-adv-y="1000"/><glyph glyph-name="uni0172" unicode="Ų" d="M35 93c0-28.67 8.83-51.83 26.5-69.5S102.33-3 131-3h23l-20-31c-10.67-18-16-36-16-54s6.17-32.67 18.5-44c12.33-11.33 28.17-17 47.5-17h55v50l-40-1c-10 0-18.17 2.33-24.5 7-6.33 4.67-9.5 10.67-9.5 18 0 10 4 20.67 12 32l25 41c24 3.33 43.17 13.5 57.5 30.5C273.83 45.5 281 67 281 93v607h-88V99c0-13.33-6.67-20-20-20h-30c-13.33 0-20 6.67-20 20v601H35Z" horiz-adv-x="316" vert-adv-y="1000"/><glyph glyph-name="uni0173" unicode="ų" d="M30 480V86c0-26.67 6-48.17 18-64.5S76-3 96-3h33c17.33 0 31.67 6.33 43 19V0h16l-22-34c-10-18.67-15-36.67-15-54 0-18 6-32.67 18-44 12-11.33 27.67-17 47-17h56v50l-41-1c-10 0-18.17 2.33-24.5 7-6.33 4.67-9.5 10.67-9.5 18 0 8.67 4 19.33 12 32l27 43h18v480h-82V93c0-13.33-6.67-20-20-20h-20c-13.33 0-20 6.67-20 20v387Z" horiz-adv-x="284" vert-adv-y="1000"/><glyph glyph-name="uni0174" unicode="Ŵ" d="M77 0h116l47 521c1.33 14.67 2 39 2 73h2c0-26.67 1-51 3-73L294 0h117l70 700h-81l-44-524c-1.33-14.67-2-39-2-73h-2c0 26.67-1 51-3 73l-44 524H182l-44-524c-1.33-14.67-2-39-2-73h-2c0 34-.67 58.33-2 73L87 700H5Zm79 750h58l29 76 29-76h58l-57 137h-60Z" horiz-adv-x="486" vert-adv-y="1000"/><glyph glyph-name="uni0175" unicode="ŵ" d="M74 0h96l37 328c2 14.67 3 39 3 73h2c0-29.33 1.33-53.67 4-73L253 0h96l67 480h-80l-36-331c-2-22-3-46.33-3-73h-2c0 26.67-1 51-3 73l-37 331h-87l-37-331c-2-22-3-46.33-3-73h-2c0 26.67-1 51-3 73L87 480H7Zm50 530h58l29 76 29-76h58l-57 137h-60Z" horiz-adv-x="423" vert-adv-y="1000"/><glyph glyph-name="uni0176" unicode="Ŷ" d="M95 261V0h88v264l89 436h-84l-42-271c-3.33-17.33-5-41.33-5-72h-2c0 27.33-2 51.33-6 72L91 700H7ZM52 750h58l30 76 28-76h58l-57 137h-60Z" horiz-adv-x="278" vert-adv-y="1000"/><glyph glyph-name="uni0177" unicode="ŷ" d="M7 480 80 0h34l-10-81c-.67-10-5-18-13-24s-17.33-9-28-9H45v-76h31c55.33 0 88.67 34.33 100 103l82 567h-80l-41-326c-2.67-19.33-4-43.67-4-73h-2c0 29.33-1.33 53.67-4 73L88 480Zm35 50h59l29 76 29-76h58l-58 137h-59Z" horiz-adv-x="265" vert-adv-y="1000"/><glyph glyph-name="uni0178" unicode="Ÿ" d="M95 261V0h88v264l89 436h-84l-42-271c-3.33-17.33-5-41.33-5-72h-2c0 27.33-2 51.33-6 72L91 700H7Zm29 493v92H53v-92Zm102 0v92h-71v-92Z" horiz-adv-x="278" vert-adv-y="1000"/><glyph glyph-name="uni0179" unicode="Ź" d="M14 63V0h200v76H98l116 561v63H14v-76h115Zm119 688 66 137h-87L70 751Z" horiz-adv-x="228" vert-adv-y="1000"/><glyph glyph-name="uni017A" unicode="ź" d="M10 480v-69h110L10 57V0h200v70H100l110 353v57Zm56 51h64l65 137h-87Z" horiz-adv-x="220" vert-adv-y="1000"/><glyph glyph-name="uni017B" unicode="Ż" d="M14 63V0h200v76H98l116 561v63H14v-76h115Zm141 691v103H73V754Z" horiz-adv-x="228" vert-adv-y="1000"/><glyph glyph-name="uni017C" unicode="ż" d="M210 0v70H100l110 353v57H10v-69h110L10 57V0ZM69 637V534h82v103Z" horiz-adv-x="220" vert-adv-y="1000"/><glyph glyph-name="uni017D" unicode="Ž" d="M14 63V0h200v76H98l116 561v63H14v-76h115Zm13 824 57-137h60l57 137h-58l-29-76-29 76Z" horiz-adv-x="228" vert-adv-y="1000"/><glyph glyph-name="uni017E" unicode="ž" d="M10 480v-69h110L10 57V0h200v70H100l110 353v57Zm13 187 57-137h60l57 137h-58l-29-76-29 76Z" horiz-adv-x="220" vert-adv-y="1000"/><glyph glyph-name="uni018F" unicode="Ə" d="M118 472v129c0 13.33 6.67 20 20 20h30c13.33 0 20-6.67 20-20V379H30V93c0-28.67 8.67-51.83 26-69.5S96.67-3 126-3h54c29.33 0 52.67 8.83 70 26.5s26 40.83 26 69.5v514c0 28.67-8.67 51.83-26 69.5S209.33 703 180 703h-54c-29.33 0-52.67-8.83-70-26.5S30 635.67 30 607V472Zm70-169V99c0-13.33-6.67-20-20-20h-30c-13.33 0-20 6.67-20 20v204Z" horiz-adv-x="311" vert-adv-y="1000"/><glyph glyph-name="uni0192" unicode="ƒ" d="M-45-190H1c28.67 0 52.67 8.83 72 26.5s30.67 41.17 34 70.5l44 504h67l6 69h-67l12 137c1.33 18 11.33 27 30 27h33l7 76h-46c-28.67 0-52.67-8.83-72-26.5S90.67 652.33 88 623L75 480H27l-6-69h48L26-87c-2-18-12.33-27-31-27h-33Z" horiz-adv-x="214" vert-adv-y="1000"/><glyph glyph-name="uni01DD" unicode="ǝ" d="M30 319h82v68c0 13.33 6.67 20 20 20h20c13.33 0 20-6.67 20-20V274H30V86c0-26.67 8.33-48.17 25-64.5S93.33-3 120-3h44c26.67 0 48.33 8.17 65 24.5s25 37.83 25 64.5v308c0 26.67-8.33 48.17-25 64.5S190.67 483 164 483h-44c-26.67 0-48.33-8.17-65-24.5S30 420.67 30 394Zm82-226v111h60V93c0-13.33-6.67-20-20-20h-20c-13.33 0-20 6.67-20 20Z" horiz-adv-x="284" vert-adv-y="1000"/><glyph glyph-name="uni01FA" unicode="Ǻ" d="M7 0h82l17 162h81L204 0h82l-81 700H88Zm140 862c-21.33 0-39-7.17-53-21.5S73 808.33 73 787s7-39 21-53 31.67-21 53-21c20.67 0 38.17 7.17 52.5 21.5 14.33 14.33 21.5 31.83 21.5 52.5 0 15.33-4.33 29.67-13 43l61 129h-87l-30-98c-.67.67-2.33 1-5 1Zm-34-625 30 281c2 22 3 46.33 3 73h2c0-34 1-58.33 3-73l29-281Zm7 550c0 8 2.5 14.5 7.5 19.5S139 814 147 814s14.5-2.5 19.5-7.5S174 795 174 787s-2.5-14.5-7.5-19.5S155 760 147 760s-14.5 2.5-19.5 7.5S120 779 120 787Z" horiz-adv-x="293" vert-adv-y="1000"/><glyph glyph-name="uni01FB" unicode="ǻ" d="M96 289c-20 0-36-8.17-48-24.5S30 226.33 30 199V86c0-26.67 6-48.17 18-64.5S76-3 96-3h33c18 0 32.67 6.67 44 20V0h82v394c0 26.67-8.33 48.17-25 64.5S191.67 483 165 483h-44c-26.67 0-48.33-8.17-65-24.5S31 420.67 31 394v-67h82v57c0 6 1.83 11.33 5.5 16s8.5 7 14.5 7h20c6 0 10.83-2.33 14.5-7s5.5-10 5.5-16V268c-12 14-26.67 21-44 21Zm47 389c-21.33 0-39-7-53-21s-21-31.67-21-53 7-39.17 21-53.5c14-14.33 31.67-21.5 53-21.5 20.67 0 38.17 7.17 52.5 21.5 14.33 14.33 21.5 32.17 21.5 53.5 0 12-2.33 22.67-7 32l65 136h-88l-29-96c-6.67 1.33-11.67 2-15 2Zm-31-485c0 13.33 6.67 20 20 20h20c13.33 0 20-6.67 20-20V93c0-13.33-6.67-20-20-20h-20c-13.33 0-20 6.67-20 20Zm31 384c-8 0-14.5 2.5-19.5 7.5S116 596 116 604s2.5 14.5 7.5 19.5S135 631 143 631s14.5-2.5 19.5-7.5S170 612 170 604s-2.5-14.5-7.5-19.5S151 577 143 577Z" horiz-adv-x="285" vert-adv-y="1000"/><glyph glyph-name="uni01FC" unicode="Ǽ" d="M7 0h84l34 162h81V0h192v76H294v236h96v76h-96v236h104v76H167Zm133 237 58 278c4.67 20.67 8.33 43.67 11 69h2c-3.33-34.67-5-58-5-70V237Zm106 514 65 137h-87l-42-137Z" horiz-adv-x="421" vert-adv-y="1000"/><glyph glyph-name="uni01FD" unicode="ǽ" d="M30 86c0-26.67 6-48.17 18-64.5S76-3 96-3h33c25.33 0 44 13.33 56 40 16-26.67 41.67-40 77-40h45c26.67 0 48.33 8.17 65 24.5s25 37.83 25 64.5v75h-82V93c0-13.33-6.67-20-20-20h-20c-13.33 0-20 6.67-20 20v113h142v188c0 26.67-8.33 48.17-25 64.5S333.67 483 307 483h-45c-18.67 0-34.67-4-48-12-14 8-30.33 12-49 12h-44c-26.67 0-48.33-8.17-65-24.5S31 420.67 31 394v-67h82v57c0 6 1.83 11.33 5.5 16s8.5 7 14.5 7h20c6 0 10.83-2.33 14.5-7s5.5-10 5.5-16V268c-12 14-26.67 21-44 21H96c-20 0-36-8.17-48-24.5S30 226.33 30 199Zm140 445h63l66 137h-88Zm-58-338c0 13.33 6.67 20 20 20h20c13.33 0 20-6.67 20-20V93c0-13.33-6.67-20-20-20h-20c-13.33 0-20 6.67-20 20Zm143 83v111c0 13.33 6.67 20 20 20h20c13.33 0 20-6.67 20-20V276Z" horiz-adv-x="425" vert-adv-y="1000"/><glyph glyph-name="uni01FE" unicode="Ǿ" d="M35 93c0-23.33 5.67-42.67 17-58L41 0l22-9 7 24C87.33 3 107.67-3 131-3h54c28.67 0 51.83 8.83 69.5 26.5S281 64.33 281 93v514c0 23.33-5.67 42.67-17 58l11 35-22 9-7-25c-16.67 12.67-37 19-61 19h-54c-28.67 0-51.83-8.83-69.5-26.5S35 635.67 35 607Zm88 181v327c0 13.33 6.67 20 20 20h30c13.33 0 20-6.67 20-20v-94Zm70 152V99c0-13.33-6.67-20-20-20h-30c-13.33 0-20 6.67-20 20v93Zm-16 325 66 137h-87l-42-137Z" horiz-adv-x="316" vert-adv-y="1000"/><glyph glyph-name="uni01FF" unicode="ǿ" d="M30 86c0-26.67 8.33-48.33 25-65L47 0l22-9 6 16C86.33.33 101.33-3 120-3h44c26.67 0 48.33 8.17 65 24.5s25 37.83 25 64.5v308c0 24.67-7.33 45.33-22 62l9 24-22 9-6-18c-14 8-30.33 12-49 12h-44c-26.67 0-48.33-8.17-65-24.5S30 420.67 30 394Zm131 445 66 137h-87L98 531Zm-49-347v203c0 13.33 6.67 20 20 20h20c13.33 0 20-6.67 20-20v-32Zm60 100V93c0-13.33-6.67-20-20-20h-20c-13.33 0-20 6.67-20 20v20Z" horiz-adv-x="284" vert-adv-y="1000"/><glyph glyph-name="uni0218" unicode="Ș" d="m70 382 101-112c8-6.67 12-15.33 12-26V99c0-13.33-6.67-20-20-20h-30c-13.33 0-20 6.67-20 20v130H25V93c0-28.67 8.83-51.83 26.5-69.5S92.33-3 121-3h54c28.67 0 51.83 8.83 69.5 26.5S271 64.33 271 93v148c0 16.67-4 33.5-12 50.5S240.33 322 227 332L125 444c-8 6.67-12 15.33-12 26v131c0 13.33 6.67 20 20 20h30c13.33 0 20-6.67 20-20V472h88v135c0 28.67-8.83 51.83-26.5 69.5S203.67 703 175 703h-54c-28.67 0-51.83-8.83-69.5-26.5S25 635.67 25 607V473c0-17.33 4.17-34.33 12.5-51s19.17-30 32.5-40Zm77-551 38 126h-66L98-169Z" horiz-adv-x="296" vert-adv-y="1000"/><glyph glyph-name="uni0219" unicode="ș" d="m72 235 83-37c10-4.67 15-12.33 15-23V93c0-13.33-6.67-20-20-20h-20c-13.33 0-20 6.67-20 20v68H28V86c0-26.67 8.33-48.17 25-64.5S91.33-3 118-3h44c26.67 0 48.33 8.17 65 24.5s25 37.83 25 64.5v106c0 14.67-4.33 28.5-13 41.5S219 256 205 262l-83 37c-10 3.33-15 10.67-15 22v66c0 13.33 6.67 20 20 20h20c13.33 0 20-6.67 20-20v-64h82v71c0 26.67-8.33 48.17-25 64.5S185.67 483 159 483h-44c-26.67 0-48.33-8.17-65-24.5S25 420.67 25 394v-89c0-14.67 4.33-28.5 13-41.5S58 241 72 235Zm65-404 39 126h-66L89-169Z" horiz-adv-x="272" vert-adv-y="1000"/><glyph glyph-name="uni021A" unicode="Ț" d="M5 624h77V0h89v624h77v76H5Zm120-793 38 126H98L77-169Z" horiz-adv-x="253" vert-adv-y="1000"/><glyph glyph-name="uni021B" unicode="ț" d="M202 411v69h-67v100H53V480H5v-69h48V97c0-28.67 8.83-52 26.5-70S120.67 0 150 0h52v76h-39c-8.67 0-15.5 2.5-20.5 7.5S135 95 135 103v308Zm-63-580 38 126h-66L90-169Z" horiz-adv-x="215" vert-adv-y="1000"/><glyph glyph-name="uni0237" unicode="ȷ" d="M-28-190H9c31.33 0 56.33 9.33 75 28s28 43.67 28 75v567H30V-81c0-10-3-18-9-24s-14.33-9-25-9h-24Z" horiz-adv-x="142" vert-adv-y="1000"/><glyph glyph-name="uni0259" unicode="ə" d="M30 319h82v68c0 13.33 6.67 20 20 20h20c13.33 0 20-6.67 20-20V274H30V86c0-26.67 8.33-48.17 25-64.5S93.33-3 120-3h44c26.67 0 48.33 8.17 65 24.5s25 37.83 25 64.5v308c0 26.67-8.33 48.17-25 64.5S190.67 483 164 483h-44c-26.67 0-48.33-8.17-65-24.5S30 420.67 30 394Zm82-226v111h60V93c0-13.33-6.67-20-20-20h-20c-13.33 0-20 6.67-20 20Z" horiz-adv-x="284" vert-adv-y="1000"/><glyph glyph-name="uni02C6" unicode="ˆ" d="M30 710h58l30 76 28-76h59l-58 137H87Z" horiz-adv-x="234" vert-adv-y="1000"/><glyph glyph-name="uni02C7" unicode="ˇ" d="M87 710h60l58 137h-59l-28-76-30 76H30Z" horiz-adv-x="234" vert-adv-y="1000"/><glyph glyph-name="uni02D8" unicode="˘" d="M30 788c0-22 6.67-39.67 20-53 13.33-13.33 31-20 53-20h37c22 0 39.67 6.67 53 20 13.33 13.33 20 31 20 53v32h-64v-31c0-11.33-6-17-18-17h-18c-12 0-18 5.67-18 17v31H30Z" horiz-adv-x="243" vert-adv-y="1000"/><glyph glyph-name="uni02D9" unicode="˙" d="M30 720h82v103H30Z" horiz-adv-x="142" vert-adv-y="1000"/><glyph glyph-name="uni02DA" unicode="˚" d="M104 858c-21.33 0-39-7-53-21s-21-31.67-21-53 7-39.17 21-53.5c14-14.33 31.67-21.5 53-21.5 20.67 0 38.33 7.17 53 21.5 14.67 14.33 22 32.17 22 53.5 0 20.67-7.33 38.17-22 52.5-14.67 14.33-32.33 21.5-53 21.5Zm-27-74c0 8 2.5 14.5 7.5 19.5S96 811 104 811s14.5-2.5 19.5-7.5S131 792 131 784s-2.5-14.5-7.5-19.5S112 757 104 757s-14.5 2.5-19.5 7.5S77 776 77 784Z" horiz-adv-x="208" vert-adv-y="1000"/><glyph glyph-name="uni02DB" unicode="˛" d="M30-88c0-18 6-32.67 18-44 12-11.33 28-17 48-17h55v50l-40-1c-10 0-18.17 2.33-24.5 7-6.33 4.67-9.5 10.67-9.5 18 0 10 3.67 20.67 11 32l27 43H67L46-34C35.33-52 30-70 30-88Z" horiz-adv-x="181" vert-adv-y="1000"/><glyph glyph-name="uni02DC" unicode="˜" d="M30 714h53c0 15.33 4.67 23 14 23 3.33 0 10.83-4.33 22.5-13s24.5-13 38.5-13c20 0 35.67 6.83 47 20.5 11.33 13.67 17 31.83 17 54.5h-52c0-16-5-24-15-24-3.33 0-10.83 4.5-22.5 13.5S108 789 94 789c-20 0-35.67-6.83-47-20.5-11.33-13.67-17-31.83-17-54.5Z" horiz-adv-x="252" vert-adv-y="1000"/><glyph glyph-name="uni02DD" unicode="˝" d="m78 717 55 137H72L30 717Zm35 0h48l55 137h-61Z" horiz-adv-x="246" vert-adv-y="1000"/><glyph glyph-name="uni0394" unicode="Δ" d="M7 0h279l-81 700H88Zm90 76 46 442c2 22 3 46.33 3 73h2c0-34 1-58.33 3-73l45-442Z" horiz-adv-x="293" vert-adv-y="1000"/><glyph glyph-name="uni03A9" unicode="Ω" d="M145 0v71c-13.33 0-20 6.67-20 20v510c0 13.33 6.67 20 20 20h30c13.33 0 20-6.67 20-20V91c0-7.33-2-12.33-6-15-3.33-3.33-8-5-14-5V0h132v76h-48c16 16 24 36 24 60v481c0 26-8.67 46.83-26 62.5-17.33 15.67-40.67 23.5-70 23.5h-54c-29.33 0-52.67-7.83-70-23.5S37 643 37 617V136c0-24 8-44 24-60H13V0Z" horiz-adv-x="320" vert-adv-y="1000"/><glyph glyph-name="uni03C0" unicode="π" d="M314 411v69H5v-69h42V0h82v411h60V0h82v411Z" horiz-adv-x="319" vert-adv-y="1000"/><glyph glyph-name="uni0400" unicode="Ѐ" d="M35 0h192v76H123v236h96v76h-96v236h104v76H35Zm76 751h64l-42 137H45Z" horiz-adv-x="250" vert-adv-y="1000"/><glyph glyph-name="uni0401" unicode="Ё" d="M227 0v76H123v236h96v76h-96v236h104v76H35V0Zm-80 846v-92h71v92ZM45 754h71v92H45Z" horiz-adv-x="250" vert-adv-y="1000"/><glyph glyph-name="uni0402" unicode="Ђ" d="M248 624v76H5v-76h77V0h89v314c13.33 4 25.67 6 37 6 22 0 33-6.67 33-20V99c0-13.33-6.67-20-20-20h-12V-3h24c28.67 0 51.83 8.83 69.5 26.5S329 64.33 329 93v213c0 28.67-9.33 51.83-28 69.5S256.67 402 224 402c-13.33 0-31-2.33-53-7v229Z" horiz-adv-x="359" vert-adv-y="1000"/><glyph glyph-name="uni0403" unicode="Ѓ" d="M35 0h88v624h95v76H35Zm107 751 65 137h-87L78 751Z" horiz-adv-x="223" vert-adv-y="1000"/><glyph glyph-name="uni0404" unicode="Є" d="M35 93c0-28.67 8.83-51.83 26.5-69.5S102.33-3 131-3h54c28.67 0 51.83 8.83 69.5 26.5S281 64.33 281 93v131h-88V99c0-13.33-6.67-20-20-20h-30c-13.33 0-20 6.67-20 20v213h100v76H123v213c0 13.33 6.67 20 20 20h30c13.33 0 20-6.67 20-20V472h88v135c0 28.67-8.83 51.83-26.5 69.5S213.67 703 185 703h-54c-28.67 0-51.83-8.83-69.5-26.5S35 635.67 35 607Z" horiz-adv-x="311" vert-adv-y="1000"/><glyph glyph-name="uni0405" unicode="Ѕ" d="M25 473c0-17.33 4.17-34.33 12.5-51s19.17-30 32.5-40l101-112c8-6.67 12-15.33 12-26V99c0-13.33-6.67-20-20-20h-30c-13.33 0-20 6.67-20 20v130H25V93c0-28.67 8.83-51.83 26.5-69.5S92.33-3 121-3h54c28.67 0 51.83 8.83 69.5 26.5S271 64.33 271 93v148c0 16.67-4 33.5-12 50.5S240.33 322 227 332L125 444c-8 6.67-12 15.33-12 26v131c0 13.33 6.67 20 20 20h30c13.33 0 20-6.67 20-20V472h88v135c0 28.67-8.83 51.83-26.5 69.5S203.67 703 175 703h-54c-28.67 0-51.83-8.83-69.5-26.5S25 635.67 25 607Z" horiz-adv-x="296" vert-adv-y="1000"/><glyph glyph-name="uni0406" unicode="І" d="M35 0h88v700H35Z" horiz-adv-x="158" vert-adv-y="1000"/><glyph glyph-name="uni0407" unicode="Ї" d="M35 0h88v700H35Zm60 846v-92h70v92Zm-32-92v92H-7v-92Z" horiz-adv-x="158" vert-adv-y="1000"/><glyph glyph-name="uni0408" unicode="Ј" d="M15 93c0-28.67 8.83-51.83 26.5-69.5S82.33-3 111-3h54c28.67 0 51.83 8.83 69.5 26.5S261 64.33 261 93v607h-88V99c0-13.33-6.67-20-20-20h-30c-13.33 0-20 6.67-20 20v114H15Z" horiz-adv-x="296" vert-adv-y="1000"/><glyph glyph-name="uni0409" unicode="Љ" d="M5 82V0h27c30 0 53.67 9 71 27s26.33 43.33 27 76l16 528h50V0h150c29.33 0 52.67 8.67 70 26s26 40.67 26 70v206c0 29.33-8.67 52.67-26 70s-40.67 26-70 26h-62v302H63L45 116c-1.33-22.67-10-34-26-34Zm279-6v246h50c13.33 0 20-6.67 20-20V96c0-13.33-6.67-20-20-20Z" horiz-adv-x="467" vert-adv-y="1000"/><glyph glyph-name="uni040A" unicode="Њ" d="M35 700V0h88v317h70V0h151c28.67 0 51.67 8.67 69 26s26 40 26 68v203c0 28.67-8.67 51.83-26 69.5S372.67 393 344 393h-63v307h-88V393h-70v307ZM281 76v241h50c13.33 0 20-6.67 20-20V95c0-12.67-6.67-19-20-19Z" horiz-adv-x="464" vert-adv-y="1000"/><glyph glyph-name="uni040B" unicode="Ћ" d="M5 624h77V0h89v314c13.33 4 25.67 6 37 6 22 0 33-6.67 33-20V0h88v306c0 28.67-9.33 51.83-28 69.5S256.67 402 224 402c-13.33 0-31-2.33-53-7v229h77v76H5Z" horiz-adv-x="359" vert-adv-y="1000"/><glyph glyph-name="uni040C" unicode="Ќ" d="M35 0h88v291L196 0h85l-99 361 94 339h-85l-68-270v270H35Zm79 751h64l65 137h-87Z" horiz-adv-x="286" vert-adv-y="1000"/><glyph glyph-name="uni040D" unicode="Ѝ" d="M35 700V0h88v109l58 221c8 22.67 13.67 46.33 17 71l2-1c-4.67-32.67-7-56.67-7-72V0h88v700h-88V591l-58-221c-5.33-15.33-11-38.67-17-70h-2c4.67 25.33 7 49.67 7 73v327Zm103 51h63l-42 137H72Z" horiz-adv-x="316" vert-adv-y="1000"/><glyph glyph-name="uni040E" unicode="Ў" d="m5 700 85-507h33l-12-79c-1.33-9.33-6-17-14-23s-17.67-9-29-9H47V0h40c55.33 0 89.33 34.33 102 103l87 597h-83l-43-356c-2.67-19.33-4-43.67-4-73h-2c0 26.67-2 51-6 73L88 700Zm40 105c0-22 6.67-39.83 20-53.5 13.33-13.67 31.33-20.5 54-20.5h40c22 0 40.33 6.83 55 20.5 14.67 13.67 22 31.5 22 53.5v19h-67v-13c0-13.33-5.67-20-17-20h-24c-10.67 0-16 6.67-16 20v13H45Z" horiz-adv-x="281" vert-adv-y="1000"/><glyph glyph-name="uni040F" unicode="Џ" d="M35 700V0h79v-110h88V0h79v700h-88V76h-70v624Z" horiz-adv-x="316" vert-adv-y="1000"/><glyph glyph-name="uni0410" unicode="А" d="M7 0h82l17 162h81L204 0h82l-81 700H88Zm106 237 30 281c2 22 3 46.33 3 73h2c0-34 1-58.33 3-73l29-281Z" horiz-adv-x="293" vert-adv-y="1000"/><glyph glyph-name="uni0411" unicode="Б" d="M35 0h150c28.67 0 51.83 8.67 69.5 26S281 66.67 281 96v206c0 29.33-8.83 52.67-26.5 70s-40.83 26-69.5 26h-62v226h135v76H35Zm88 76v246h50c13.33 0 20-6.67 20-20V96c0-13.33-6.67-20-20-20Z" horiz-adv-x="301" vert-adv-y="1000"/><glyph glyph-name="uni0412" unicode="В" d="M35 0h150c28.67 0 51.83 8.17 69.5 24.5S281 62.67 281 90v195c0 37.33-16 63-48 77 28.67 16 43 41 43 75v178c0 25.33-8.83 45.83-26.5 61.5-17.67 15.67-40.83 23.5-69.5 23.5H35Zm138 323c13.33 0 20-6.67 20-20V96c0-13.33-6.67-20-20-20h-50v247Zm-5 301c13.33 0 20-6.33 20-19V419c0-13.33-6.67-20-20-20h-45v225Z" horiz-adv-x="306" vert-adv-y="1000"/><glyph glyph-name="uni0413" unicode="Г" d="M35 0h88v624h95v76H35Z" horiz-adv-x="223" vert-adv-y="1000"/><glyph glyph-name="uni0414" unicode="Д" d="M93-110V0h168v-110h88V76h-49v624H79L63 106c-1.33-15.33-5.67-25.33-13-30H5v-186Zm48 186c3.33 11.33 5 22.33 5 33l16 522h50V76Z" horiz-adv-x="354" vert-adv-y="1000"/><glyph glyph-name="uni0415" unicode="Е" d="M227 0v76H123v236h96v76h-96v236h104v76H35V0Z" horiz-adv-x="250" vert-adv-y="1000"/><glyph glyph-name="uni0416" unicode="Ж" d="m90 0 73 324V0h88v324L324 0h85l-93 361 88 339h-85l-68-303v303h-88V397L95 700H10l88-339L5 0Z" horiz-adv-x="414" vert-adv-y="1000"/><glyph glyph-name="uni0417" unicode="З" d="M17 485h88v116c0 13.33 6.67 20 20 20h30c13.33 0 20-6.33 20-19V423c0-13.33-6.67-20-20-20H99v-76h61c13.33 0 20-6.67 20-20V99c0-13.33-6.67-20-20-20h-30c-13.33 0-20 6.67-20 20v113H22V93c0-28.67 8.67-51.83 26-69.5S88.67-3 118-3h54c28.67 0 51.83 8.17 69.5 24.5S268 59.67 268 87v202c0 36.67-16 62.33-48 77 28.67 16 43 41 43 75v178c0 25.33-8.83 45.67-26.5 61-17.67 15.33-40.83 23-69.5 23h-54c-28.67 0-51.83-8.83-69.5-26.5S17 635.67 17 607Z" horiz-adv-x="293" vert-adv-y="1000"/><glyph glyph-name="uni0418" unicode="И" d="M123 0v109l58 221c8 22.67 13.67 46.33 17 71l2-1c-4.67-32.67-7-56.67-7-72V0h88v700h-88V591l-58-221c-5.33-15.33-11-38.67-17-70h-2c4.67 25.33 7 49.67 7 73v327H35V0Z" horiz-adv-x="316" vert-adv-y="1000"/><glyph glyph-name="uni0419" unicode="Й" d="M123 0v109l58 221c8 22.67 13.67 46.33 17 71l2-1c-4.67-32.67-7-56.67-7-72V0h88v700h-88V591l-58-221c-5.33-15.33-11-38.67-17-70h-2c4.67 25.33 7 49.67 7 73v327H35V0ZM63 805c0-22 6.83-39.83 20.5-53.5C97.17 737.83 115.33 731 138 731h40c22 0 40.33 6.83 55 20.5 14.67 13.67 22 31.5 22 53.5v19h-67v-13c0-13.33-5.67-20-17-20h-24c-11.33 0-17 6.67-17 20v13H63Z" horiz-adv-x="318" vert-adv-y="1000"/><glyph glyph-name="uni041A" unicode="К" d="M35 700V0h88v291L196 0h85l-99 361 94 339h-85l-68-270v270Z" horiz-adv-x="286" vert-adv-y="1000"/><glyph glyph-name="uni041B" unicode="Л" d="M5-3h27c30 0 53.67 9 71 27s26.33 43.67 27 77l16 530h50V0h88v700H63L45 113c-1.33-22.67-10-34-26-34H5Z" horiz-adv-x="319" vert-adv-y="1000"/><glyph glyph-name="uni041C" unicode="М" d="M112 0v515c0 4-1 29-3 75h1c4-47.33 6.33-72.33 7-75L175 0h92l58 513c2.67 19.33 4.67 44.33 6 75h2c-2-46-3-71-3-75V0h82v700H280l-54-533c-2.67-19.33-4-44.33-4-75h-2c0 35.33-1 60.33-3 75l-55 533H30V0Z" horiz-adv-x="442" vert-adv-y="1000"/><glyph glyph-name="uni041D" unicode="Н" d="M35 0h88v312h70V0h88v700h-88V388h-70v312H35Z" horiz-adv-x="316" vert-adv-y="1000"/><glyph glyph-name="uni041E" unicode="О" d="M131 703c-28.67 0-51.83-8.83-69.5-26.5S35 635.67 35 607V93c0-28.67 8.83-51.83 26.5-69.5S102.33-3 131-3h54c28.67 0 51.83 8.83 69.5 26.5S281 64.33 281 93v514c0 28.67-8.83 51.83-26.5 69.5S213.67 703 185 703Zm12-624c-13.33 0-20 6.67-20 20v502c0 13.33 6.67 20 20 20h30c13.33 0 20-6.67 20-20V99c0-13.33-6.67-20-20-20Z" horiz-adv-x="316" vert-adv-y="1000"/><glyph glyph-name="uni041F" unicode="П" d="M35 0h88v624h70V0h88v700H35Z" horiz-adv-x="316" vert-adv-y="1000"/><glyph glyph-name="uni0420" unicode="Р" d="M35 0h88v302h62c28.67 0 51.83 8.67 69.5 26s26.5 40.67 26.5 70v206c0 29.33-8.83 52.67-26.5 70s-40.83 26-69.5 26H35Zm138 624c13.33 0 20-6.67 20-20V398c0-13.33-6.67-20-20-20h-50v246Z" horiz-adv-x="298" vert-adv-y="1000"/><glyph glyph-name="uni0421" unicode="С" d="M35 93c0-28.67 8.83-51.83 26.5-69.5S102.33-3 131-3h54c28.67 0 51.83 8.83 69.5 26.5S281 64.33 281 93v131h-88V99c0-13.33-6.67-20-20-20h-30c-13.33 0-20 6.67-20 20v502c0 13.33 6.67 20 20 20h30c13.33 0 20-6.67 20-20V472h88v135c0 28.67-8.83 51.83-26.5 69.5S213.67 703 185 703h-54c-28.67 0-51.83-8.83-69.5-26.5S35 635.67 35 607Z" horiz-adv-x="311" vert-adv-y="1000"/><glyph glyph-name="uni0422" unicode="Т" d="M5 624h77V0h89v624h77v76H5Z" horiz-adv-x="253" vert-adv-y="1000"/><glyph glyph-name="uni0423" unicode="У" d="m5 700 85-507h33l-12-79c-1.33-9.33-6-17-14-23s-17.67-9-29-9H47V0h40c55.33 0 89.33 34.33 102 103l87 597h-83l-43-356c-2.67-19.33-4-43.67-4-73h-2c0 26.67-2 51-6 73L88 700Z" horiz-adv-x="281" vert-adv-y="1000"/><glyph glyph-name="uni0424" unicode="Ф" d="M35 170c0-28.67 8.83-51.67 26.5-69s40.83-26 69.5-26h57V0h88v75h58c28.67 0 51.67 8.67 69 26s26 40.33 26 69v360c0 28.67-8.67 51.83-26 69.5S362.67 626 334 626h-58v74h-88v-74h-57c-28.67 0-51.83-8.83-69.5-26.5S35 558.67 35 530Zm241-14v388h45c13.33 0 20-6.67 20-20V176c0-13.33-6.67-20-20-20ZM123 524c0 13.33 6.67 20 20 20h45V156h-45c-13.33 0-20 6.67-20 20Z" horiz-adv-x="464" vert-adv-y="1000"/><glyph glyph-name="uni0425" unicode="Х" d="M5 0h85l41 194c5.33 22.67 8 46.67 8 72h2c0-25.33 2.67-49.33 8-72L190 0h85l-90 361 85 339h-85l-36-172c-5.33-23.33-8-47.67-8-73h-2c0 25.33-2.67 49.67-8 73L95 700H10l86-339Z" horiz-adv-x="280" vert-adv-y="1000"/><glyph glyph-name="uni0426" unicode="Ц" d="M35 700V0h207v-110h88V76h-49v624h-88V76h-70v624Z" horiz-adv-x="335" vert-adv-y="1000"/><glyph glyph-name="uni0427" unicode="Ч" d="M22 394c0-29.33 9.33-52.67 28-70s44.33-26 77-26c13.33 0 31 2.33 53 7V0h88v700h-88V386c-14.67-4-27-6-37-6-22 0-33 6.67-33 20v300H22Z" horiz-adv-x="303" vert-adv-y="1000"/><glyph glyph-name="uni0428" unicode="Ш" d="M35 0h404v700h-88V76h-70v624h-88V76h-70v624H35Z" horiz-adv-x="474" vert-adv-y="1000"/><glyph glyph-name="uni0429" unicode="Щ" d="M35 700V0h365v-110h88V76h-49v624h-88V76h-70v624h-88V76h-70v624Z" horiz-adv-x="493" vert-adv-y="1000"/><glyph glyph-name="uni042A" unicode="Ъ" d="M5 624h77V0h151c28.67 0 51.83 8.83 69.5 26.5S329 67.33 329 96v206c0 28.67-8.83 51.83-26.5 69.5S261.67 398 233 398h-62v302H5ZM171 76v246h50c13.33 0 20-6.67 20-20V96c0-13.33-6.67-20-20-20Z" horiz-adv-x="349" vert-adv-y="1000"/><glyph glyph-name="uni042B" unicode="Ы" d="M185 0c28.67 0 51.83 8.67 69.5 26S281 66.67 281 96v206c0 29.33-8.83 52.67-26.5 70s-40.83 26-69.5 26h-62v302H35V0Zm138 0h88v700h-88ZM123 76v246h50c13.33 0 20-6.67 20-20V96c0-13.33-6.67-20-20-20Z" horiz-adv-x="446" vert-adv-y="1000"/><glyph glyph-name="uni042C" unicode="Ь" d="M35 700V0h150c28.67 0 51.83 8.67 69.5 26S281 66.67 281 96v206c0 29.33-8.83 52.67-26.5 70s-40.83 26-69.5 26h-62v302Zm88-624v246h50c13.33 0 20-6.67 20-20V96c0-13.33-6.67-20-20-20Z" horiz-adv-x="301" vert-adv-y="1000"/><glyph glyph-name="uni042D" unicode="Э" d="M126-3h54c29.33 0 52.67 8.83 70 26.5s26 40.83 26 69.5v514c0 28.67-8.67 51.83-26 69.5S209.33 703 180 703h-54c-29.33 0-52.67-8.83-70-26.5S30 635.67 30 607V472h88v129c0 13.33 6.67 20 20 20h30c13.33 0 20-6.67 20-20V388h-85v-76h85V99c0-13.33-6.67-20-20-20h-30c-13.33 0-20 6.67-20 20v125H30V93c0-28.67 8.67-51.83 26-69.5S96.67-3 126-3Z" horiz-adv-x="311" vert-adv-y="1000"/><glyph glyph-name="uni042E" unicode="Ю" d="M123 0v312h50V93c0-28.67 8.83-51.83 26.5-69.5S240.33-3 269-3h55c28.67 0 51.67 8.83 69 26.5s26 40.83 26 69.5v514c0 28.67-8.67 51.83-26 69.5S352.67 703 324 703h-55c-28.67 0-51.83-8.83-69.5-26.5S173 635.67 173 607V388h-50v312H35V0Zm158 79c-13.33 0-20 6.67-20 20v502c0 13.33 6.67 20 20 20h30c13.33 0 20-6.67 20-20V99c0-13.33-6.67-20-20-20Z" horiz-adv-x="454" vert-adv-y="1000"/><glyph glyph-name="uni042F" unicode="Я" d="m94 0 72 302h16V0h88v700H120c-29.33 0-52.67-8.67-70-26s-26-40.67-26-70V398c0-46.67 20.33-77 61-91L12 0Zm18 604c0 13.33 6.67 20 20 20h50V378h-50c-13.33 0-20 6.67-20 20Z" horiz-adv-x="305" vert-adv-y="1000"/><glyph glyph-name="uni0430" unicode="а" d="M30 86c0-26.67 6-48.17 18-64.5S76-3 96-3h33c18 0 32.67 6.67 44 20V0h82v394c0 26.67-8.33 48.17-25 64.5S191.67 483 165 483h-44c-26.67 0-48.33-8.17-65-24.5S31 420.67 31 394v-67h82v57c0 6 1.83 11.33 5.5 16s8.5 7 14.5 7h20c6 0 10.83-2.33 14.5-7s5.5-10 5.5-16V268c-12 14-26.67 21-44 21H96c-20 0-36-8.17-48-24.5S30 226.33 30 199Zm82 107c0 13.33 6.67 20 20 20h20c13.33 0 20-6.67 20-20V93c0-13.33-6.67-20-20-20h-20c-13.33 0-20 6.67-20 20Z" horiz-adv-x="285" vert-adv-y="1000"/><glyph glyph-name="uni0431" unicode="б" d="M30 83c0-26 8.17-46.83 24.5-62.5C70.83 4.83 92.67-3 120-3h44c26.67 0 48.33 8.17 65 24.5s25 37.83 25 64.5v308c0 26-8 47.33-24 64s-36.33 25-61 25h-7c-23.33 0-40-6.67-50-20v85c0 28 14 48 42 60l92 35v80l-104-38c-34-12.67-61.17-30.17-81.5-52.5S30 584 30 554Zm82 304c0 13.33 6.67 20 20 20h20c13.33 0 20-6.67 20-20V93c0-13.33-6.67-20-20-20h-20c-13.33 0-20 6.67-20 20Z" horiz-adv-x="284" vert-adv-y="1000"/><glyph glyph-name="uni0432" unicode="в" d="M30 0h134c26.67 0 48.33 7.5 65 22.5s25 34.83 25 59.5v101c0 31.33-12.67 54.33-38 69 22 14.67 33 36.33 33 65v82c0 24-8.33 43.5-25 58.5S185.67 480 159 480H30Zm82 70v145h40c13.33 0 20-6.67 20-20V90c0-13.33-6.67-20-20-20Zm0 215v126h35c13.33 0 20-6.67 20-20v-86c0-13.33-6.67-20-20-20Z" horiz-adv-x="276" vert-adv-y="1000"/><glyph glyph-name="uni0433" unicode="г" d="M30 0h82v411h90v69H30Z" horiz-adv-x="210" vert-adv-y="1000"/><glyph glyph-name="uni0434" unicode="д" d="M5-100h82V0h149v-100h82V70h-44v410H69L50 92c-.67-8.67-2.67-16-6-22H5ZM125 70c2 6.67 3.67 17.67 5 33l15 308h47V70Z" horiz-adv-x="323" vert-adv-y="1000"/><glyph glyph-name="uni0435" unicode="е" d="M30 394V86c0-26.67 8.33-48.17 25-64.5S93.33-3 120-3h44c26.67 0 48.33 8.17 65 24.5s25 37.83 25 64.5v75h-82V93c0-13.33-6.67-20-20-20h-20c-13.33 0-20 6.67-20 20v113h142v188c0 26.67-8.33 48.17-25 64.5S190.67 483 164 483h-44c-26.67 0-48.33-8.17-65-24.5S30 420.67 30 394Zm82-7c0 13.33 6.67 20 20 20h20c13.33 0 20-6.67 20-20V276h-60Z" horiz-adv-x="282" vert-adv-y="1000"/><glyph glyph-name="uni0436" unicode="ж" d="M157 0h82v223L305 0h85l-89 245 86 235h-85l-63-214v214h-82V263L93 480H8l86-235L5 0h85l67 226Z" horiz-adv-x="395" vert-adv-y="1000"/><glyph glyph-name="uni0437" unicode="з" d="M97 314v73c0 13.33 6.67 20 20 20h20c13.33 0 20-6.33 20-19v-87c0-12.67-6.67-19-20-19H91v-70h51c13.33 0 20-6.33 20-19V92c0-5.33-2.33-9.83-7-13.5S145 73 139 73h-20c-13.33 0-20 6.67-20 20v73H17V86c0-26.67 8.17-48.17 24.5-64.5S79.33-3 106-3h45c27.33 0 49.67 7.67 67 23s26 35.33 26 60v98c0 32-13 55.33-39 70 22.67 16 34 38.33 34 67v86c0 24.67-8.33 44.5-25 59.5S175.67 483 149 483h-44c-26.67 0-48.33-8.17-65-24.5S15 420.67 15 394v-80Z" horiz-adv-x="266" vert-adv-y="1000"/><glyph glyph-name="uni0438" unicode="и" d="M112 0v94l42 107c11.33 19.33 20 41.67 26 67h2c-6.67-29.33-10-53.33-10-72V0h82v480h-82v-93l-42-108c-11.33-19.33-20-42-26-68l-2 1c6.67 28 10 52 10 72v196H30V0Z" horiz-adv-x="284" vert-adv-y="1000"/><glyph glyph-name="uni0439" unicode="й" d="M112 0v94l42 107c11.33 19.33 20 41.67 26 67h2c-6.67-29.33-10-53.33-10-72V0h82v480h-82v-93l-42-108c-11.33-19.33-20-42-26-68l-2 1c6.67 28 10 52 10 72v196H30V0ZM54 593c0-21.33 6.67-38.67 20-52 13.33-13.33 30.67-20 52-20h32c21.33 0 38.67 6.67 52 20 13.33 13.33 20 30.67 20 52v18h-64v-13c0-11.33-5.67-17-17-17h-14c-11.33 0-17 5.67-17 17v13H54Z" horiz-adv-x="284" vert-adv-y="1000"/><glyph glyph-name="uni043A" unicode="к" d="M30 480V0h82v194L183 0h85l-94 245 91 235h-85l-68-185v185Z" horiz-adv-x="273" vert-adv-y="1000"/><glyph glyph-name="uni043B" unicode="л" d="M5-3h26c58 0 89 34.67 93 104l15 310h47V0h82v480H63L45 106c-1.33-22-10-33-26-33H5Z" horiz-adv-x="298" vert-adv-y="1000"/><glyph glyph-name="uni043C" unicode="м" d="M109 0v309c0 19.33-1.33 43.67-4 73h2c3.33-38 6-62 8-72L158 0h87l44 310c2.67 18.67 5.33 42.67 8 72h2c-2.67-29.33-4-53.67-4-73V0h79v480H247l-40-331c-2.67-19.33-4-43.67-4-73h-2c0 29.33-1.33 53.67-4 73l-40 331H30V0Z" horiz-adv-x="404" vert-adv-y="1000"/><glyph glyph-name="uni043D" unicode="н" d="M30 0h82v205h60V0h82v480h-82V275h-60v205H30Z" horiz-adv-x="284" vert-adv-y="1000"/><glyph glyph-name="uni043E" unicode="о" d="M120 483c-26.67 0-48.33-8.17-65-24.5S30 420.67 30 394V86c0-26.67 8.33-48.17 25-64.5S93.33-3 120-3h44c26.67 0 48.33 8.17 65 24.5s25 37.83 25 64.5v308c0 26.67-8.33 48.17-25 64.5S190.67 483 164 483Zm12-410c-13.33 0-20 6.67-20 20v294c0 13.33 6.67 20 20 20h20c13.33 0 20-6.67 20-20V93c0-13.33-6.67-20-20-20Z" horiz-adv-x="284" vert-adv-y="1000"/><glyph glyph-name="uni043F" unicode="п" d="M30 0h82v411h60V0h82v480H30Z" horiz-adv-x="284" vert-adv-y="1000"/><glyph glyph-name="uni0440" unicode="р" d="M30 480v-670h82V17c11.33-13.33 26-20 44-20h33c20 0 36 8.17 48 24.5s18 37.83 18 64.5v308c0 26.67-6 48.17-18 64.5S209 483 189 483h-33c-18 0-32.67-6.67-44-20v17Zm83-93c0 13.33 6.67 20 20 20h20c13.33 0 20-6.67 20-20V93c0-13.33-6.67-20-20-20h-20c-13.33 0-20 6.67-20 20Z" horiz-adv-x="285" vert-adv-y="1000"/><glyph glyph-name="uni0441" unicode="с" d="M30 394V86c0-26.67 8.33-48.17 25-64.5S93.33-3 120-3h44c26.67 0 48.33 8.17 65 24.5s25 37.83 25 64.5v93h-82V93c0-13.33-6.67-20-20-20h-20c-13.33 0-20 6.67-20 20v294c0 13.33 6.67 20 20 20h20c13.33 0 20-6.67 20-20v-86h82v93c0 26.67-8.33 48.17-25 64.5S190.67 483 164 483h-44c-26.67 0-48.33-8.17-65-24.5S30 420.67 30 394Z" horiz-adv-x="274" vert-adv-y="1000"/><glyph glyph-name="uni0442" unicode="т" d="M223 411v69H5v-69h68V0h82v411Z" horiz-adv-x="228" vert-adv-y="1000"/><glyph glyph-name="uni0443" unicode="у" d="M7 480 80 0h34l-10-81c-.67-10-5-18-13-24s-17.33-9-28-9H45v-76h31c55.33 0 88.67 34.33 100 103l82 567h-80l-41-326c-2.67-19.33-4-43.67-4-73h-2c0 29.33-1.33 53.67-4 73L88 480Z" horiz-adv-x="265" vert-adv-y="1000"/><glyph glyph-name="uni0444" unicode="ф" d="M30 90c0-26.67 8.33-48.33 25-65S93.33 0 120 0h47v-190h82V0h47c26.67 0 48.33 8.33 65 25s25 38.33 25 65v301c0 26.67-8.33 48.17-25 64.5S322.67 480 296 480h-47v240h-82V480h-47c-26.67 0-48.33-8.17-65-24.5S30 417.67 30 391Zm82 294c0 13.33 6.67 20 20 20h35V76h-35c-13.33 0-20 6.67-20 20Zm172 20c13.33 0 20-6.67 20-20V96c0-13.33-6.67-20-20-20h-35v328Z" horiz-adv-x="416" vert-adv-y="1000"/><glyph glyph-name="uni0445" unicode="х" d="M5 0h86l32 107c8.67 19.33 13 42.67 13 70h2c0-24.67 4.33-48 13-70L183 0h85l-88 245 85 235h-85l-29-98c-8.67-19.33-13-42.67-13-70h-2c0 25.33-4.33 48.67-13 70l-29 98H8l86-235Z" horiz-adv-x="273" vert-adv-y="1000"/><glyph glyph-name="uni0446" unicode="ц" d="M30 480V0h182v-100h82V70h-40v410h-82V70h-60v410Z" horiz-adv-x="299" vert-adv-y="1000"/><glyph glyph-name="uni0447" unicode="ч" d="M17 278c0-60 29.33-90 88-90 16 0 34 2.33 54 7V0h82v480h-82V269c-15.33-3.33-26-5-32-5-18.67 0-28 6.67-28 20v196H17Z" horiz-adv-x="271" vert-adv-y="1000"/><glyph glyph-name="uni0448" unicode="ш" d="M30 0h366v480h-82V70h-60v410h-82V70h-60v410H30Z" horiz-adv-x="426" vert-adv-y="1000"/><glyph glyph-name="uni0449" unicode="щ" d="M30 480V0h324v-100h82V70h-40v410h-82V70h-60v410h-82V70h-60v410Z" horiz-adv-x="441" vert-adv-y="1000"/><glyph glyph-name="uni044A" unicode="ъ" d="M8 411h68V0h134c26.67 0 48.33 8.33 65 25s25 38.33 25 65v101c0 27.33-8.33 49.17-25 65.5S236.67 281 210 281h-52v199H8ZM158 70v141h40c13.33 0 20-6.67 20-20V90c0-13.33-6.67-20-20-20Z" horiz-adv-x="312" vert-adv-y="1000"/><glyph glyph-name="uni044B" unicode="ы" d="M30 480V0h134c26.67 0 48.33 8.33 65 25s25 38.33 25 65v101c0 27.33-8.33 49.17-25 65.5S190.67 281 164 281h-52v199ZM373 0v480h-82V0ZM112 70v141h40c13.33 0 20-6.67 20-20V90c0-13.33-6.67-20-20-20Z" horiz-adv-x="403" vert-adv-y="1000"/><glyph glyph-name="uni044C" unicode="ь" d="M30 480V0h134c26.67 0 48.33 8.33 65 25s25 38.33 25 65v101c0 27.33-8.33 49.17-25 65.5S190.67 281 164 281h-52v199Zm82-410v141h40c13.33 0 20-6.67 20-20V90c0-13.33-6.67-20-20-20Z" horiz-adv-x="266" vert-adv-y="1000"/><glyph glyph-name="uni044D" unicode="э" d="M20 321h82v66c0 13.33 6.67 20 20 20h20c13.33 0 20-6.67 20-20V275h-53v-70h53V93c0-13.33-6.67-20-20-20h-20c-13.33 0-20 6.67-20 20v66H20V86c0-26.67 8.33-48.17 25-64.5S83.33-3 110-3h44c26.67 0 48.33 8.17 65 24.5s25 37.83 25 64.5v308c0 26.67-8.33 48.17-25 64.5S180.67 483 154 483h-44c-26.67 0-48.33-8.17-65-24.5S20 420.67 20 394Z" horiz-adv-x="274" vert-adv-y="1000"/><glyph glyph-name="uni044E" unicode="ю" d="M30 0h82v205h50V86c0-26.67 8.17-48.17 24.5-64.5S224.33-3 251-3h45c26.67 0 48.33 8.17 65 24.5s25 37.83 25 64.5v308c0 26.67-8.33 48.17-25 64.5S322.67 483 296 483h-45c-26.67 0-48.17-8.17-64.5-24.5S162 420.67 162 394V275h-50v205H30Zm234 73c-13.33 0-20 6.67-20 20v294c0 13.33 6.67 20 20 20h20c13.33 0 20-6.67 20-20V93c0-13.33-6.67-20-20-20Z" horiz-adv-x="416" vert-adv-y="1000"/><glyph glyph-name="uni044F" unicode="я" d="M19 0h82l37 194h26V0h82v480H111c-26.67 0-48.17-8.17-64.5-24.5S22 417.67 22 391V284c0-37.33 14.67-64 44-80Zm85 391c0 13.33 6.67 20 20 20h40V264h-40c-13.33 0-20 6.67-20 20Z" horiz-adv-x="276" vert-adv-y="1000"/><glyph glyph-name="uni0450" unicode="ѐ" d="M30 394V86c0-26.67 8.33-48.17 25-64.5S93.33-3 120-3h44c26.67 0 48.33 8.17 65 24.5s25 37.83 25 64.5v75h-82V93c0-13.33-6.67-20-20-20h-20c-13.33 0-20 6.67-20 20v113h142v188c0 26.67-8.33 48.17-25 64.5S190.67 483 164 483h-44c-26.67 0-48.33-8.17-65-24.5S30 420.67 30 394Zm91 137h64l-42 137H56Zm-9-144c0 13.33 6.67 20 20 20h20c13.33 0 20-6.67 20-20V276h-60Z" horiz-adv-x="282" vert-adv-y="1000"/><glyph glyph-name="uni0451" unicode="ё" d="M30 394V86c0-26.67 8.33-48.17 25-64.5S93.33-3 120-3h44c26.67 0 48.33 8.17 65 24.5s25 37.83 25 64.5v75h-82V93c0-13.33-6.67-20-20-20h-20c-13.33 0-20 6.67-20 20v113h142v188c0 26.67-8.33 48.17-25 64.5S190.67 483 164 483h-44c-26.67 0-48.33-8.17-65-24.5S30 420.67 30 394Zm82-7c0 13.33 6.67 20 20 20h20c13.33 0 20-6.67 20-20V276h-60Zm14 147v92H56v-92Zm32 92v-92h70v92Z" horiz-adv-x="282" vert-adv-y="1000"/><glyph glyph-name="uni0452" unicode="ђ" d="M197 610v39h-85v71H30v-71H3v-39h27V0h82v387c0 13.33 6.67 20 20 20h20c13.33 0 20-6.67 20-20V-81c0-10-3.17-18-9.5-24s-14.5-9-24.5-9h-21v-76h33c31.33 0 56.5 9.5 75.5 28.5S254-117.67 254-87v481c0 26.67-6 48.17-18 64.5S208 483 188 483h-33c-17.33 0-31.67-6.33-43-19v146Z" horiz-adv-x="284" vert-adv-y="1000"/><glyph glyph-name="uni0453" unicode="ѓ" d="M112 0v411h90v69H30V0ZM72 531h63l66 137h-87Z" horiz-adv-x="210" vert-adv-y="1000"/><glyph glyph-name="uni0454" unicode="є" d="M30 394V86c0-26.67 8.33-48.17 25-64.5S93.33-3 120-3h44c26.67 0 48.33 8.17 65 24.5s25 37.83 25 64.5v70h-82V93c0-13.33-6.67-20-20-20h-20c-13.33 0-20 6.67-20 20v112h73v70h-73v112c0 13.33 6.67 20 20 20h20c13.33 0 20-6.67 20-20v-62h82v69c0 26.67-8.33 48.17-25 64.5S190.67 483 164 483h-44c-26.67 0-48.33-8.17-65-24.5S30 420.67 30 394Z" horiz-adv-x="274" vert-adv-y="1000"/><glyph glyph-name="uni0455" unicode="ѕ" d="M25 394v-89c0-14.67 4.33-28.5 13-41.5S58 241 72 235l83-37c10-4.67 15-12.33 15-23V93c0-13.33-6.67-20-20-20h-20c-13.33 0-20 6.67-20 20v68H28V86c0-26.67 8.33-48.17 25-64.5S91.33-3 118-3h44c26.67 0 48.33 8.17 65 24.5s25 37.83 25 64.5v106c0 14.67-4.33 28.5-13 41.5S219 256 205 262l-83 37c-10 3.33-15 10.67-15 22v66c0 13.33 6.67 20 20 20h20c13.33 0 20-6.67 20-20v-64h82v71c0 26.67-8.33 48.17-25 64.5S185.67 483 159 483h-44c-26.67 0-48.33-8.17-65-24.5S25 420.67 25 394Z" horiz-adv-x="272" vert-adv-y="1000"/><glyph glyph-name="uni0456" unicode="і" d="M30 0h82v480H30Zm0 681V578h82v103Z" horiz-adv-x="142" vert-adv-y="1000"/><glyph glyph-name="uni0457" unicode="ї" d="M30 0h82v480H30ZM-9 626v-92h67v92Zm93 0v-92h67v92Z" horiz-adv-x="142" vert-adv-y="1000"/><glyph glyph-name="uni0458" unicode="ј" d="M9-190c31.33 0 56.33 9.33 75 28s28 43.67 28 75v567H30V-81c0-10-3-18-9-24s-14.33-9-25-9h-24v-76Zm21 871V578h82v103Z" horiz-adv-x="142" vert-adv-y="1000"/><glyph glyph-name="uni0459" unicode="љ" d="M31 0c58 0 89 34.33 93 103l15 308h47V0h134c26.67 0 48.33 8.33 65 25s25 38.33 25 65v101c0 27.33-8.33 49.17-25 65.5S346.67 281 320 281h-52v199H63L45 110c-1.33-22.67-10-34-26-34H5V0Zm237 70v141h40c13.33 0 20-6.67 20-20V90c0-13.33-6.67-20-20-20Z" horiz-adv-x="423" vert-adv-y="1000"/><glyph glyph-name="uni045A" unicode="њ" d="M30 0h82v208h60V0h134c26.67 0 48.33 8.33 65 25s25 38.33 25 65v98c0 26.67-8.33 48.33-25 65s-38.33 25-65 25h-52v202h-82V278h-60v202H30Zm264 208c13.33 0 20-6.67 20-20V90c0-13.33-6.67-20-20-20h-40v138Z" horiz-adv-x="409" vert-adv-y="1000"/><glyph glyph-name="uni045B" unicode="ћ" d="M197 610v39h-85v71H30v-71H3v-39h27V0h82v387c0 13.33 6.67 20 20 20h20c13.33 0 20-6.67 20-20V0h82v394c0 26.67-6 48.17-18 64.5S208 483 188 483h-33c-17.33 0-31.67-6.33-43-19v146Z" horiz-adv-x="284" vert-adv-y="1000"/><glyph glyph-name="uni045C" unicode="ќ" d="M30 0h82v194L183 0h85l-94 245 91 235h-85l-68-185v185H30Zm75 531h64l65 137h-87Z" horiz-adv-x="273" vert-adv-y="1000"/><glyph glyph-name="uni045D" unicode="ѝ" d="M30 480V0h82v94l42 107c11.33 19.33 20 41.67 26 67h2c-6.67-29.33-10-53.33-10-72V0h82v480h-82v-93l-42-108c-11.33-19.33-20-42-26-68l-2 1c6.67 28 10 52 10 72v196Zm26 188 65-137h64l-42 137Z" horiz-adv-x="284" vert-adv-y="1000"/><glyph glyph-name="uni045E" unicode="ў" d="M80 0h34l-10-81c-.67-10-5-18-13-24s-17.33-9-28-9H45v-76h31c55.33 0 88.67 34.33 100 103l82 567h-80l-41-326c-2.67-19.33-4-43.67-4-73h-2c0 29.33-1.33 53.67-4 73L88 480H7ZM45 593c0-21.33 6.5-38.67 19.5-52 13-13.33 30.17-20 51.5-20h33c21.33 0 38.5 6.67 51.5 20s19.5 30.67 19.5 52v18h-64v-13c0-11.33-5.67-17-17-17h-13c-11.33 0-17 5.67-17 17v13H45Z" horiz-adv-x="265" vert-adv-y="1000"/><glyph glyph-name="uni045F" unicode="џ" d="M30 480V0h71v-100h82V0h71v480h-82V70h-60v410Z" horiz-adv-x="284" vert-adv-y="1000"/><glyph glyph-name="uni0490" unicode="Ґ" d="M35 0h88v624h95v192h-88V700H35Z" horiz-adv-x="223" vert-adv-y="1000"/><glyph glyph-name="uni0491" unicode="ґ" d="M30 0h82v411h90v183h-82V480H30Z" horiz-adv-x="210" vert-adv-y="1000"/><glyph glyph-name="uni04D8" unicode="Ә" d="M118 472v129c0 13.33 6.67 20 20 20h30c13.33 0 20-6.67 20-20V379H30V93c0-28.67 8.67-51.83 26-69.5S96.67-3 126-3h54c29.33 0 52.67 8.83 70 26.5s26 40.83 26 69.5v514c0 28.67-8.67 51.83-26 69.5S209.33 703 180 703h-54c-29.33 0-52.67-8.83-70-26.5S30 635.67 30 607V472Zm70-169V99c0-13.33-6.67-20-20-20h-30c-13.33 0-20 6.67-20 20v204Z" horiz-adv-x="311" vert-adv-y="1000"/><glyph glyph-name="uni04D9" unicode="ә" d="M30 319h82v68c0 13.33 6.67 20 20 20h20c13.33 0 20-6.67 20-20V274H30V86c0-26.67 8.33-48.17 25-64.5S93.33-3 120-3h44c26.67 0 48.33 8.17 65 24.5s25 37.83 25 64.5v308c0 26.67-8.33 48.17-25 64.5S190.67 483 164 483h-44c-26.67 0-48.33-8.17-65-24.5S30 420.67 30 394Zm82-226v111h60V93c0-13.33-6.67-20-20-20h-20c-13.33 0-20 6.67-20 20Z" horiz-adv-x="284" vert-adv-y="1000"/><glyph glyph-name="uni1E80" unicode="Ẁ" d="M5 700 77 0h116l47 521c1.33 14.67 2 39 2 73h2c0-26.67 1-51 3-73L294 0h117l70 700h-81l-44-524c-1.33-14.67-2-39-2-73h-2c0 26.67-1 51-3 73l-44 524H182l-44-524c-1.33-14.67-2-39-2-73h-2c0 34-.67 58.33-2 73L87 700Zm152 188 66-137h64l-42 137Z" horiz-adv-x="486" vert-adv-y="1000"/><glyph glyph-name="uni1E81" unicode="ẁ" d="M7 480 74 0h96l37 328c2 14.67 3 39 3 73h2c0-29.33 1.33-53.67 4-73L253 0h96l67 480h-80l-36-331c-2-22-3-46.33-3-73h-2c0 26.67-1 51-3 73l-37 331h-87l-37-331c-2-22-3-46.33-3-73h-2c0 26.67-1 51-3 73L87 480Zm184 51h64l-42 137h-87Z" horiz-adv-x="423" vert-adv-y="1000"/><glyph glyph-name="uni1E82" unicode="Ẃ" d="M77 0h116l47 521c1.33 14.67 2 39 2 73h2c0-26.67 1-51 3-73L294 0h117l70 700h-81l-44-524c-1.33-14.67-2-39-2-73h-2c0 26.67-1 51-3 73l-44 524H182l-44-524c-1.33-14.67-2-39-2-73h-2c0 34-.67 58.33-2 73L87 700H5Zm122 751h64l65 137h-87Z" horiz-adv-x="486" vert-adv-y="1000"/><glyph glyph-name="uni1E83" unicode="ẃ" d="M74 0h96l37 328c2 14.67 3 39 3 73h2c0-29.33 1.33-53.67 4-73L253 0h96l67 480h-80l-36-331c-2-22-3-46.33-3-73h-2c0 26.67-1 51-3 73l-37 331h-87l-37-331c-2-22-3-46.33-3-73h-2c0 26.67-1 51-3 73L87 480H7Zm93 531h64l65 137h-87Z" horiz-adv-x="423" vert-adv-y="1000"/><glyph glyph-name="uni1E84" unicode="Ẅ" d="M77 0h116l47 521c1.33 14.67 2 39 2 73h2c0-26.67 1-51 3-73L294 0h117l70 700h-81l-44-524c-1.33-14.67-2-39-2-73h-2c0 26.67-1 51-3 73l-44 524H182l-44-524c-1.33-14.67-2-39-2-73h-2c0 34-.67 58.33-2 73L87 700H5Zm80 846v-92h71v92Zm173-92v92h-71v-92Z" horiz-adv-x="486" vert-adv-y="1000"/><glyph glyph-name="uni1E85" unicode="ẅ" d="M74 0h96l37 328c2 14.67 3 39 3 73h2c0-29.33 1.33-53.67 4-73L253 0h96l67 480h-80l-36-331c-2-22-3-46.33-3-73h-2c0 26.67-1 51-3 73l-37 331h-87l-37-331c-2-22-3-46.33-3-73h-2c0 26.67-1 51-3 73L87 480H7Zm51 534h71v92h-71Zm173 0v92h-71v-92Z" horiz-adv-x="423" vert-adv-y="1000"/><glyph glyph-name="uni1E9E" unicode="ẞ" d="M35 0h88v605c0 12.67 6 19 18 19h60l-46-215v-78h18c13.33 0 20-6.67 20-20V93c0-13.33-6.67-20-20-20h-27l2-76h37c28.67 0 51.83 9 69.5 27S281 65.67 281 95v219c0 39.33-15.67 67-47 83l52 244v59H129c-28.67 0-51.5-7.83-68.5-23.5S35 640.33 35 615Z" horiz-adv-x="306" vert-adv-y="1000"/><glyph glyph-name="uni1EF2" unicode="Ỳ" d="m7 700 88-439V0h88v264l89 436h-84l-42-271c-3.33-17.33-5-41.33-5-72h-2c0 27.33-2 51.33-6 72L91 700Zm112 51h64l-42 137H54Z" horiz-adv-x="278" vert-adv-y="1000"/><glyph glyph-name="uni1EF3" unicode="ỳ" d="M80 0h34l-10-81c-.67-10-5-18-13-24s-17.33-9-28-9H45v-76h31c55.33 0 88.67 34.33 100 103l82 567h-80l-41-326c-2.67-19.33-4-43.67-4-73h-2c0 29.33-1.33 53.67-4 73L88 480H7ZM44 668l65-137h64l-42 137Z" horiz-adv-x="265" vert-adv-y="1000"/><glyph glyph-name="uni2012" unicode="‒" d="M30 315h224v70H30Z" horiz-adv-x="284" vert-adv-y="1000"/><glyph glyph-name="uni2013" unicode="–" d="M20 235h243v70H20Z" horiz-adv-x="283" vert-adv-y="1000"/><glyph glyph-name="uni2014" unicode="—" d="M20 235h400v70H20Z" horiz-adv-x="440" vert-adv-y="1000"/><glyph glyph-name="uni2018" unicode="‘" d="M110 700H54L20 477h70Z" horiz-adv-x="125" vert-adv-y="1000"/><glyph glyph-name="uni2019" unicode="’" d="M15 477h55l35 223H35Z" horiz-adv-x="125" vert-adv-y="1000"/><glyph glyph-name="uni201A" unicode="‚" d="M15-120h55l35 223H35Z" horiz-adv-x="125" vert-adv-y="1000"/><glyph glyph-name="uni201B" unicode="‛" d="m15 700 34-223h56L85 700Z" horiz-adv-x="120" vert-adv-y="1000"/><glyph glyph-name="uni201C" unicode="“" d="M15 477h70l20 223H49Zm163 0 20 223h-55l-35-223Z" horiz-adv-x="213" vert-adv-y="1000"/><glyph glyph-name="uni201D" unicode="”" d="m70 477 35 223H35L15 477Zm94 0 34 223h-70l-20-223Z" horiz-adv-x="213" vert-adv-y="1000"/><glyph glyph-name="uni201E" unicode="„" d="m164-120 34 223h-70l-20-223Zm-94 0 35 223H35L15-120Z" horiz-adv-x="218" vert-adv-y="1000"/><glyph glyph-name="uni201F" unicode="‟" d="M143 477h55l-20 223h-70ZM15 700l34-223h56L84 700Z" horiz-adv-x="213" vert-adv-y="1000"/><glyph glyph-name="uni2020" unicode="†" d="M204 499v70h-62v131H72V569H10v-70h62V0h70v499Z" horiz-adv-x="214" vert-adv-y="1000"/><glyph glyph-name="uni2021" unicode="‡" d="M10 562v-69h62V207H10v-69h62V0h70v138h62v69h-62v286h62v69h-62v138H72V562Z" horiz-adv-x="214" vert-adv-y="1000"/><glyph glyph-name="uni2022" unicode="•" d="M27 203h122v134H27Z" horiz-adv-x="176" vert-adv-y="1000"/><glyph glyph-name="uni2026" unicode="…" d="M163 0h82v103h-82Zm-54 0v103H27V0Zm189 0h82v103h-82Z" horiz-adv-x="407" vert-adv-y="1000"/><glyph glyph-name="uni2030" unicode="‰" d="M18 445c0-30 8.5-54.17 25.5-72.5S83.33 345 112 345h16c28.67 0 51.67 9.17 69 27.5s26 42.5 26 72.5v159c0 29.33-8.67 53.17-26 71.5S156.67 703 128 703h-16c-28.67 0-51.5-9.17-68.5-27.5S18 633.33 18 604ZM527 96c0-29.33 8.5-53.17 25.5-71.5S592.33-3 621-3h16c28.67 0 51.67 9.17 69 27.5s26 42.17 26 71.5v160c0 29.33-8.67 53.17-26 71.5S665.67 355 637 355h-16c-28.67 0-51.5-9.17-68.5-27.5S527 285.33 527 256Zm-236 0c0-29.33 8.67-53.17 26-71.5S357.33-3 386-3h16c28.67 0 51.67 9.17 69 27.5s26 42.17 26 71.5v160c0 29.33-8.67 53.17-26 71.5S430.67 355 402 355h-16c-28.67 0-51.67-9.17-69-27.5s-26-42.17-26-71.5ZM179 0l229 700h-73L105 0ZM90 607c0 20 8.33 30 25 30h10c16.67 0 25-10 25-30V441c0-20-8.33-30-25-30h-10c-16.67 0-25 10-25 30Zm509-348c0 20 8.33 30 25 30h10c16.67 0 25-10 25-30V93c0-20-8.33-30-25-30h-10c-16.67 0-25 10-25 30Zm-235 0c0 20 8.33 30 25 30h10c16.67 0 25-10 25-30V93c0-20-8.33-30-25-30h-10c-16.67 0-25 10-25 30Z" horiz-adv-x="749" vert-adv-y="1000"/><glyph glyph-name="uni2039" unicode="‹" d="M95 92h73L95 260l73 169H95L25 260Z" horiz-adv-x="188" vert-adv-y="1000"/><glyph glyph-name="uni203A" unicode="›" d="M93 429H20l73-169L20 92h73l70 168Z" horiz-adv-x="188" vert-adv-y="1000"/><glyph glyph-name="uni203C" unicode="‼" d="M153 183h68l7 517h-82Zm-119 0h68l7 517H27Zm112-80V0h82v103ZM27 0h82v103H27Z" horiz-adv-x="254" vert-adv-y="1000"/><glyph glyph-name="uni2044" unicode="⁄" d="M0 0h74l230 700h-74Z" horiz-adv-x="304" vert-adv-y="1000"/><glyph glyph-name="uni20AC" unicode="€" d="M35 278V93c0-28.67 8.83-51.83 26.5-69.5S102.33-3 131-3h54c28.67 0 51.83 8.83 69.5 26.5S281 64.33 281 93v113h-88V99c0-13.33-6.67-20-20-20h-30c-13.33 0-20 6.67-20 20v179h72v51h-72v42h72v51h-72v179c0 13.33 6.67 20 20 20h30c13.33 0 20-6.67 20-20V491h88v116c0 28.67-8.83 51.83-26.5 69.5S213.67 703 185 703h-54c-28.67 0-51.83-8.83-69.5-26.5S35 635.67 35 607V422H0v-51h35v-42H0v-51Z" horiz-adv-x="311" vert-adv-y="1000"/><glyph glyph-name="uni20B4" unicode="₴" d="M4 374h104l-38-42H4v-51h29c-5.33-14-8-27.33-8-40V93c0-28.67 8.83-51.83 26.5-69.5S92.33-3 121-3h54c28.67 0 51.83 8.83 69.5 26.5S271 64.33 271 93v111h-88V99c0-13.33-6.67-20-20-20h-30c-13.33 0-20 6.67-20 20v145c0 10.67 4 19.33 12 26l10 11h157v51H182l37 42h73v51h-32c7.33 16 11 32 11 48v134c0 28.67-8.83 51.83-26.5 69.5S203.67 703 175 703h-54c-28.67 0-51.83-8.83-69.5-26.5S25 635.67 25 607V497h88v104c0 13.33 6.67 20 20 20h30c13.33 0 20-6.67 20-20V470c0-10.67-4-19.33-12-26l-17-19H4Z" horiz-adv-x="296" vert-adv-y="1000"/><glyph glyph-name="uni20B8" unicode="₸" d="M248 509v75H5v-75h77V0h89v509ZM5 700v-69h243v69Z" horiz-adv-x="253" vert-adv-y="1000"/><glyph glyph-name="uni20BF" unicode="₿" d="M2 624h33V76H2L3 0h58v-96h58V0h41v-96h57V4c20 5.33 35.67 15.67 47 31 11.33 15.33 17 33.67 17 55v195c0 37.33-16 63-48 77 28.67 16 43 41 43 75v178c0 40-19.67 66.67-59 80v101h-57v-96h-41v96H61v-96H2Zm121-301h50c13.33 0 20-6.67 20-20V96c0-13.33-6.67-20-20-20h-50Zm45 301c13.33 0 20-6.33 20-19V419c0-13.33-6.67-20-20-20h-45v225Z" horiz-adv-x="306" vert-adv-y="1000"/><glyph glyph-name="uni2113" unicode="ℓ" d="m7 126 46 30v-1c0-48 9.5-86.67 28.5-116S125.33-5 156-5c12.67 0 25.33 2.67 38 8 12.67 5.33 23.33 11.33 32 18 8.67 6.67 17 14.33 25 23s13.17 14.67 15.5 18 4.17 6 5.5 8l-38 53-7-13c-4.67-9.33-12-18.67-22-28-10-9.33-20.33-14-31-14-13.33 0-24.17 8.17-32.5 24.5-8.33 16.33-12.5 37.17-12.5 62.5v68c83.33 91.33 125 196.67 125 316 0 56-9.33 100.67-28 134s-44 50-76 50c-28.67 0-52-12-70-36s-27-55.33-27-94V236c-17.33-16-32.67-28-46-36Zm122 207v262c0 16 2.17 29.17 6.5 39.5 4.33 10.33 9.83 15.5 16.5 15.5 19.33 0 29-35.33 29-106 0-77.33-17.33-147.67-52-211Z" horiz-adv-x="282" vert-adv-y="1000"/><glyph glyph-name="uni2116" unicode="№" d="M35 700V0h85v364c0 12-1.67 36.33-5 73h2c2.67-29.33 6.67-53.33 12-72L198 0h85v700h-85V334c0-12 1.67-36.33 5-73h-2c-2.67 27.33-6.33 51.33-11 72l-70 367Zm382 3c-28.67 0-51.67-9.17-69-27.5s-26-42.17-26-71.5V483c0-30 8.67-54.17 26-72.5s40.33-27.5 69-27.5h16c28.67 0 51.67 9.17 69 27.5s26 42.5 26 72.5v121c0 29.33-8.67 53.17-26 71.5S461.67 703 433 703Zm-95-432h206v57H322Zm73 336c0 20 8.33 30 25 30h10c16.67 0 25-10 25-30V480c0-20-8.33-30-25-30h-10c-16.67 0-25 10-25 30Z" horiz-adv-x="556" vert-adv-y="1000"/><glyph glyph-name="uni2117" unicode="℗" d="M30 165c0-50.67 14.83-91.67 44.5-123S143.33-5 192-5h55c48.67 0 87.83 15.67 117.5 47S409 114.33 409 165v371c0 50.67-14.83 91.5-44.5 122.5S295.67 705 247 705h-55c-48.67 0-87.83-15.5-117.5-46.5S30 586.67 30 536Zm63 371c0 32.67 9.17 59 27.5 79s42.17 30 71.5 30h55c29.33 0 53-10 71-30s27-46.33 27-79V164c0-32.67-9-59-27-79s-41.67-30-71-30h-55c-29.33 0-53.17 10-71.5 30S93 131.33 93 164Zm54-358h59v129h33c20.67 0 37.33 6.17 50 18.5 12.67 12.33 19 29.17 19 50.5v83c0 20.67-6.33 37.33-19 50-12.67 12.67-29.33 19-50 19h-92Zm87 300c9.33 0 14-4.67 14-14v-92c0-9.33-4.67-14-14-14h-28v120Z" horiz-adv-x="439" vert-adv-y="1000"/><glyph glyph-name="uni2122" unicode="™" d="M180 700V350h58v228c0 5.33-.5 14.17-1.5 26.5S235 625.33 235 630h1c1.33-20.67 3.33-38 6-52l31-228h63l31 228c2 17.33 3.67 34.67 5 52h2c-2-14.67-3-32-3-52V350h57v350h-92l-29-242c-1.33-20-2-37.67-2-53h-1c0 20.67-1 38.33-3 53l-28 242Zm-20-51v51H5v-51h48V350h60v299Z" horiz-adv-x="449" vert-adv-y="1000"/><glyph glyph-name="uni212E" unicode="℮" d="M408-7c70 0 134.5 19 193.5 57S704.33 139 733 203h-44c-28-52.67-67-94.17-117-124.5S467.33 33 408 33c-73.33 0-139 23-197 69v248h554c0 98.67-34.83 182.83-104.5 252.5C590.83 672.17 506.67 707 408 707c-98.67 0-182.83-34.83-252.5-104.5C85.83 532.83 51 448.67 51 350c0-98.67 35-182.83 105-252.5C226 27.83 310-7 408-7ZM211 390v208c58 46 123.67 69 197 69s139-23 197-69V390Z" horiz-adv-x="817" vert-adv-y="1000"/><glyph glyph-name="uni2150" unicode="⅐" d="m138 0 229 700h-74L63 0Zm138 295h93L295 0h60l78 315v35H276ZM84 700c0-18-5.83-32-17.5-42S38.33 643 17 643v-36h61V350h60v350Z" horiz-adv-x="447" vert-adv-y="1000"/><glyph glyph-name="uni2151" unicode="⅑" d="M63 0h75l229 700h-74Zm211 67c0-21.33 6.17-38.33 18.5-51C304.83 3.33 321.33-3 342-3h25c20.67 0 37.17 6.33 49.5 19C428.83 28.67 435 45.67 435 67v224c0 18.67-6.17 33.67-18.5 45-12.33 11.33-28.83 17-49.5 17h-25c-20.67 0-37.17-6.33-49.5-19-12.33-12.67-18.5-29.67-18.5-51v-71c0-22.67 5-41.17 15-55.5 10-14.33 23.67-21.5 41-21.5h22c9.33 0 17.33 3 24 9V77c0-16-6-24-18-24h-7c-12 0-18 8-18 24v34h-59ZM17 607h61V350h60v350H84c0-18-5.83-32-17.5-42S38.33 643 17 643Zm316-332c0 6.67 1.67 12.17 5 16.5s7.67 6.5 13 6.5h7c12 0 18-7 18-21v-70c0-14-6-21-18-21h-8c-11.33 0-17 7-17 21Z" horiz-adv-x="456" vert-adv-y="1000"/><glyph glyph-name="uni2152" unicode="⅒" d="M520 353c-20.67 0-37.33-6.67-50-20-12.67-13.33-19-30.67-19-52V70c0-21.33 6.33-38.83 19-52.5C482.67 3.83 499.33-3 520-3h25c20 0 36.33 6.83 49 20.5 12.67 13.67 19 31.17 19 52.5v211c0 21.33-6.33 38.67-19 52-12.67 13.33-29 20-49 20ZM63 0h75l229 700h-74Zm277 350c0-18-5.83-32-17.5-42s-28.17-15-49.5-15v-36h61V0h60v350ZM17 607h61V350h60v350H84c0-18-5.83-32-17.5-42S38.33 643 17 643Zm494-331c0 14.67 5.67 22 17 22h8c11.33 0 17-7.33 17-22V74c0-14-5.67-21-17-21h-8c-11.33 0-17 7-17 21Z" horiz-adv-x="634" vert-adv-y="1000"/><glyph glyph-name="uni2153" unicode="⅓" d="m138 0 229 700h-74L63 0Zm204 353c-20.67 0-37.17-6.33-49.5-19-12.33-12.67-18.5-29.33-18.5-50v-53h59v42c0 16.67 6 25 18 25h7c12 0 18-8.33 18-25v-45c0-13.33-6-20-18-20h-23v-55h23c12 0 18-7.33 18-22V73c0-13.33-6-20-18-20h-7c-12 0-18 6.67-18 20v42h-59V60c0-18.67 6.17-33.83 18.5-45.5C304.83 2.83 321.33-3 342-3h25c20.67 0 37.17 5.83 49.5 17.5C428.83 26.17 435 41.33 435 60v61c0 26.67-9 46.33-27 59 18 12.67 27 32.33 27 59v45c0 20.67-6.17 37.33-18.5 50-12.33 12.67-28.83 19-49.5 19ZM17 607h61V350h60v350H84c0-18-5.83-32-17.5-42S38.33 643 17 643Z" horiz-adv-x="456" vert-adv-y="1000"/><glyph glyph-name="uni2154" unicode="⅔" d="m159 0 229 700h-73L85 0Zm136 60c0-18.67 6.17-33.83 18.5-45.5C325.83 2.83 342.33-3 363-3h25c20.67 0 37.17 5.83 49.5 17.5C449.83 26.17 456 41.33 456 60v61c0 26.67-9 46.33-27 59 18 12.67 27 32.33 27 59v45c0 20.67-6.17 37.33-18.5 50-12.33 12.67-28.83 19-49.5 19h-25c-20.67 0-37.17-6.33-49.5-19-12.33-12.67-18.5-29.33-18.5-50v-53h60v42c0 16.67 5.67 25 17 25h7c12 0 18-8.33 18-25v-45c0-13.33-6-20-18-20h-23v-55h23c12 0 18-7.33 18-22V73c0-13.33-6-20-18-20h-7c-11.33 0-17 6.67-17 20v42h-60ZM181 350v55H77v10c0 10 4.33 18 13 24l47 50c28 18 42 43.67 42 77v68c0 20.67-6.17 37.33-18.5 50-12.33 12.67-28.83 19-49.5 19H86c-20.67 0-37.17-6.33-49.5-19C24.17 671.33 18 654.67 18 634v-62h59v51c0 16.67 6 25 18 25h7c12 0 18-8.33 18-25v-64c0-10.67-4.33-18.67-13-24l-47-49c-28-18-42-44-42-78v-58Z" horiz-adv-x="477" vert-adv-y="1000"/><glyph glyph-name="uni2155" unicode="⅕" d="M63 0h75l229 700h-74Zm213 155h59c0 6 1.67 11 5 15s7.67 6 13 6h7c12 0 18-7 18-21V75c0-14.67-6-22-18-22h-7c-11.33 0-17 6.67-17 20v42h-59V60c0-18.67 6.17-33.83 18.5-45.5C307.83 2.83 324-3 344-3h26c20.67 0 37 6.5 49 19.5s18 30.17 18 51.5v82c0 23.33-5.17 42-15.5 56s-23.83 21-40.5 21h-22c-8.67 0-16.67-3-24-9v77h90v55H276ZM78 607V350h60v350H84c0-18-5.83-32-17.5-42S38.33 643 17 643v-36Z" horiz-adv-x="452" vert-adv-y="1000"/><glyph glyph-name="uni2156" unicode="⅖" d="m159 0 229 700h-73L85 0Zm138 155h60c0 14 5.67 21 17 21h8c12 0 18-7 18-21V75c0-14.67-6-22-18-22h-7c-11.33 0-17 6.67-17 20v42h-60V60c0-18.67 6.17-33.83 18.5-45.5C328.83 2.83 345.33-3 366-3h25c20.67 0 37.17 6.5 49.5 19.5C452.83 29.5 459 46.67 459 68v82c0 22.67-5.17 41.17-15.5 55.5-10.33 14.33-24.17 21.5-41.5 21.5h-22c-8 0-16-3-24-9l1 77h89v55H297ZM181 350v55H77v10c0 10 4.33 18 13 24l47 50c28 18 42 43.67 42 77v68c0 20.67-6.17 37.33-18.5 50-12.33 12.67-28.83 19-49.5 19H86c-20.67 0-37.17-6.33-49.5-19C24.17 671.33 18 654.67 18 634v-62h59v51c0 16.67 6 25 18 25h7c12 0 18-8.33 18-25v-64c0-10.67-4.33-18.67-13-24l-47-49c-28-18-42-44-42-78v-58Z" horiz-adv-x="474" vert-adv-y="1000"/><glyph glyph-name="uni2157" unicode="⅗" d="M89 0h74l229 700h-73Zm272 155c0 14 5.67 21 17 21h8c12 0 18-7 18-21V75c0-14.67-6-22-18-22h-7c-11.33 0-17 6.67-17 20v42h-60V60c0-18.67 6.17-33.83 18.5-45.5C332.83 2.83 349.33-3 370-3h25c20.67 0 37.17 6.5 49.5 19.5C456.83 29.5 463 46.67 463 68v82c0 22.67-5.17 41.17-15.5 55.5-10.33 14.33-24.17 21.5-41.5 21.5h-21c-8.67 0-16.67-3-24-9v77h89v55H301V155ZM77 581v42c0 16.67 6 25 18 25h7c12 0 18-8.33 18-25v-45c0-13.33-6-20-18-20H79v-55h23c12 0 18-7.33 18-22v-58c0-13.33-6-20-18-20h-7c-12 0-18 6.67-18 20v42H18v-55c0-18.67 6.17-33.67 18.5-45 12.33-11.33 28.83-17 49.5-17h25c20.67 0 37.17 5.67 49.5 17 12.33 11.33 18.5 26.33 18.5 45v61c0 26.67-9 46.33-27 59 18 12.67 27 32.33 27 59v45c0 20.67-6.17 37.33-18.5 50-12.33 12.67-28.83 19-49.5 19H86c-20.67 0-37.17-6.33-49.5-19C24.17 671.33 18 654.67 18 634v-53Z" horiz-adv-x="478" vert-adv-y="1000"/><glyph glyph-name="uni2158" unicode="⅘" d="M90 0h74l230 700h-74Zm104 418v55h-25v227H85L7 473v-55h102v-68h60v68Zm109-263h59c0 14 5.67 21 17 21h8c12 0 18-7 18-21V75c0-14.67-6-22-18-22h-7c-11.33 0-17 6.67-17 20v42h-60V60c0-18.67 6.17-33.83 18.5-45.5C333.83 2.83 350.33-3 371-3h25c20.67 0 37.17 6.5 49.5 19.5C457.83 29.5 464 46.67 464 68v82c0 23.33-5.17 42-15.5 56s-24.17 21-41.5 21h-21c-9.33 0-17.33-3-24-9v77h89v55H303ZM61 473l35 116c7.33 18.67 13.67 41.67 19 69h2c-5.33-28-8-52-8-72V473Z" horiz-adv-x="479" vert-adv-y="1000"/><glyph glyph-name="uni2159" unicode="⅙" d="m138 0 229 700h-74L63 0Zm139 60c0-19.33 6.33-34.67 19-46 12.67-11.33 29.33-17 50-17h24c20.67 0 37.17 6.5 49.5 19.5C431.83 29.5 438 46.67 438 68v70c0 22.67-5 41.17-15 55.5-10 14.33-23.67 21.5-41 21.5h-21c-8.67 0-16.67-3-24-9v67c0 16.67 5.67 25 17 25h7c12 0 18-8.33 18-25v-34h59v45c0 20.67-6.17 37.33-18.5 50-12.33 12.67-28.83 19-49.5 19h-24c-20.67 0-37.33-6.33-50-19-12.67-12.67-19-29.33-19-50ZM17 607h61V350h60v350H84c0-18-5.83-32-17.5-42S38.33 643 17 643ZM354 53c-11.33 0-17 6.67-17 20v70c0 14 5.67 21 17 21h8c11.33 0 17-7 17-21V75c0-14.67-6-22-18-22Z" horiz-adv-x="456" vert-adv-y="1000"/><glyph glyph-name="uni215A" unicode="⅚" d="M85 0h75l229 700h-73Zm214 60c0-18.67 6.33-33.83 19-45.5C330.67 2.83 347.33-3 368-3h24c20.67 0 37.17 6.5 49.5 19.5C453.83 29.5 460 46.67 460 68v70c0 22.67-5 41.17-15 55.5-10 14.33-23.67 21.5-41 21.5h-21c-7.33 0-15.33-3-24-9v67c0 16.67 5.67 25 17 25h7c12 0 18-8.33 18-25v-34h59v45c0 20.67-6.17 37.33-18.5 50-12.33 12.67-28.83 19-49.5 19h-24c-20.67 0-37.33-6.33-50-19-12.67-12.67-19-29.33-19-50ZM20 505h59c0 6 1.67 11 5 15s7.67 6 13 6h7c12 0 18-7 18-21v-80c0-14.67-6-22-18-22h-7c-11.33 0-17 6.67-17 20v42H21v-55c0-18.67 6.17-33.67 18.5-45C51.83 353.67 68 348 88 348h25c20.67 0 37.17 6.33 49.5 19 12.33 12.67 18.5 29.67 18.5 51v82c0 23.33-5.17 42-15.5 56s-23.83 21-40.5 21h-22c-8.67 0-16.67-3-24-9v77h90v55H20Zm339-362c0 14 5.67 21 17 21h8c11.33 0 17-7 17-21V75c0-14.67-6-22-18-22h-7c-11.33 0-17 6.67-17 20Z" horiz-adv-x="478" vert-adv-y="1000"/><glyph glyph-name="uni215B" unicode="⅛" d="M304 182c-18-12.67-27-32.33-27-59V60c0-19.33 6.33-34.67 19-46 12.67-11.33 29.33-17 50-17h24c20.67 0 37.17 5.83 49.5 17.5C431.83 26.17 438 41.33 438 60v63c0 26-8.67 45.67-26 59 17.33 14 26 33.67 26 59v43c0 20.67-6.17 37.33-18.5 50-12.33 12.67-28.83 19-49.5 19h-24c-20.67 0-37.33-6.33-50-19-12.67-12.67-19-29.33-19-50v-43c0-25.33 9-45 27-59ZM63 0h75l229 700h-74ZM17 607h61V350h60v350H84c0-18-5.83-32-17.5-42S38.33 643 17 643Zm320-473c0 14 5.67 21 17 21h7c12 0 18-7 18-21V73c0-13.33-6-20-18-20h-7c-11.33 0-17 6.67-17 20Zm0 144c0 13.33 5.67 20 17 20h7c12 0 18-6.67 18-20v-47c0-14-6-21-18-21h-7c-11.33 0-17 7-17 21Z" horiz-adv-x="459" vert-adv-y="1000"/><glyph glyph-name="uni215C" unicode="⅜" d="M302 60c0-18.67 6.33-33.83 19-45.5C333.67 2.83 350.33-3 371-3h25c20 0 36.33 5.83 49 17.5 12.67 11.67 19 26.83 19 45.5v63c0 26.67-9 46.33-27 59 18 14 27 33.67 27 59v43c0 20.67-6.33 37.33-19 50-12.67 12.67-29 19-49 19h-25c-20.67 0-37.33-6.33-50-19-12.67-12.67-19-29.33-19-50v-43c0-25.33 9-45 27-59-18-12.67-27-32.33-27-59ZM163 0l229 700h-73L89 0ZM77 581v42c0 16.67 6 25 18 25h7c12 0 18-8.33 18-25v-45c0-13.33-6-20-18-20H79v-55h23c12 0 18-7.33 18-22v-58c0-13.33-6-20-18-20h-7c-12 0-18 6.67-18 20v42H18v-55c0-18.67 6.17-33.67 18.5-45 12.33-11.33 28.83-17 49.5-17h25c20.67 0 37.17 5.67 49.5 17 12.33 11.33 18.5 26.33 18.5 45v61c0 26.67-9 46.33-27 59 18 12.67 27 32.33 27 59v45c0 20.67-6.17 37.33-18.5 50-12.33 12.67-28.83 19-49.5 19H86c-20.67 0-37.17-6.33-49.5-19C24.17 671.33 18 654.67 18 634v-53ZM379 53c-11.33 0-17 6.67-17 20v61c0 14 5.67 21 17 21h8c11.33 0 17-7 17-21V73c0-13.33-5.67-20-17-20Zm0 157c-11.33 0-17 7-17 21v47c0 13.33 5.67 20 17 20h8c11.33 0 17-6.67 17-20v-47c0-14-5.67-21-17-21Z" horiz-adv-x="485" vert-adv-y="1000"/><glyph glyph-name="uni215D" unicode="⅝" d="M368 353c-20.67 0-37.33-6.33-50-19-12.67-12.67-19-29.33-19-50v-43c0-25.33 9-45 27-59-18-12.67-27-32.33-27-59V60c0-18.67 6.33-33.83 19-45.5C330.67 2.83 347.33-3 368-3h24c20.67 0 37.17 5.83 49.5 17.5C453.83 26.17 460 41.33 460 60v63c0 26-8.67 45.67-26 59 17.33 14 26 33.67 26 59v43c0 20.67-6.17 37.33-18.5 50-12.33 12.67-28.83 19-49.5 19ZM160 0l229 700h-73L85 0ZM20 505h59c0 6 1.67 11 5 15s7.67 6 13 6h7c12 0 18-7 18-21v-80c0-14.67-6-22-18-22h-7c-11.33 0-17 6.67-17 20v42H21v-55c0-18.67 6.17-33.67 18.5-45C51.83 353.67 68 348 88 348h25c20.67 0 37.17 6.33 49.5 19 12.33 12.67 18.5 29.67 18.5 51v82c0 23.33-5.17 42-15.5 56s-23.83 21-40.5 21h-22c-8.67 0-16.67-3-24-9v77h90v55H20Zm339-371c0 14 5.67 21 17 21h7c12 0 18-7 18-21V73c0-13.33-6-20-18-20h-7c-11.33 0-17 6.67-17 20Zm0 144c0 13.33 5.67 20 17 20h7c12 0 18-6.67 18-20v-47c0-14-6-21-18-21h-7c-11.33 0-17 7-17 21Z" horiz-adv-x="481" vert-adv-y="1000"/><glyph glyph-name="uni215E" unicode="⅞" d="M281 241c0-25.33 9-45 27-59-18-12.67-27-32.33-27-59V60c0-18.67 6.17-33.83 18.5-45.5C311.83 2.83 328.33-3 349-3h25c20.67 0 37.17 5.83 49.5 17.5C435.83 26.17 442 41.33 442 60v63c0 26.67-9 46.33-27 59 18 14 27 33.67 27 59v43c0 20.67-6.17 37.33-18.5 50-12.33 12.67-28.83 19-49.5 19h-25c-20.67 0-37.17-6.33-49.5-19-12.33-12.67-18.5-29.33-18.5-50ZM141 0l230 700h-74L67 0ZM7 700v-55h93L25 350h61l78 315v35Zm333-566c0 14 6 21 18 21h7c11.33 0 17-7 17-21V73c0-13.33-5.67-20-17-20h-7c-12 0-18 6.67-18 20Zm0 144c0 13.33 6 20 18 20h7c11.33 0 17-6.67 17-20v-47c0-14-5.67-21-17-21h-7c-12 0-18 7-18 21Z" horiz-adv-x="463" vert-adv-y="1000"/><glyph glyph-name="uni215F" unicode="⅟" d="m138 0 229 700h-74L63 0ZM17 607h61V350h60v350H84c0-18-5.83-32-17.5-42S38.33 643 17 643Z" horiz-adv-x="367" vert-adv-y="1000"/><glyph glyph-name="uni2189" unicode="↉" d="M21 420c0-21.33 6.33-38.67 19-52 12.67-13.33 29.33-20 50-20h24c20.67 0 37.17 6.67 49.5 20 12.33 13.33 18.5 30.67 18.5 52v211c0 21.33-6.17 38.67-18.5 52-12.33 13.33-28.83 20-49.5 20H90c-20.67 0-37.33-6.67-50-20-12.67-13.33-19-30.67-19-52ZM167 0l229 700h-74L92 0Zm136 60c0-18.67 6.17-33.83 18.5-45.5C333.83 2.83 350.33-3 371-3h25c20.67 0 37.17 5.83 49.5 17.5C457.83 26.17 464 41.33 464 60v61c0 26.67-9 46.33-27 59 18 12.67 27 32.33 27 59v45c0 20.67-6.17 37.33-18.5 50-12.33 12.67-28.83 19-49.5 19h-25c-20.67 0-37.17-6.33-49.5-19-12.33-12.67-18.5-29.33-18.5-50v-53h59v42c0 16.67 6 25 18 25h7c12 0 18-8.33 18-25v-45c0-13.33-6-20-18-20h-23v-55h23c12 0 18-7.33 18-22V73c0-13.33-6-20-18-20h-7c-12 0-18 6.67-18 20v42h-59ZM81 626c0 14.67 5.67 22 17 22h7c12 0 18-7.33 18-22V424c0-14-6-21-18-21h-7c-11.33 0-17 7-17 21Z" horiz-adv-x="485" vert-adv-y="1000"/><glyph glyph-name="uni2190" unicode="←" d="m20 350 187-114-6 79h219v70H201l6 79Z" horiz-adv-x="440" vert-adv-y="1000"/><glyph glyph-name="uni2191" unicode="↑" d="M185 369V150h70v219l79-6-114 187-114-187Z" horiz-adv-x="440" vert-adv-y="1000"/><glyph glyph-name="uni2192" unicode="→" d="M20 315h219l-6-79 187 114-187 114 6-79H20Z" horiz-adv-x="440" vert-adv-y="1000"/><glyph glyph-name="uni2193" unicode="↓" d="m220 150 114 187-79-6v219h-70V331l-79 6Z" horiz-adv-x="440" vert-adv-y="1000"/><glyph glyph-name="uni2196" unicode="↖" d="m79 491 51-213 52 61 154-155 50 50-155 154 61 52Z" horiz-adv-x="440" vert-adv-y="1000"/><glyph glyph-name="uni2197" unicode="↗" d="m128 184 155 155 52-61 51 213-213-51 60-52L79 234Z" horiz-adv-x="440" vert-adv-y="1000"/><glyph glyph-name="uni2198" unicode="↘" d="m233 287-60-51 213-52-51 213-52-60-155 154-49-49Z" horiz-adv-x="440" vert-adv-y="1000"/><glyph glyph-name="uni2199" unicode="↙" d="m79 184 213 52-61 51 155 155-50 49-154-154-52 60Z" horiz-adv-x="440" vert-adv-y="1000"/><glyph glyph-name="uni2202" unicode="∂" d="M14 86c-3.33-26.67 2.33-48.17 17-64.5S66.33-3 93-3h45c26.67 0 49.33 7.83 68 23.5S235.33 57 238 83l64 518c4.67 35.33-2.17 64-20.5 86s-44.17 33-77.5 33H99l-8-76h92c12.67 0 22.17-4.33 28.5-13 6.33-8.67 8.83-20.33 7.5-35l-16-133c-8.67 13.33-24.33 20-47 20h-8c-24.67 0-46-8.17-64-24.5S55.33 420.67 52 394Zm101-13c-13.33 0-19.33 6.67-18 20l37 294c1.33 13.33 8.67 20 22 20h20c13.33 0 19.33-6.67 18-20L157 93c-1.33-13.33-8.67-20-22-20Z" horiz-adv-x="309" vert-adv-y="1000"/><glyph glyph-name="uni2205" unicode="∅" d="M51 350c0-54.67 11.5-106 34.5-154S140 107.33 180 74l-59-85h79l33 48c54.67-32 114.67-48 180-48 99.33 0 184.33 35.17 255 105.5C738.67 164.83 774 250 774 350c0 54.67-11.5 106-34.5 154S685 592.67 645 626l60 85h-79l-34-48c-54.67 32-114.33 48-179 48-99.33 0-184.5-35.33-255.5-106S51 449.33 51 350Zm70 0c0 80.67 28.5 149.5 85.5 206.5S332.33 642 413 642c50.67 0 97-12.33 139-37L221 132c-66.67 58-100 130.67-100 218Zm484 219c66-58.67 99-131.67 99-219 0-80.67-28.33-149.5-85-206.5S493.67 58 413 58c-49.33 0-96 12.33-140 37Z" horiz-adv-x="825" vert-adv-y="1000"/><glyph glyph-name="uni220F" unicode="∏" d="M35-100h82v731h70v-731h82v800H35Z" horiz-adv-x="304" vert-adv-y="1000"/><glyph glyph-name="uni2211" unicode="∑" d="m30 637 126-338L30-37v-63h256v76H122l118 323-118 325h164v76H30Z" horiz-adv-x="296" vert-adv-y="1000"/><glyph glyph-name="uni2212" unicode="−" d="M30 315h224v70H30Z" horiz-adv-x="284" vert-adv-y="1000"/><glyph glyph-name="uni221A" unicode="√" d="m5 214 37-59 55 41 95-296h71l67 850h-68L209 81c-2-20.67-1.67-45 1-73l-2-1c-2.67 26-7 50-13 72l-65 227Z" horiz-adv-x="343" vert-adv-y="1000"/><glyph glyph-name="uni222B" unicode="∫" d="M48-100c29.33 0 52.83 9 70.5 27S145-31.67 145-3v650c0 8 2.5 14.5 7.5 19.5s11.83 7.5 20.5 7.5h27v76h-40c-29.33 0-52.83-9-70.5-27S63 681.67 63 653V3c0-8-2.5-14.5-7.5-19.5S44-24 36-24H8v-76Z" horiz-adv-x="208" vert-adv-y="1000"/><glyph glyph-name="uni2248" unicode="≈" d="M77 366c0 10 2.33 18.17 7 24.5 4.67 6.33 10.33 9.5 17 9.5 6 0 18-7.33 36-22s37.67-22 59-22c26.67 0 48.33 9.33 65 28s25 43.33 25 74h-68c0-22.67-7-34-21-34-5.33 0-17.17 7.17-35.5 21.5S123.67 467 103 467c-26.67 0-48-9.17-64-27.5S15 396.67 15 366Zm6-125c0 23.33 6.67 35 20 35 6 0 12.83-3.67 20.5-11s17.67-14.67 30-22c12.33-7.33 26.5-11 42.5-11 26.67 0 48.33 9.33 65 28s25 43.33 25 74h-61c0-10-2.5-18.17-7.5-24.5-5-6.33-11.17-9.5-18.5-9.5-6 0-18.33 7.17-37 21.5S123.67 343 103 343c-26.67 0-48-9.33-64-28s-24-43.33-24-74Z" horiz-adv-x="300" vert-adv-y="1000"/><glyph glyph-name="uni2260" unicode="≠" d="M30 320v-69h46l-21-60h59l22 60h118v69h-93l21 60h72v70h-47l22 59h-60l-21-59H30v-70h93l-22-60Z" horiz-adv-x="284" vert-adv-y="1000"/><glyph glyph-name="uni2264" unicode="≤" d="m20 383 233-135v80l-129 71 129 70v80L20 414Zm234-232v69H30v-69Z" horiz-adv-x="284" vert-adv-y="1000"/><glyph glyph-name="uni2265" unicode="≥" d="M30 328v-80l234 135v31L30 549v-80l130-70Zm0-177h224v69H30Z" horiz-adv-x="284" vert-adv-y="1000"/><glyph glyph-name="uni23F4" unicode="⏴" d="M228 237v228L41 350Z" horiz-adv-x="268" vert-adv-y="1000"/><glyph glyph-name="uni23F5" unicode="⏵" d="M41 465V237l187 114Z" horiz-adv-x="268" vert-adv-y="1000"/><glyph glyph-name="uni23F6" unicode="⏶" d="M20 257h228L134 444Z" horiz-adv-x="268" vert-adv-y="1000"/><glyph glyph-name="uni23F7" unicode="⏷" d="M248 444H20l114-187Z" horiz-adv-x="268" vert-adv-y="1000"/><glyph glyph-name="uni2460" unicode="①" d="M30 165c0-50.67 14.83-91.67 44.5-123S143.33-5 192-5h55c48.67 0 87.83 15.67 117.5 47S409 114.33 409 165v371c0 50.67-14.83 91.5-44.5 122.5S295.67 705 247 705h-55c-48.67 0-87.83-15.5-117.5-46.5S30 586.67 30 536ZM192 55c-29.33 0-53.17 10-71.5 30S93 131.33 93 164v372c0 32.67 9.17 59 27.5 79s42.17 30 71.5 30h55c29.33 0 53-10 71-30s27-46.33 27-79V164c0-32.67-9-59-27-79s-41.67-30-71-30Zm14 470c0-18-5.83-32-17.5-42s-28.17-15-49.5-15v-36h62V175h59v350Z" horiz-adv-x="439" vert-adv-y="1000"/><glyph glyph-name="uni2461" unicode="②" d="M30 165c0-50.67 14.83-91.67 44.5-123S143.33-5 192-5h55c48.67 0 87.83 15.67 117.5 47S409 114.33 409 165v371c0 50.67-14.83 91.5-44.5 122.5S295.67 705 247 705h-55c-48.67 0-87.83-15.5-117.5-46.5S30 586.67 30 536Zm63 371c0 32.67 9.17 59 27.5 79s42.17 30 71.5 30h55c29.33 0 53-10 71-30s27-46.33 27-79V164c0-32.67-9-59-27-79s-41.67-30-71-30h-55c-29.33 0-53.17 10-71.5 30S93 131.33 93 164Zm104-142v51c0 16.67 5.67 25 17 25h7c12 0 18-8.33 18-25v-64c0-10.67-4.33-18.67-13-24l-47-49c-28-18-42-44-42-78v-58h164v55H197v10c0 10 4 18 12 24l47 49c28 19.33 42 45.33 42 78v67c0 20.67-6.17 37.33-18.5 50-12.33 12.67-28.83 19-49.5 19h-25c-20.67 0-37.17-6.33-49.5-19-12.33-12.67-18.5-29.33-18.5-50v-61Z" horiz-adv-x="439" vert-adv-y="1000"/><glyph glyph-name="uni2462" unicode="③" d="M192 705c-48.67 0-87.83-15.5-117.5-46.5S30 586.67 30 536V165c0-50.67 14.83-91.67 44.5-123S143.33-5 192-5h55c48.67 0 87.83 15.67 117.5 47S409 114.33 409 165v371c0 50.67-14.83 91.5-44.5 122.5S295.67 705 247 705Zm0-650c-29.33 0-53.17 10-71.5 30S93 131.33 93 164v372c0 32.67 9.17 59 27.5 79s42.17 30 71.5 30h55c29.33 0 53-10 71-30s27-46.33 27-79V164c0-32.67-9-59-27-79s-41.67-30-71-30Zm-54 351h59v42c0 16.67 5.67 25 17 25h7c12 0 18-8.33 18-25v-45c0-13.33-6-20-18-20h-23v-55h23c12 0 18-7.33 18-22v-58c0-13.33-6-20-18-20h-7c-11.33 0-17 6.67-17 20v42h-59v-55c0-18.67 6.17-33.67 18.5-45 12.33-11.33 28.5-17 48.5-17h25c20.67 0 37.17 5.5 49.5 16.5 12.33 11 18.5 26.17 18.5 45.5v61c0 27.33-8.67 47-26 59 17.33 12 26 31.67 26 59v45c0 20.67-6.17 37.33-18.5 50-12.33 12.67-28.83 19-49.5 19h-25c-20 0-36.17-6.33-48.5-19-12.33-12.67-18.5-29.33-18.5-50Z" horiz-adv-x="439" vert-adv-y="1000"/><glyph glyph-name="uni2463" unicode="④" d="M30 165c0-50.67 14.83-91.67 44.5-123S143.33-5 192-5h55c48.67 0 87.83 15.67 117.5 47S409 114.33 409 165v371c0 50.67-14.83 91.5-44.5 122.5S295.67 705 247 705h-55c-48.67 0-87.83-15.5-117.5-46.5S30 586.67 30 536ZM192 55c-29.33 0-53.17 10-71.5 30S93 131.33 93 164v372c0 32.67 9.17 59 27.5 79s42.17 30 71.5 30h55c29.33 0 53-10 71-30s27-46.33 27-79V164c0-32.67-9-59-27-79s-41.67-30-71-30Zm-69 243v-55h102v-68h60v68h25v55h-25v227h-84Zm54 0 35 116c8.67 22 15.33 45.33 20 70l1-1c-5.33-28-8-52-8-72V298Z" horiz-adv-x="439" vert-adv-y="1000"/><glyph glyph-name="uni2464" unicode="⑤" d="M30 165c0-50.67 14.83-91.67 44.5-123S143.33-5 192-5h55c48.67 0 87.83 15.67 117.5 47S409 114.33 409 165v371c0 50.67-14.83 91.5-44.5 122.5S295.67 705 247 705h-55c-48.67 0-87.83-15.5-117.5-46.5S30 586.67 30 536Zm63 371c0 32.67 9.17 59 27.5 79s42.17 30 71.5 30h55c29.33 0 53-10 71-30s27-46.33 27-79V164c0-32.67-9-59-27-79s-41.67-30-71-30h-55c-29.33 0-53.17 10-71.5 30S93 131.33 93 164Zm47-206h59c0 6 1.67 11 5 15s7.67 6 13 6h7c12 0 18-7 18-21v-80c0-14.67-6-22-18-22h-7c-11.33 0-17 6.67-17 20v42h-59v-55c0-18.67 6.17-33.67 18.5-45 12.33-11.33 28.5-17 48.5-17h25c20.67 0 37.17 6.33 49.5 19 12.33 12.67 18.5 29.67 18.5 51v82c0 23.33-5.17 42-15.5 56s-23.83 21-40.5 21h-22c-8.67 0-16.67-3-24-9v77h89v55H140Z" horiz-adv-x="439" vert-adv-y="1000"/><glyph glyph-name="uni2465" unicode="⑥" d="M30 165c0-50.67 14.83-91.67 44.5-123S143.33-5 192-5h55c48.67 0 87.83 15.67 117.5 47S409 114.33 409 165v371c0 50.67-14.83 91.5-44.5 122.5S295.67 705 247 705h-55c-48.67 0-87.83-15.5-117.5-46.5S30 586.67 30 536Zm63 371c0 32.67 9.17 59 27.5 79s42.17 30 71.5 30h55c29.33 0 53-10 71-30s27-46.33 27-79V164c0-32.67-9-59-27-79s-41.67-30-71-30h-55c-29.33 0-53.17 10-71.5 30S93 131.33 93 164Zm49-299c0-18.67 6.17-33.83 18.5-45.5 12.33-11.67 28.83-17.5 49.5-17.5h25c20.67 0 37.17 6.33 49.5 19 12.33 12.67 18.5 29.67 18.5 51v70c0 23.33-5.17 42-15.5 56s-23.83 21-40.5 21h-21c-9.33 0-17.67-3-25-9v67c0 16.67 6 25 18 25h7c11.33 0 17-8.33 17-25v-34h60v45c0 20.67-6.17 37.33-18.5 50-12.33 12.67-28.83 19-49.5 19h-25c-20.67 0-37.17-6.33-49.5-19-12.33-12.67-18.5-29.33-18.5-50Zm77-8c-12 0-18 6.67-18 20v70c0 14 5.67 21 17 21h8c11.33 0 17-7 17-21v-67c0-15.33-5.67-23-17-23Z" horiz-adv-x="439" vert-adv-y="1000"/><glyph glyph-name="uni2466" unicode="⑦" d="M30 165c0-50.67 14.83-91.67 44.5-123S143.33-5 192-5h55c48.67 0 87.83 15.67 117.5 47S409 114.33 409 165v371c0 50.67-14.83 91.5-44.5 122.5S295.67 705 247 705h-55c-48.67 0-87.83-15.5-117.5-46.5S30 586.67 30 536Zm63 371c0 32.67 9.17 59 27.5 79s42.17 30 71.5 30h55c29.33 0 53-10 71-30s27-46.33 27-79V164c0-32.67-9-59-27-79s-41.67-30-71-30h-55c-29.33 0-53.17 10-71.5 30S93 131.33 93 164Zm51-11v-55h93l-74-295h60l78 315v35Z" horiz-adv-x="439" vert-adv-y="1000"/><glyph glyph-name="uni2467" unicode="⑧" d="M30 165c0-50.67 14.83-91.67 44.5-123S143.33-5 192-5h55c48.67 0 87.83 15.67 117.5 47S409 114.33 409 165v371c0 50.67-14.83 91.5-44.5 122.5S295.67 705 247 705h-55c-48.67 0-87.83-15.5-117.5-46.5S30 586.67 30 536Zm63 371c0 32.67 9.17 59 27.5 79s42.17 30 71.5 30h55c29.33 0 53-10 71-30s27-46.33 27-79V164c0-32.67-9-59-27-79s-41.67-30-71-30h-55c-29.33 0-53.17 10-71.5 30S93 131.33 93 164Zm45-301c0-18.67 6.17-33.67 18.5-45 12.33-11.33 29.17-17 50.5-17h24c20.67 0 37.17 5.67 49.5 17 12.33 11.33 18.5 26.33 18.5 45v63c0 26.67-9 46.33-27 59 18 14 27 33.67 27 59v43c0 20.67-6.17 37.33-18.5 50-12.33 12.67-28.83 19-49.5 19h-24c-20.67 0-37.33-6.33-50-19-12.67-12.67-19-29.33-19-50v-43c0-25.33 9-45 27-59-18-12.67-27-32.33-27-59Zm60 74c0 14 5.67 21 17 21h7c12 0 18-7 18-21v-61c0-13.33-6-20-18-20h-7c-11.33 0-17 6.67-17 20Zm17 76c-11.33 0-17 7-17 21v47c0 13.33 5.67 20 17 20h7c12 0 18-6.67 18-20v-47c0-14-6-21-18-21Z" horiz-adv-x="439" vert-adv-y="1000"/><glyph glyph-name="uni2468" unicode="⑨" d="M192 705c-48.67 0-87.83-15.5-117.5-46.5S30 586.67 30 536V165c0-50.67 14.83-91.67 44.5-123S143.33-5 192-5h55c48.67 0 87.83 15.67 117.5 47S409 114.33 409 165v371c0 50.67-14.83 91.5-44.5 122.5S295.67 705 247 705Zm0-650c-29.33 0-53.17 10-71.5 30S93 131.33 93 164v372c0 32.67 9.17 59 27.5 79s42.17 30 71.5 30h55c29.33 0 53-10 71-30s27-46.33 27-79V164c0-32.67-9-59-27-79s-41.67-30-71-30Zm15 469c-20.67 0-37.17-6.33-49.5-19-12.33-12.67-18.5-29.67-18.5-51v-71c0-22.67 5-41 15-55s23.67-21 41-21h22c8.67 0 16.67 2.67 24 8v-67c0-16-6-24-18-24h-7c-11.33 0-17 8-17 24v35h-60v-45c0-20.67 6.17-37.33 18.5-50 12.33-12.67 28.83-19 49.5-19h25c20.67 0 37.17 6.33 49.5 19 12.33 12.67 18.5 29.33 18.5 50v224c0 18.67-6.17 33.67-18.5 45-12.33 11.33-28.83 17-49.5 17Zm-8-78c0 15.33 5.67 23 17 23h7c12 0 18-6.67 18-20v-70c0-14.67-6-22-18-22h-7c-11.33 0-17 7-17 21Z" horiz-adv-x="439" vert-adv-y="1000"/><glyph glyph-name="uni24EA" unicode="⓪" d="M30 165c0-50.67 14.83-91.67 44.5-123S143.33-5 192-5h55c48.67 0 87.83 15.67 117.5 47S409 114.33 409 165v371c0 50.67-14.83 91.5-44.5 122.5S295.67 705 247 705h-55c-48.67 0-87.83-15.5-117.5-46.5S30 586.67 30 536ZM192 55c-29.33 0-53.17 10-71.5 30S93 131.33 93 164v372c0 32.67 9.17 59 27.5 79s42.17 30 71.5 30h55c29.33 0 53-10 71-30s27-46.33 27-79V164c0-32.67-9-59-27-79s-41.67-30-71-30Zm-53 190c0-21.33 6.17-38.67 18.5-52 12.33-13.33 28.83-20 49.5-20h25c20.67 0 37.17 6.67 49.5 20 12.33 13.33 18.5 30.67 18.5 52v211c0 21.33-6.17 38.67-18.5 52-12.33 13.33-28.83 20-49.5 20h-25c-20.67 0-37.17-6.67-49.5-20-12.33-13.33-18.5-30.67-18.5-52Zm77-17c-12 0-18 7-18 21v202c0 14.67 6 22 18 22h7c11.33 0 17-7.33 17-22V249c0-14-5.67-21-17-21Z" horiz-adv-x="439" vert-adv-y="1000"/><glyph glyph-name="uni25CA" unicode="◊" d="M30 350 169 0h51l140 350-140 350h-51Zm253 0-88-248-88 248 88 248Z" horiz-adv-x="389" vert-adv-y="1000"/><glyph glyph-name="uniFB00" unicode="ﬀ" d="M232 411V0h82v411h67v69h-67v137c0 8 2.5 14.5 7.5 19.5S333 644 341 644h40v76h-52c-28.67 0-52-9-70-27s-27-41.33-27-70V480h-94v137c0 8 2.5 14.5 7.5 19.5s11.83 7.5 20.5 7.5h33v76h-46c-28.67 0-52-9-70-27s-27-41.33-27-70V480H8v-69h48V0h82v411Z" horiz-adv-x="377" vert-adv-y="1000"/><glyph glyph-name="uniFB01" unicode="ﬁ" d="M205 411v69h-67v137c0 8 2.5 14.5 7.5 19.5s11.83 7.5 20.5 7.5h39v76h-52c-28.67 0-52-9-70-27s-27-41.33-27-70V480H8v-69h48V0h82v411Zm29 69V0h82v480Zm0 201V578h82v103Z" horiz-adv-x="346" vert-adv-y="1000"/><glyph glyph-name="uniFB02" unicode="ﬂ" d="M205 411v69h-67v137c0 8 2.5 14.5 7.5 19.5s11.83 7.5 20.5 7.5h39v76h-52c-28.67 0-52-9-70-27s-27-41.33-27-70V480H8v-69h48V0h82v411ZM234 0h82v720h-82Z" horiz-adv-x="346" vert-adv-y="1000"/></font>
</defs>
</svg>
