<svg><defs><font id="Spaceland-EightOblique" horiz-adv-x="825" vert-adv-y="825"><font-face font-family="Spaceland Eight" font-weight="400" ascent="1010" descent="-310"/><glyph glyph-name="uni21" unicode="!" d="M-16 0h82l12 103H-4Zm29 183h68l71 517H70Z" horiz-adv-x="136" vert-adv-y="1000"/><glyph glyph-name="uni22" unicode="&quot;" d="m94 445 38 255H56L32 445Zm109 0 38 255h-75l-24-255Z" horiz-adv-x="211" vert-adv-y="1000"/><glyph glyph-name="uni23" unicode="#" d="M322 198v69h-55l14 166h62v69h-56l17 198h-69l-18-198h-60l17 198h-70L87 502H26v-69h55L67 267H5v-69h56L44 0h69l17 198h61L174 0h69l18 198Zm-186 69 15 166h60l-14-166Z" horiz-adv-x="348" vert-adv-y="1000"/><glyph glyph-name="uni24" unicode="$" d="M72-3 61-96h63l11 93c28 1.33 51.67 10.67 71 28s30.33 40 33 68l19 148c2 16.67-.17 33.5-6.5 50.5S236 322 224 332l-87 112c-8 6.67-11 15.33-9 26l16 131c2 13.33 9.67 20 23 20h30c13.33 0 19-6.67 17-20l-16-129h88l17 135c3.33 28.67-2.33 51.67-17 69s-36 26.33-64 27l12 93h-64l-11-93c-27.33-1.33-50.5-10.67-69.5-28S59.67 635 57 607L40 473c-2-17.33 0-34.33 6-51s15.33-30 28-40l87-112c7.33-7.33 10.33-16 9-26L153 99c-2-13.33-9.67-20-23-20h-30c-13.33 0-19 6.67-17 20l15 130H10L-7 93c-3.33-28 2.33-50.83 17-68.5S45.33-2.33 72-3Z" horiz-adv-x="296" vert-adv-y="1000"/><glyph glyph-name="uni25" unicode="%" d="M260 96c-3.33-29.33 2.5-53.17 17.5-71.5S314-3 342-3h16c28.67 0 52.83 9.17 72.5 27.5S461.67 66.67 465 96l20 160c3.33 29.33-2.33 53.17-17 71.5S431.67 355 403 355h-16c-28.67 0-52.83-9.17-72.5-27.5S283.33 285.33 280 256ZM29 445c-3.33-30 2.33-54.17 17-72.5S82.33 345 111 345h16c28.67 0 52.83 9.17 72.5 27.5S230.67 415 234 445l20 159c3.33 29.33-2.33 53.17-17 71.5S200.67 703 172 703h-16c-28.67 0-52.83-9.17-72.5-27.5S52.33 633.33 49 604ZM62 0h74l315 700h-73Zm61 411c-7.33 0-13 2.83-17 8.5s-5.33 12.83-4 21.5l20 166c.67 8.67 3.83 15.83 9.5 21.5s12.17 8.5 19.5 8.5h10c16 0 23-10 21-30l-20-166c-3.33-20-13-30-29-30ZM354 63c-16 0-23 10-21 30l19 166c3.33 20 13 30 29 30h10c7.33 0 13-2.83 17-8.5s5.33-12.83 4-21.5L393 93c-.67-8.67-3.83-15.83-9.5-21.5S371.33 63 364 63Z" horiz-adv-x="514" vert-adv-y="1000"/><glyph glyph-name="uni26" unicode="&amp;" d="M81-3h35c28 0 51.83 8 71.5 24s30.83 37 33.5 63l32 254h42l9 76H145c-16.67 0-24 10-22 30l19 150c.67 10 3.83 18 9.5 24s12.17 9 19.5 9h10c16 0 23-11 21-33l-13-106h82l14 119c4 28.67-1.5 51.83-16.5 69.5S231.67 703 203 703h-35c-28.67 0-52.67-8.67-72-26s-31-40.67-35-70L44 458c-4.67-36 4.33-63.33 27-82-26.67-17.33-42.67-44.67-48-82L-3 84C-5.67 57.33.5 36.17 15.5 20.5 30.5 4.83 52.33-3 81-3Zm0 104 26 207c2 20 11.33 30 28 30h36l-30-237c-2-18.67-11.33-28-28-28h-10c-16.67 0-24 9.33-22 28Z" horiz-adv-x="301" vert-adv-y="1000"/><glyph glyph-name="uni27" unicode="'" d="M32 445h62l38 255H56Z" horiz-adv-x="102" vert-adv-y="1000"/><glyph glyph-name="uni28" unicode="(" d="M-12 3c-4-30.67 1.83-55.5 17.5-74.5S43.67-100 73-100h27l8 69H82c-8.67 0-15.33 3.17-20 9.5S55.67-7 57 3l79 644c.67 10 4.17 18.17 10.5 24.5 6.33 6.33 13.83 9.5 22.5 9.5h26l9 69h-27c-29.33 0-54.17-9.33-74.5-28S70 678.33 66 647Z" horiz-adv-x="160" vert-adv-y="1000"/><glyph glyph-name="uni29" unicode=")" d="M-50-100h26c29.33 0 54.17 9.33 74.5 28S83-28.33 87 3l79 644c4 30.67-2 55.5-18 74.5S109.33 750 80 750H54l-8-69h26c8.67 0 15.17-3.17 19.5-9.5S97.33 657 96 647L18 3C16.67-7 12.83-15.17 6.5-21.5.17-27.83-7.33-31-16-31h-26Z" horiz-adv-x="160" vert-adv-y="1000"/><glyph glyph-name="uni2a" unicode="*" d="m38 606 67-38-76-39 31-51 52 52-24-84h64l-3 83 38-52 44 51-66 41 75 37-32 51-49-50 23 85h-64l4-85-40 50Z" horiz-adv-x="216" vert-adv-y="1000"/><glyph glyph-name="uni2b" unicode="+" d="M30 315h77v-88h70v88h77v70h-77v88h-70v-88H30Z" horiz-adv-x="284" vert-adv-y="1000"/><glyph glyph-name="uni2c" unicode="," d="M-41-120h68l61 223H7Z" horiz-adv-x="146" vert-adv-y="1000"/><glyph glyph-name="uni2d" unicode="-" d="M6 235h148l8 70H14Z" horiz-adv-x="188" vert-adv-y="1000"/><glyph glyph-name="uni2e" unicode="." d="M-16 0h82l12 103H-4Z" horiz-adv-x="136" vert-adv-y="1000"/><glyph glyph-name="uni2f" unicode="/" d="M-55-100h70l254 850h-70Z" horiz-adv-x="220" vert-adv-y="1000"/><glyph glyph-name="uni30" unicode="0" d="M-1 96C-5 66.67.5 42.83 15.5 24.5S52.33-3 81-3h35c28 0 51.83 9.17 71.5 27.5S218.67 66.67 222 96l63 508c3.33 29.33-2.33 53.17-17 71.5S231.67 703 203 703h-35c-28.67 0-52.67-9.17-72-27.5S65 633.33 61 604Zm104-23c-7.33 0-13 2.83-17 8.5s-5.33 12.83-4 21.5l60 494c3.33 20 13 30 29 30h10c7.33 0 13-2.83 17-8.5s5.33-12.83 4-21.5l-60-494c-3.33-20-13-30-29-30Z" horiz-adv-x="284" vert-adv-y="1000"/><glyph glyph-name="uni31" unicode="1" d="M50 569h88L68 0h82l86 700h-74c-3.33-26-14.33-46-33-60s-43-20.67-73-20Z" horiz-adv-x="245" vert-adv-y="1000"/><glyph glyph-name="uni32" unicode="2" d="m209 0 9 76H73l13 104c1.33 11.33 5.67 20.67 13 28l120 153c23.33 25.33 37.33 55.67 42 91l19 155c4 28.67-1.5 51.83-16.5 69.5S226.67 703 198 703h-35c-28.67 0-52.67-8.67-72-26s-31-40.67-35-70L42 488h82l13 106c.67 10 3.83 18 9.5 24s12.17 9 19.5 9h10c16 0 23-11 21-33l-19-152c-1.33-10.67-5.67-20.33-13-29L45 261c-23.33-25.33-37.33-55.67-42-91L-18 0Z" horiz-adv-x="272" vert-adv-y="1000"/><glyph glyph-name="uni33" unicode="3" d="M-8 84c-2.67-26.67 3.5-47.83 18.5-63.5C25.5 4.83 47.33-3 76-3h35c28 0 51.83 8 71.5 24s30.83 37 33.5 63l26 210c4 37.33-5.33 64.67-28 82 28 19.33 44 46.67 48 82l18 149c4 28.67-1.5 51.83-16.5 69.5S226.67 703 198 703h-35c-28.67 0-52.67-8.67-72-26s-31-40.67-35-70L42 488h82l13 106c.67 10 3.83 18 9.5 24s12.17 9 19.5 9h10c16 0 23-11 21-33l-19-150c-2-20-11.33-30-28-30h-33l-9-76h32c16.67 0 24-10 22-30l-26-207c-2-18.67-11.33-28-28-28H98c-16.67 0-24 9.33-22 28l16 127H10Z" horiz-adv-x="279" vert-adv-y="1000"/><glyph glyph-name="uni34" unicode="4" d="M-15 148h143L110 0h82l18 148h36l9 75h-36l59 477H163L-5 223Zm81 75 98 289c2.67 8 9.67 32.33 21 73l2-1c-7.33-26.67-12-51-14-73l-36-288Z" horiz-adv-x="281" vert-adv-y="1000"/><glyph glyph-name="uni35" unicode="5" d="M-3 84C-6.33 57.33-.5 36.17 14.5 20.5 29.5 4.83 51.33-3 80-3h35c28.67 0 52.83 8.83 72.5 26.5S218.67 64.67 222 94l29 238c4 32-.17 57.67-12.5 77s-30.17 29-53.5 29h-30c-11.33 0-23.33-4-36-12l25 198h124l10 76H71L27 338h82v1c.67 8.67 3.83 15.67 9.5 21s12.17 8 19.5 8h11c16 0 23-10 21-30l-29-233c-.67-10-3.83-17.83-9.5-23.5-5.67-5.67-12.17-8.5-19.5-8.5h-10c-16.67 0-24 9.33-22 28l16 127H14Z" horiz-adv-x="278" vert-adv-y="1000"/><glyph glyph-name="uni36" unicode="6" d="M-3 84C-5.67 57.33.5 36.17 15.5 20.5 30.5 4.83 52.33-3 81-3h35c28 0 51.83 9 71.5 27s31.17 41.33 34.5 70l28 225c3.33 31.33-.83 56.83-12.5 76.5S208.33 425 185 425h-30c-10.67 0-22.33-4-35-12l22 181c.67 10 3.83 18 9.5 24s12.17 9 19.5 9h10c16 0 23-11 21-33l-13-106h82l14 119c4 28.67-1.5 51.83-16.5 69.5S231.67 703 203 703h-35c-28.67 0-52.67-8.67-72-26s-31-40.67-35-70Zm106-11c-16.67 0-24 9.33-22 28l28 224v1c.67 8.67 3.67 15.67 9 21s11.67 8 19 8h11c16 0 23-10 21-30l-27-220c-.67-10-3.83-17.83-9.5-23.5-5.67-5.67-12.17-8.5-19.5-8.5Z" horiz-adv-x="279" vert-adv-y="1000"/><glyph glyph-name="uni37" unicode="7" d="M-5 0h80l190 652 6 48H53l-9-76h134Z" horiz-adv-x="248" vert-adv-y="1000"/><glyph glyph-name="uni38" unicode="8" d="M-3 84C-5.67 57.33.5 36.17 15.5 20.5 30.5 4.83 52.33-3 81-3h35c28 0 51.83 8 71.5 24s30.83 37 33.5 63l26 210c4 36.67-5 64-27 82 27.33 18.67 43 46 47 82l18 149c4 28.67-1.5 51.83-16.5 69.5S231.67 703 203 703h-35c-28.67 0-52.67-8.67-72-26s-31-40.67-35-70L44 458c-5.33-36.67 3.67-64 27-82-26.67-17.33-42.67-44.67-48-82Zm106-11c-16.67 0-24 9.33-22 28l26 207c2 20 11.33 30 28 30h10c16.67 0 24-10 22-30l-26-207c-2-18.67-11.33-28-28-28Zm42 341c-16.67 0-24 10-22 30l19 150c.67 10 3.83 18 9.5 24s12.17 9 19.5 9h10c16 0 23-11 21-33l-19-150c-2-20-11.33-30-28-30Z" horiz-adv-x="284" vert-adv-y="1000"/><glyph glyph-name="uni39" unicode="9" d="M-6 93c-4-28.67 1.5-51.83 16.5-69.5S47.33-3 76-3h35c28 0 51.83 8.83 71.5 26.5S213.67 64.33 217 93l64 523c3.33 26.67-2.5 47.83-17.5 63.5-15 15.67-36.83 23.5-65.5 23.5h-35c-28.67 0-52.67-8.83-72-26.5S60 635.33 56 606L30 391c-4-31.33-.17-56.83 11.5-76.5S71 285 95 285h30c10.67 0 22.33 4 35 12l-23-191c-.67-10-3.83-18-9.5-24s-12.17-9-19.5-9H98c-16 0-23 11-21 33l13 106H8Zm138 262c-16 0-23 10-21 30l26 210c.67 10 3.83 17.83 9.5 23.5 5.67 5.67 12.17 8.5 19.5 8.5h10c16.67 0 24-9.33 22-28l-27-214v-1c-.67-8.67-3.67-15.67-9-21s-11.67-8-19-8Z" horiz-adv-x="279" vert-adv-y="1000"/><glyph glyph-name="uni3a" unicode=":" d="M-16 0h82l12 103H-4Zm46 377h82l13 103H43Z" horiz-adv-x="136" vert-adv-y="1000"/><glyph glyph-name="uni3b" unicode=";" d="M30 377h82l13 103H43Zm-81-497h68l61 223H-4Z" horiz-adv-x="136" vert-adv-y="1000"/><glyph glyph-name="uni3c" unicode="&lt;" d="M253 199v80l-129 71 129 71v80L20 366v-32Z" horiz-adv-x="284" vert-adv-y="1000"/><glyph glyph-name="uni3d" unicode="=" d="M30 380h224v70H30Zm0-60v-69h224v69Z" horiz-adv-x="284" vert-adv-y="1000"/><glyph glyph-name="uni3e" unicode="&gt;" d="M20 501v-80l130-71-130-71v-80l233 135v32Z" horiz-adv-x="284" vert-adv-y="1000"/><glyph glyph-name="uni3f" unicode="?" d="m123 472 16 129c2 13.33 9.67 20 23 20h30c13.33 0 19-6.67 17-20l-18-148c-1.33-6.67-4-12.67-8-18l-80-112c-4.67-6-7-12-7-18l-5-122h68l20 96c1.33 8.67 4.67 17 10 25l60 91c17.33 20.67 28 45.33 32 74l17 138c3.33 29.33-2.67 52.67-18 70s-37.33 26-66 26h-55c-28.67 0-52.83-8.83-72.5-26.5S55.33 635.67 52 607L35 472ZM74 103 61 0h82l13 103Z" horiz-adv-x="288" vert-adv-y="1000"/><glyph glyph-name="uni40" unicode="@" d="M163-100h98l7 63H159c-32 0-56.33 12.83-73 38.5S63.67 60.67 69 102l38 309c5.33 38.67 19.17 69.67 41.5 93s49.5 35 81.5 35h90c32 0 56.5-10 73.5-30s23.5-46.33 19.5-79l-31-252c-4.67-40-14.67-60-30-60-14 0-20 14.33-18 43l34 269h-72l-3-24c-9.33 16-23.67 24-43 24h-32c-18.67 0-34.67-8-48-24-13.33-16-21.67-36.67-25-62l-24-196c-3.33-25.33-.17-46 9.5-62s23.83-24 42.5-24h32c27.33 0 48 15 62 45 12-34 37.33-51 76-51 28.67 0 52.67 10.83 72 32.5s31.33 50.83 36 87.5l33 263c6 48.67-6.5 88-37.5 118S372 602 316 602h-67c-56.67 0-104.33-17.33-143-52s-61.67-80.67-69-138L-1 99C-8.33 39 3-9.17 33-45.5S106.33-100 163-100Zm33 252 24 189c1.33 13.33 8.67 20 22 20h20c13.33 0 19.33-6.67 18-20l-24-189c-1.33-13.33-8.67-20-22-20h-20c-13.33 0-19.33 6.67-18 20Z" horiz-adv-x="503" vert-adv-y="1000"/><glyph glyph-name="uni41" unicode="A" d="m46 0 37 162h81L161 0h82l5 700H131L-36 0Zm118 518c6 32 9.67 56.33 11 73h2c-3.33-36.67-5-61-5-73l-6-281h-66Z" horiz-adv-x="293" vert-adv-y="1000"/><glyph glyph-name="uni42" unicode="B" d="M142 0c29.33 0 53.83 8.33 73.5 25s30.83 38.33 33.5 65l24 195c4 37.33-8.67 63-38 77 30.67 16 48 41 52 75l22 178c3.33 25.33-3 45.83-19 61.5-16 15.67-38.33 23.5-67 23.5H78L-8 0ZM89 76l31 247h50c13.33 0 19.33-6.67 18-20L162 96c-1.33-13.33-8.67-20-22-20Zm68 548h45c13.33 0 19-6.33 17-19l-23-186c-1.33-13.33-8.67-20-22-20h-45Z" horiz-adv-x="306" vert-adv-y="1000"/><glyph glyph-name="uni43" unicode="C" d="M87-3h55c28.67 0 53 8.83 73 26.5s31.33 40.83 34 69.5l17 131h-89L163 99c-2-13.33-9.67-20-23-20h-30c-13.33 0-19 6.67-17 20l61 502c2 13.33 9.67 20 23 20h30c13.33 0 19-6.67 17-20l-16-129h88l17 135c3.33 29.33-2.67 52.67-18 70s-37.33 26-66 26h-55c-28.67 0-52.83-8.83-72.5-26.5S70.33 635.67 67 607L3 93C-.33 64.33 5.67 41.17 21 23.5S58.33-3 87-3Z" horiz-adv-x="311" vert-adv-y="1000"/><glyph glyph-name="uni44" unicode="D" d="M-8 0h150c29.33 0 53.83 8.83 73.5 26.5S246.67 67.33 250 96l62 508c4 28.67-1.67 51.83-17 69.5S257.33 700 228 700H78Zm97 76 68 548h50c13.33 0 19-6.67 17-20L162 96c-1.33-13.33-8.67-20-22-20Z" horiz-adv-x="316" vert-adv-y="1000"/><glyph glyph-name="uni45" unicode="E" d="M-8 0h192l9 76H89l29 236h96l9 76h-95l29 236h103l10 76H78Z" horiz-adv-x="250" vert-adv-y="1000"/><glyph glyph-name="uni46" unicode="F" d="M-8 0h88l38 312h96l9 76h-95l29 236h103l10 76H78Z" horiz-adv-x="240" vert-adv-y="1000"/><glyph glyph-name="uni47" unicode="G" d="M87-3h55c28.67 0 53 8.83 73 26.5s31.33 40.83 34 69.5l34 276H153l-8-75h42L163 99c-2-13.33-9.67-20-23-20h-30c-13.33 0-19 6.67-17 20l61 502c2 13.33 9.67 20 23 20h30c13.33 0 19-6.67 17-20l-16-129h88l17 135c3.33 29.33-2.67 52.67-18 70s-37.33 26-66 26h-55c-28.67 0-52.83-8.83-72.5-26.5S70.33 635.67 67 607L3 93C-.33 64.33 5.67 41.17 21 23.5S58.33-3 87-3Z" horiz-adv-x="311" vert-adv-y="1000"/><glyph glyph-name="uni48" unicode="H" d="M-8 0h88l38 312h70L150 0h88l86 700h-88l-38-312h-70l38 312H78Z" horiz-adv-x="316" vert-adv-y="1000"/><glyph glyph-name="uni49" unicode="I" d="M-8 0h88l86 700H78Z" horiz-adv-x="158" vert-adv-y="1000"/><glyph glyph-name="uni4a" unicode="J" d="M-17 93c-3.33-28.67 2.67-51.83 18-69.5S38.33-3 67-3h55c28.67 0 53 8.83 73 26.5s31.33 40.83 34 69.5l75 607h-88L143 99c-2-13.33-9.67-20-23-20H90c-13.33 0-19 6.67-17 20l13 114H-2Z" horiz-adv-x="296" vert-adv-y="1000"/><glyph glyph-name="uni4b" unicode="K" d="m80 0 36 291L153 0h85l-55 361 136 339h-85L133 430l33 270H78L-8 0Z" horiz-adv-x="286" vert-adv-y="1000"/><glyph glyph-name="uni4c" unicode="L" d="m184 0 9 76H89l77 624H78L-8 0Z" horiz-adv-x="237" vert-adv-y="1000"/><glyph glyph-name="uni4d" unicode="M" d="M-13 0h82l63 515c2.67 19.33 4.67 44.33 6 75h2c-2-46-3-71-3-75L132 0h92l121 512c6 27.33 11 52.67 15 76h2c-7.33-41.33-11.33-66.67-12-76L287 0h82l86 700H323L203 167c-5.33-19.33-9.33-44.33-12-75h-2c4 46 6 71 6 75l10 533H73Z" horiz-adv-x="442" vert-adv-y="1000"/><glyph glyph-name="uni4e" unicode="N" d="m77 0 45 364c2 22 3 46 3 72l2 1c0-29.33 1.33-53.33 4-72L155 0h85l86 700h-85l-45-366c-2.67-29.33-4-53.67-4-73l-2-1c0 26.67-1 51-3 73l-24 367H78L-8 0Z" horiz-adv-x="318" vert-adv-y="1000"/><glyph glyph-name="uni4f" unicode="O" d="M3 93C-.33 64.33 5.67 41.17 21 23.5S58.33-3 87-3h55c28.67 0 53 8.83 73 26.5s31.33 40.83 34 69.5l64 514c3.33 29.33-2.67 52.67-18 70s-37.33 26-66 26h-55c-28.67 0-52.83-8.83-72.5-26.5S70.33 635.67 67 607Zm107-14c-13.33 0-19 6.67-17 20l61 502c2 13.33 9.67 20 23 20h30c13.33 0 19-6.67 17-20L163 99c-2-13.33-9.67-20-23-20Z" horiz-adv-x="316" vert-adv-y="1000"/><glyph glyph-name="uni50" unicode="P" d="M-8 0h88l37 302h63c28.67 0 52.83 8.83 72.5 26.5s31.17 40.83 34.5 69.5l25 206c4 28.67-1.67 51.83-17 69.5S257.33 700 228 700H78Zm165 624h50c13.33 0 19-6.67 17-20l-25-206c-1.33-13.33-8.67-20-22-20h-50Z" horiz-adv-x="298" vert-adv-y="1000"/><glyph glyph-name="uni51" unicode="Q" d="M3 93C.33 66.33 5.33 44.5 18 27.5S49.33.67 74-2l-6-46c-3.33-28.67 2.67-51.67 18-69s37.33-26 66-26h35l9 75h-23c-16.67 0-24 9-22 27l4 39c25.33 2.67 46.67 12.5 64 29.5s27.33 38.83 30 65.5l64 514c3.33 29.33-2.67 52.67-18 70s-37.33 26-66 26h-55c-28.67 0-52.83-8.83-72.5-26.5S70.33 635.67 67 607Zm107-14c-13.33 0-19 6.67-17 20l61 502c2 13.33 9.67 20 23 20h30c13.33 0 19-6.67 17-20L163 99c-2-13.33-9.67-20-23-20Z" horiz-adv-x="316" vert-adv-y="1000"/><glyph glyph-name="uni52" unicode="R" d="m80 0 37 302h32L168 0h82l-20 314c32.67 16 51.67 44 57 84l25 206c4 28.67-1.67 51.83-17 69.5S257.33 700 228 700H78L-8 0Zm77 624h50c13.33 0 19-6.67 17-20l-25-206c-1.33-13.33-8.67-20-22-20h-50Z" horiz-adv-x="305" vert-adv-y="1000"/><glyph glyph-name="uni53" unicode="S" d="M77-3h55c28.67 0 53 8.83 73 26.5s31.33 40.83 34 69.5l19 148c2 16.67-.17 33.5-6.5 50.5S236 322 224 332l-87 112c-8 6.67-11 15.33-9 26l16 131c2 13.33 9.67 20 23 20h30c13.33 0 19-6.67 17-20l-16-129h88l17 135c3.33 29.33-2.67 52.67-18 70s-37.33 26-66 26h-55c-28.67 0-52.83-8.83-72.5-26.5S60.33 635.67 57 607L40 473c-2-17.33 0-34.33 6-51s15.33-30 28-40l87-112c7.33-7.33 10.33-16 9-26L153 99c-2-13.33-9.67-20-23-20h-30c-13.33 0-19 6.67-17 20l15 130H10L-7 93c-3.33-28.67 2.67-51.83 18-69.5S48.33-3 77-3Z" horiz-adv-x="296" vert-adv-y="1000"/><glyph glyph-name="uni54" unicode="T" d="m282 624 9 76H48l-9-76h77L39 0h89l76 624Z" horiz-adv-x="253" vert-adv-y="1000"/><glyph glyph-name="uni55" unicode="U" d="M3 93C-.33 64.33 5.67 41.17 21 23.5S58.33-3 87-3h55c28.67 0 53 8.83 73 26.5s31.33 40.83 34 69.5l75 607h-88L163 99c-2-13.33-9.67-20-23-20h-30c-13.33 0-19 6.67-17 20l73 601H78Z" horiz-adv-x="316" vert-adv-y="1000"/><glyph glyph-name="uni56" unicode="V" d="m153 0 160 700h-82L120 176c-2-8-5.67-32.33-11-73h-2c4 29.33 6 53.67 6 73l17 524H48L37 0Z" horiz-adv-x="275" vert-adv-y="1000"/><glyph glyph-name="uni57" unicode="W" d="m150 0 111 520c4.67 20.67 8.33 45.33 11 74h2c-4-44-6-68.67-6-74L251 0h117l156 700h-81L334 176c-2.67-15.33-6.33-39.67-11-73h-2c4 29.33 6 53.67 6 73l21 524H225L117 176c-2-8-5.67-32.33-11-73h-2c4 29.33 6 53.67 6 73l20 524H48L34 0Z" horiz-adv-x="486" vert-adv-y="1000"/><glyph glyph-name="uni58" unicode="X" d="M-38 0h85l65 194c7.33 19.33 13 43.33 17 72h2c-3.33-25.33-4-49.33-2-72L147 0h85l-46 361 127 339h-85l-58-172c-8.67-27.33-14-51.67-16-73h-2c2.67 32 3 56.33 1 73l-15 172H53l44-339Z" horiz-adv-x="280" vert-adv-y="1000"/><glyph glyph-name="uni59" unicode="Y" d="M84 261 52 0h88l33 263 142 437h-84l-76-271c-5.33-18.67-10-42.67-14-72h-2c4 28.67 5 52.67 3 72l-8 271H50Z" horiz-adv-x="278" vert-adv-y="1000"/><glyph glyph-name="uni5a" unicode="Z" d="M-29 0h200l9 76H64l185 561 8 63H57l-10-76h116L-22 63Z" horiz-adv-x="228" vert-adv-y="1000"/><glyph glyph-name="uni5b" unicode="[" d="M-25-100h128l8 69H53l87 712h59l8 69H79Z" horiz-adv-x="163" vert-adv-y="1000"/><glyph glyph-name="uni5c" unicode="\" d="m49 750 46-850h70l-46 850Z" horiz-adv-x="220" vert-adv-y="1000"/><glyph glyph-name="uni5d" unicode="]" d="m78-100 104 850H54l-8-69h58L17-31h-59l-8-69Z" horiz-adv-x="163" vert-adv-y="1000"/><glyph glyph-name="uni5e" unicode="^" d="M17 463h73l49 126 48-126h74L155 700h-32Z" horiz-adv-x="284" vert-adv-y="1000"/><glyph glyph-name="uni5f" unicode="_" d="M0-120h167v70H0Z" horiz-adv-x="167" vert-adv-y="1000"/><glyph glyph-name="uni60" unicode="`" d="M179 854H92l48-137h64Z" horiz-adv-x="189" vert-adv-y="1000"/><glyph glyph-name="uni61" unicode="a" d="M-2 86c-3.33-26.67-.17-48.17 9.5-64.5S32-3 52-3h33c18 0 33.67 6.67 47 20l-2-17h82l48 394c3.33 26.67-2.17 48.17-16.5 64.5S208.67 483 182 483h-45c-26.67 0-49.33-8.17-68-24.5S39.33 420.67 36 394l-8-67h82l7 57c2.67 15.33 10.33 23 23 23h20c6 0 10.67-2.33 14-7s4.33-10 3-16l-14-116c-10.67 14-24.67 21-42 21H88c-20 0-37-8.17-51-24.5S14.33 226.33 11 199ZM98 73c-13.33 0-19.33 6.67-18 20l13 100c1.33 13.33 8.67 20 22 20h20c13.33 0 19.33-6.67 18-20L140 93c-1.33-13.33-8.67-20-22-20Z" horiz-adv-x="285" vert-adv-y="1000"/><glyph glyph-name="uni62" unicode="b" d="m69 0 2 17C81 3.67 95-3 113-3h32c20 0 37 8.17 51 24.5s22.67 37.83 26 64.5l38 308c3.33 26.67.17 48.17-9.5 64.5S226 483 206 483h-33c-18.67 0-34.67-7-48-21l32 258H75L-13 0Zm30 73c-13.33 0-19.33 6.67-18 20l37 294c1.33 13.33 8.67 20 22 20h20c13.33 0 19.33-6.67 18-20L141 93c-1.33-13.33-8.67-20-22-20Z" horiz-adv-x="285" vert-adv-y="1000"/><glyph glyph-name="uni63" unicode="c" d="M76-3h45c26.67 0 49.33 8.17 68 24.5s29.33 37.83 32 64.5l12 93h-82l-11-86c-1.33-13.33-8.67-20-22-20H98c-13.33 0-19.33 6.67-18 20l37 294c1.33 13.33 8.67 20 22 20h20c13.33 0 19.33-6.67 18-20l-11-86h82l11 93c3.33 26.67-2.17 48.17-16.5 64.5S207.67 483 181 483h-45c-26.67 0-49.33-8.17-68-24.5S38.33 420.67 35 394L-2 86C-5.33 59.33.17 37.83 14.5 21.5S49.33-3 76-3Z" horiz-adv-x="274" vert-adv-y="1000"/><glyph glyph-name="uni64" unicode="d" d="M-2 86c-3.33-26.67-.17-48.17 9.5-64.5S32-3 52-3h33c18 0 33.67 6.67 47 20l-2-17h82l88 720h-82l-31-257c-10 13.33-24 20-42 20h-33c-20 0-37-8.17-51-24.5S38.33 420.67 35 394ZM98 73c-13.33 0-19.33 6.67-18 20l37 294c1.33 13.33 8.67 20 22 20h20c13.33 0 19.33-6.67 18-20L140 93c-1.33-13.33-8.67-20-22-20Z" horiz-adv-x="285" vert-adv-y="1000"/><glyph glyph-name="uni65" unicode="e" d="M76-3h45c26.67 0 49.33 8.17 68 24.5s29.33 37.83 32 64.5l9 75h-81l-9-68c-1.33-13.33-8.67-20-22-20H98c-13.33 0-19.33 6.67-18 20l14 113h142l23 188c3.33 26.67-2.17 48.17-16.5 64.5S207.67 483 181 483h-45c-26.67 0-49.33-8.17-68-24.5S38.33 420.67 35 394L-2 86C-5.33 59.33.17 37.83 14.5 21.5S49.33-3 76-3Zm27 279 14 111c1.33 13.33 8.67 20 22 20h20c13.33 0 19.33-6.67 18-20l-14-111Z" horiz-adv-x="282" vert-adv-y="1000"/><glyph glyph-name="uni66" unicode="f" d="M13 0h82l50 411h68l8 69h-67l17 137c2 18 12.33 27 31 27h40l8 76h-52c-28.67 0-53-8.83-73-26.5S93.33 652.33 90 623L72 480H24l-8-69h48Z" horiz-adv-x="214" vert-adv-y="1000"/><glyph glyph-name="uni67" unicode="g" d="M-24-104c-3.33-26.67 2.33-48.17 17-64.5S28.33-193 55-193h44c26.67 0 49.33 8.17 68 24.5s29.33 37.83 32 64.5l72 584h-82l-2-17c-10 13.33-24 20-42 20h-33c-20 0-37-8.17-51-24.5S38.33 420.67 35 394L-2 86c-3.33-26.67-.17-48.17 9.5-64.5S32-3 52-3h33c18.67 0 34.33 7 47 21L118-97c-1.33-13.33-8.67-20-22-20H77c-13.33 0-19.33 6.67-18 20l6 49h-82ZM98 73c-13.33 0-19.33 6.67-18 20l37 294c1.33 13.33 8.67 20 22 20h20c13.33 0 19.33-6.67 18-20L140 93c-1.33-13.33-8.67-20-22-20Z" horiz-adv-x="285" vert-adv-y="1000"/><glyph glyph-name="uni68" unicode="h" d="m69 0 48 387v1c1.33 12.67 8.67 19 22 19h20c13.33 0 19.33-6.67 18-20L129 0h82l48 394c3.33 26.67.17 48.17-9.5 64.5S225 483 205 483h-33c-16.67 0-32-6.33-46-19l31 256H75L-13 0Z" horiz-adv-x="284" vert-adv-y="1000"/><glyph glyph-name="uni69" unicode="i" d="M-13 0h82l59 480H46Zm71 578h82l13 103H71Z" horiz-adv-x="142" vert-adv-y="1000"/><glyph glyph-name="uni6a" unicode="j" d="M-57-190c31.33 0 57.5 9.5 78.5 28.5S54.67-117.67 58-87l70 567H46L-23-81c-.67-10-4.67-18-12-24s-16-9-26-9h-25l-8-76ZM58 578h82l13 103H71Z" horiz-adv-x="142" vert-adv-y="1000"/><glyph glyph-name="uni6b" unicode="k" d="m69 0 24 194L140 0h85l-64 245 120 235h-85l-91-185 52 425H75L-13 0Z" horiz-adv-x="273" vert-adv-y="1000"/><glyph glyph-name="uni6c" unicode="l" d="M-13 0h82l88 720H75Z" horiz-adv-x="142" vert-adv-y="1000"/><glyph glyph-name="uni6d" unicode="m" d="M-13 0h82l48 387v1c1.33 12.67 8.67 19 22 19h20c13.33 0 19.33-6.67 18-20L129 0h82l48 394c0 1.33.33 2.33 1 3 3.33 6.67 9.67 10 19 10h22c13.33 0 19.33-6.67 18-20L271 0h82l48 394c3.33 26.67-.83 48.17-12.5 64.5S359.67 483 337 483h-38c-20 0-37.67-6.67-53-20-9.33 13.33-23 20-41 20h-33c-16.67 0-32-6.33-46-19l2 16H46Z" horiz-adv-x="426" vert-adv-y="1000"/><glyph glyph-name="uni6e" unicode="n" d="m69 0 48 387v1c1.33 12.67 8.67 19 22 19h20c13.33 0 19.33-6.67 18-20L129 0h82l48 394c3.33 26.67.17 48.17-9.5 64.5S225 483 205 483h-33c-16.67 0-32-6.33-46-19l2 16H46L-13 0Z" horiz-adv-x="284" vert-adv-y="1000"/><glyph glyph-name="uni6f" unicode="o" d="M-2 86C-5.33 59.33.17 37.83 14.5 21.5S49.33-3 76-3h45c26.67 0 49.33 8.17 68 24.5s29.33 37.83 32 64.5l38 308c3.33 26.67-2.17 48.17-16.5 64.5S207.67 483 181 483h-45c-26.67 0-49.33-8.17-68-24.5S38.33 420.67 35 394ZM98 73c-13.33 0-19.33 6.67-18 20l37 294c1.33 13.33 8.67 20 22 20h20c13.33 0 19.33-6.67 18-20L140 93c-1.33-13.33-8.67-20-22-20Z" horiz-adv-x="284" vert-adv-y="1000"/><glyph glyph-name="uni70" unicode="p" d="M46-190 71 17C81 3.67 95-3 113-3h32c20 0 37 8.17 51 24.5s22.67 37.83 26 64.5l38 308c3.33 26.67.17 48.17-9.5 64.5S226 483 206 483h-33c-18 0-33.67-6.67-47-20l2 17H46l-82-670ZM99 73c-13.33 0-19.33 6.67-18 20l37 294c1.33 13.33 8.67 20 22 20h20c13.33 0 19.33-6.67 18-20L141 93c-1.33-13.33-8.67-20-22-20Z" horiz-adv-x="285" vert-adv-y="1000"/><glyph glyph-name="uni71" unicode="q" d="M-2 86c-3.33-26.67-.17-48.17 9.5-64.5S32-3 52-3h33c18.67 0 34.33 7 47 21l-25-208h82l82 670h-82l-2-17c-10 13.33-24 20-42 20h-33c-20 0-37-8.17-51-24.5S38.33 420.67 35 394ZM98 73c-13.33 0-19.33 6.67-18 20l37 294c1.33 13.33 8.67 20 22 20h20c13.33 0 19.33-6.67 18-20L140 93c-1.33-13.33-8.67-20-22-20Z" horiz-adv-x="285" vert-adv-y="1000"/><glyph glyph-name="uni72" unicode="r" d="M-13 0h82l45 367c1.33 12 7.17 21.67 17.5 29 10.33 7.33 23.17 11 38.5 11h40l9 76h-32c-24.67 0-45.33-10-62-30l3 27H46Z" horiz-adv-x="211" vert-adv-y="1000"/><glyph glyph-name="uni73" unicode="s" d="M74-3h45c26.67 0 49.33 8.17 68 24.5s29.33 37.83 32 64.5l13 106c2 15.33-.5 29.5-7.5 42.5S207.33 256.67 194 262l-78 36c-10 4.67-14.33 12.33-13 23l9 66c1.33 13.33 8.67 20 22 20h20c13.33 0 19.33-6.67 18-20l-8-64h81l9 71c3.33 26.67-2.17 48.17-16.5 64.5S202.67 483 176 483h-45c-26.67 0-49.33-8.17-68-24.5S33.33 420.67 30 394l-11-89c-1.33-15.33 1.5-29.5 8.5-42.5S44.67 240.33 58 235l79-37c9.33-4.67 13.33-12.33 12-23l-11-82c-1.33-13.33-8.67-20-22-20H96c-13.33 0-19.33 6.67-18 20l9 68H5l-9-75c-3.33-26.67 2.17-48.17 16.5-64.5S47.33-3 74-3Z" horiz-adv-x="272" vert-adv-y="1000"/><glyph glyph-name="uni74" unicode="t" d="M13 411h47L22 97c-3.33-29.33 2.83-52.83 18.5-70.5S78.33 0 107 0h52l10 76h-40c-18 0-26 9-24 27l37 308h68l8 69h-67l12 100H81L69 480H21Z" horiz-adv-x="215" vert-adv-y="1000"/><glyph glyph-name="uni75" unicode="u" d="M-2 86c-3.33-26.67-.17-48.17 9.5-64.5S32-3 52-3h33c16.67 0 32 6.33 46 19l-2-16h82l59 480h-82L140 93v-1c-1.33-12.67-8.67-19-22-19H98c-13.33 0-19.33 6.67-18 20l48 387H46Z" horiz-adv-x="284" vert-adv-y="1000"/><glyph glyph-name="uni76" unicode="v" d="M36 0h106l131 480h-80l-80-331c-5.33-20-10-44.33-14-73h-2c4 29.33 6 53.67 6 73v331H23Z" horiz-adv-x="264" vert-adv-y="1000"/><glyph glyph-name="uni77" unicode="w" d="M31 0h96l78 328c4.67 21.33 8.33 45.67 11 73h2c-3.33-36.67-5-61-5-73L210 0h96l126 480h-80l-76-331c-4-14.67-8.33-39-13-73h-2c4.67 34 7 58.33 7 73l3 331h-87l-77-331c-4-14.67-8.33-39-13-73h-2c4.67 34 7 58.33 7 73l4 331H23Z" horiz-adv-x="423" vert-adv-y="1000"/><glyph glyph-name="uni78" unicode="x" d="M-38 0h86l45 107c11.33 20 18.67 43.33 22 70h2c-3.33-26-2-49.33 4-70L140 0h85l-58 245 114 235h-85l-41-97c-11.33-21.33-18.67-45-22-71h-2c3.33 22.67 2 46.33-4 71l-17 97H24l57-235Z" horiz-adv-x="273" vert-adv-y="1000"/><glyph glyph-name="uni79" unicode="y" d="M10-190c55.33 0 92.67 34.33 112 103l152 567h-80l-81-326c-4-14.67-8.33-39-13-73h-2c3.33 24.67 5 49 5 73l1 326H23L37 0h34L52-81c-2.67-10-8.33-18-17-24s-18.33-9-29-9h-19l-8-76Z" horiz-adv-x="265" vert-adv-y="1000"/><glyph glyph-name="uni7a" unicode="z" d="M-33 0h200l8 70H65l154 353 7 57H26l-8-69h110L-26 57Z" horiz-adv-x="220" vert-adv-y="1000"/><glyph glyph-name="uni7b" unicode="{" d="M29 290c18.67 0 27-11.33 25-34L23 3c-4-30.67 1.83-55.5 17.5-74.5S78.67-100 108-100h20l8 69h-19c-9.33 0-16.17 3-20.5 9-4.33 6-5.83 14-4.5 24l29 242c5.33 36.67-4 63.67-28 81 27.33 16.67 43.67 43.67 49 81l30 243c.67 9.33 4 17 10 23s13.33 9 22 9h19l9 69h-20c-29.33 0-54.17-9.33-74.5-28S105 678.33 101 647L71 394c-3.33-22.67-14.67-34-34-34H21l-8-70Z" horiz-adv-x="188" vert-adv-y="1000"/><glyph glyph-name="uni7c" unicode="|" d="M30-100h70v850H30Z" horiz-adv-x="130" vert-adv-y="1000"/><glyph glyph-name="uni7d" unicode="}" d="M-50-100h19c29.33 0 54.33 9.5 75 28.5S76.67-27.67 80 3l31 253c3.33 22.67 14.33 34 33 34h17l8 70h-16c-18.67 0-27 11.33-25 34l31 253c4 30.67-2 55.5-18 74.5S102.33 750 73 750H54l-8-69h19c8.67 0 15.33-3 20-9s6.33-13.67 5-23L60 406c-4-36.67 5.67-63.67 29-81-27.33-16.67-43.67-43.67-49-81L10 2C8.67-8 5-16-1-22s-13.33-9-22-9h-19Z" horiz-adv-x="188" vert-adv-y="1000"/><glyph glyph-name="uni7e" unicode="~" d="M15 303h68c0 23.33 6.67 35 20 35 6 0 12.83-3.67 20.5-11s17.67-14.67 30-22c12.33-7.33 26.5-11 42.5-11 26.67 0 48.33 9.33 65 28s25 43.33 25 74h-68c0-22.67-7-34-21-34-5.33 0-17.17 7.17-35.5 21.5S123.67 405 103 405c-26.67 0-48-9.33-64-28s-24-43.33-24-74Z" horiz-adv-x="300" vert-adv-y="1000"/><glyph glyph-name="unia1" unicode="¡" d="m112 377 13 103H43L30 377ZM43-190l52 487H27l-66-487Z" horiz-adv-x="136" vert-adv-y="1000"/><glyph glyph-name="unia2" unicode="¢" d="M84 107 70 0h57l14 107c25.33 1.33 46.5 10.17 63.5 26.5s27.17 37.17 30.5 62.5l11 93h-82l-10-86c-2-13.33-9.67-20-23-20h-20c-13.33 0-19 6.67-17 20l36 294c2 13.33 9.67 20 23 20h20c13.33 0 19-6.67 17-20l-11-86h82l12 93c2.67 25.33-2.5 46.17-15.5 62.5S225.33 591.67 200 593l14 107h-57l-14-107c-25.33-1.33-46.67-10.17-64-26.5S51.67 529.33 49 504L11 196c-2.67-25.33 2.5-46.17 15.5-62.5S58.67 108.33 84 107Z" horiz-adv-x="274" vert-adv-y="1000"/><glyph glyph-name="unia3" unicode="£" d="M-41 0h283l9 76H89l26 209h93l5 51h-92l33 265c2 13.33 9.67 20 23 20h30c13.33 0 19-6.67 17-20l-13-110h88l14 116c3.33 29.33-2.67 52.67-18 70s-37.33 26-66 26h-55c-28.67 0-52.83-8.83-72.5-26.5S70.33 635.67 67 607L33 336H0l-6-51h33L1 76h-33Z" horiz-adv-x="311" vert-adv-y="1000"/><glyph glyph-name="unia4" unicode="¤" d="m78 70 30 85c3.33-.67 9-1 17-1h34c8 0 14 .33 18 1l29-85 60 22-33 95c14 18 21 40 21 66v194c0 26.67-7 49-21 67l33 95-60 22-30-86c-3.33.67-9 1-17 1h-34c-7.33 0-13-.33-17-1l-30 86-60-22 34-95c-14.67-18-22-40.33-22-67V253c0-26.67 7-49 21-67L18 92Zm34 371c0 20 8.33 30 25 30h10c16.67 0 25-10 25-30V259c0-20-8.33-30-25-30h-10c-16.67 0-25 10-25 30Z" horiz-adv-x="284" vert-adv-y="1000"/><glyph glyph-name="unia5" unicode="¥" d="M65 110 52 0h88l13 110h63l6 51h-62l5 42h62l6 51h-61l1 9 142 437h-84l-76-271c-5.33-18.67-10-42.67-14-72h-2c4 28.67 5 52.67 3 72l-8 271H50l34-439v-7H21l-6-51h62l-5-42H10l-6-51Z" horiz-adv-x="278" vert-adv-y="1000"/><glyph glyph-name="unia6" unicode="¦" d="M100 396v354H30V396Zm0-496v354H30v-354Z" horiz-adv-x="130" vert-adv-y="1000"/><glyph glyph-name="unia7" unicode="§" d="M63-100h44c26.67 0 49.17 8.17 67.5 24.5S203.67-37.67 207-11l46 369c2 15.33-.5 29.5-7.5 42.5S228.33 422.67 215 428l-79 37c-9.33 3.33-13.33 10.67-12 22l15 120c1.33 13.33 8.67 20 22 20h20c13.33 0 19.33-6.67 18-20l-8-64h81l9 71c3.33 26.67-2.17 48.17-16.5 64.5S229.67 703 203 703h-45c-26.67 0-49.33-8.17-68-24.5S60.33 640.67 57 614L12 245c-2-15.33.67-29.5 8-42.5s17.67-22.17 31-27.5l78-36c10-5.33 14-13 12-23L127-4c-2-13.33-9.67-20-23-20H84c-13.33 0-19 6.67-17 20l8 65H-7l-9-72c-4-26.67 1.33-48.17 16-64.5S35.67-100 63-100Zm33 362 16 126 45-24c9.33-3.33 13.33-11 12-23l-16-127-45 25c-9.33 4.67-13.33 12.33-12 23Z" horiz-adv-x="272" vert-adv-y="1000"/><glyph glyph-name="unia8" unicode="¨" d="m146 720 12 92H87l-12-92Zm102 0 11 92h-70l-12-92Z" horiz-adv-x="233" vert-adv-y="1000"/><glyph glyph-name="unia9" unicode="©" d="M30 165c0-50.67 14.83-91.67 44.5-123S143.33-5 192-5h55c48.67 0 87.83 15.67 117.5 47S409 114.33 409 165v371c0 50.67-14.83 91.5-44.5 122.5S295.67 705 247 705h-55c-48.67 0-87.83-15.5-117.5-46.5S30 586.67 30 536Zm63 371c0 32.67 9.17 59 27.5 79s42.17 30 71.5 30h55c29.33 0 53-10 71-30s27-46.33 27-79V164c0-32.67-9-59-27-79s-41.67-30-71-30h-55c-29.33 0-53.17 10-71.5 30S93 131.33 93 164Zm112-8c-19.33 0-34.83-6-46.5-18-11.67-12-17.5-27.67-17.5-47V238c0-19.33 5.83-35 17.5-47s27.17-18 46.5-18h33c19.33 0 35 6 47 18s18 27.67 18 47v63h-60v-59c0-9.33-4.67-14-14-14h-14c-9.33 0-14 4.67-14 14v217c0 9.33 4.67 14 14 14h14c9.33 0 14-4.67 14-14v-60h60v64c0 19.33-6 35-18 47s-27.67 18-47 18Z" horiz-adv-x="439" vert-adv-y="1000"/><glyph glyph-name="uniaa" unicode="ª" d="M31 416c-2.67-20.67-.17-37.17 7.5-49.5C46.17 354.17 57.67 348 73 348h25c13.33 0 25 5 35 15l-2-13h64l36 294c2.67 20.67-1.5 37.33-12.5 50-11 12.67-26.83 19-47.5 19h-35c-20.67 0-38-6.33-52-19s-22.33-29.33-25-50l-6-48h63l5 41c1.33 11.33 7.33 17 18 17h15c9.33 0 13.33-5.67 12-17l-10-85c-6.67 10-17 15-31 15h-25c-15.33 0-28.33-6.33-39-19-10.67-12.67-17-29.33-19-50Zm77-10c-10.67 0-15 5-13 15l9 73c1.33 10 7 15 17 15h15c10 0 14.33-5 13-15l-9-73c-2-10-7.67-15-17-15Z" horiz-adv-x="218" vert-adv-y="1000"/><glyph glyph-name="uniab" unicode="«" d="M14 260 63 92h73L84 260l94 169h-73ZM170 92h74l-53 168 94 169h-73l-90-169Z" horiz-adv-x="296" vert-adv-y="1000"/><glyph glyph-name="uniac" unicode="¬" d="M30 341h154v-74h70v144H30Z" horiz-adv-x="284" vert-adv-y="1000"/><glyph glyph-name="uniad" unicode="­" d="M6 235h148l8 70H14Z" horiz-adv-x="188" vert-adv-y="1000"/><glyph glyph-name="uniae" unicode="®" d="M30 165c0-50.67 14.83-91.67 44.5-123S143.33-5 192-5h55c48.67 0 87.83 15.67 117.5 47S409 114.33 409 165v371c0 50.67-14.83 91.5-44.5 122.5S295.67 705 247 705h-55c-48.67 0-87.83-15.5-117.5-46.5S30 586.67 30 536Zm63 371c0 32.67 9.17 59 27.5 79s42.17 30 71.5 30h55c29.33 0 53-10 71-30s27-46.33 27-79V164c0-32.67-9-59-27-79s-41.67-30-71-30h-55c-29.33 0-53.17 10-71.5 30S93 131.33 93 164Zm110-361v126h18l28-126h56l-32 135c21.33 12.67 32 33 32 61v85c0 21.33-6.17 38.17-18.5 50.5-12.33 12.33-29.17 18.5-50.5 18.5h-92V175Zm28 299c9.33 0 14-4.67 14-14v-94c0-9.33-4.67-14-14-14h-28v122Z" horiz-adv-x="439" vert-adv-y="1000"/><glyph glyph-name="uniaf" unicode="¯" d="M76 723h176l9 70H84Z" horiz-adv-x="237" vert-adv-y="1000"/><glyph glyph-name="unib0" unicode="°" d="M36 560c-4-30 1.67-54.17 17-72.5S90 460 118 460h10c28.67 0 52.67 9.17 72 27.5s31 42.5 35 72.5l7 64c4 29.33-1.5 53.17-16.5 71.5S188.67 723 160 723h-10c-28.67 0-52.67-9.17-72-27.5S47 653.33 43 624Zm90-36c-16.67 0-24 10-22 30l10 76c3.33 20 13 30 29 30h10c7.33 0 13-2.83 17-8.5s5.33-12.83 4-21.5l-10-76c-2-20-11.33-30-28-30Z" horiz-adv-x="219" vert-adv-y="1000"/><glyph glyph-name="unib1" unicode="±" d="M30 370h77v-89h70v89h77v70h-77v88h-70v-88H30Zm0-129v-69h224v69Z" horiz-adv-x="284" vert-adv-y="1000"/><glyph glyph-name="unib2" unicode="²" d="m187 400 8 55H90l1 10c2.67 10.67 8 18.67 16 24l53 50c13.33 8 24.83 19.17 34.5 33.5 9.67 14.33 15.17 28.83 16.5 43.5l9 68c2 20.67-2.33 37.33-13 50-10.67 12.67-26.33 19-47 19h-25c-20 0-37-6.33-51-19s-22.33-29.33-25-50l-7-62h59l6 51c2 16.67 8.67 25 20 25h7c12 0 17-8.33 15-25l-7-64c-1.33-10-6.67-18-16-24l-53-49c-30-18-47.33-44-52-78l-7-58Z" horiz-adv-x="195" vert-adv-y="1000"/><glyph glyph-name="unib3" unicode="³" d="M32 460c-2.67-18.67 1.5-33.67 12.5-45 11-11.33 26.83-17 47.5-17h25c20.67 0 37.67 5.5 51 16.5 13.33 11 21.33 26.17 24 45.5l8 61c3.33 26.67-3.33 46.33-20 59 19.33 12.67 30.67 32.33 34 59l6 45c2 20.67-2.33 37.33-13 50-10.67 12.67-26.33 19-47 19h-25c-20 0-37-6.33-51-19s-22.33-29.33-25-50l-6-53h59l5 42c2 16.67 8.67 25 20 25h7c12 0 17-8.33 15-25l-5-45c-2-13.33-9-20-21-20h-23l-6-55h23c12 0 17-7.33 15-22l-7-58c-2-13.33-9-20-21-20h-7c-11.33 0-16 6.67-14 20l5 42H38Z" horiz-adv-x="200" vert-adv-y="1000"/><glyph glyph-name="unib4" unicode="´" d="m138 717 83 137h-87L75 717Z" horiz-adv-x="189" vert-adv-y="1000"/><glyph glyph-name="unib5" unicode="µ" d="M112-190 100-3h29c17.33 0 31.67 6.33 43 19V0h82v480h-82V93c0-13.33-6.67-20-20-20h-20c-13.33 0-20 6.67-20 20v387H30v-670Z" horiz-adv-x="284" vert-adv-y="1000"/><glyph glyph-name="unib6" unicode="¶" d="M19 378c-4-28.67 1.67-51.83 17-69.5S73.67 282 103 282h11L67-100h69l98 800h-80c-28.67 0-52.83-8.67-72.5-26S50 633.33 46 604Zm146-478h70l98 800h-70Z" horiz-adv-x="320" vert-adv-y="1000"/><glyph glyph-name="unib7" unicode="·" d="M20 298h82l13 104H33Z" horiz-adv-x="136" vert-adv-y="1000"/><glyph glyph-name="unib8" unicode="¸" d="M-28-118c-1.33-14.67 1.5-26.33 8.5-35 7-8.67 17.17-13 30.5-13h11c14.67 0 26.67 4 36 12 9.33 8 14.67 18.67 16 32l6 44c1.33 13.33-.5 24-5.5 32S62.33-34 53-34H42c-4.67 0-9.33-2.33-14-7L40 3H6l-23-83h35c2 8 5.33 12 10 12h6c6.67 0 9.33-4.67 8-14l-5-38c-1.33-6.67-5-10-11-10H16c-5.33 0-7.33 3.33-6 10l2 15h-38Z" horiz-adv-x="162" vert-adv-y="1000"/><glyph glyph-name="unib9" unicode="¹" d="M116 657 84 400h60l43 350h-54c-2-18-9.5-32-22.5-42S80.33 693 59 693l-5-36Z" horiz-adv-x="174" vert-adv-y="1000"/><glyph glyph-name="uniba" unicode="º" d="M31 416c-2.67-20.67 1.5-37.17 12.5-49.5C54.5 354.17 70.33 348 91 348h35c20.67 0 38 6.17 52 18.5s22.33 28.83 25 49.5l28 228c2 20.67-2.33 37.33-13 50-10.67 12.67-26.33 19-47 19h-35c-20.67 0-38-6.33-52-19s-22.33-29.33-25-50Zm77-10c-10.67 0-15 5-13 15l27 218c1.33 10 7 15 17 15h15c10 0 14.33-5 13-15l-27-218c-2-10-7.67-15-17-15Z" horiz-adv-x="217" vert-adv-y="1000"/><glyph glyph-name="unibb" unicode="»" d="m62 92 90 168-49 169H30l52-169-94-168Zm34 0h73l91 168-49 169h-74l53-169Z" horiz-adv-x="296" vert-adv-y="1000"/><glyph glyph-name="unibc" unicode="¼" d="m95 0 315 700h-74L20 0Zm320 68 7 55h-25l28 227h-84L235 123l-7-55h102l-8-68h60l8 68ZM48 607h61L78 350h60l43 350h-54c-5.33-38-30.33-57-75-57Zm241-484 50 116c13.33 29.33 22.33 52.33 27 69h2c-9.33-32-15-56-17-72l-14-113Z" horiz-adv-x="457" vert-adv-y="1000"/><glyph glyph-name="unibd" unicode="½" d="m95 0 315 700h-74L20 0Zm299 0 7 55H297l1 10c2.67 10.67 8 18.67 16 24l53 50c13.33 8 24.83 19.17 34.5 33.5 9.67 14.33 15.17 28.83 16.5 43.5l9 68c2 20.67-2.33 37.33-13 50-10.67 12.67-26.33 19-47 19h-25c-20.67 0-37.83-6.33-51.5-19-13.67-12.67-21.83-29.33-24.5-50l-8-62h60l6 51c2 16.67 8.67 25 20 25h7c12 0 17-8.33 15-25l-7-64c-1.33-10-6.67-18-16-24l-53-49c-30-17.33-47.33-43.33-52-78l-7-58ZM109 607 78 350h60l43 350h-54c-5.33-38-30.33-57-75-57l-4-36Z" horiz-adv-x="451" vert-adv-y="1000"/><glyph glyph-name="unibe" unicode="¾" d="m120 0 315 700h-73L46 0Zm321 68 6 55h-25l28 227h-84L261 123l-7-55h102l-9-68h60l8 68ZM26 410c-2.67-18.67 1.5-33.67 12.5-45 11-11.33 26.83-17 47.5-17h25c20.67 0 37.67 5.5 51 16.5 13.33 11 21.33 26.17 24 45.5l8 61c3.33 26.67-3.33 46.33-20 59 20 14 31 33.67 33 59l7 45c2 20.67-2.33 37.33-13 50-10.67 12.67-26.33 19-47 19h-25c-20.67 0-37.83-6.33-51.5-19-13.67-12.67-21.83-29.33-24.5-50l-7-53h59l6 42c2 16.67 8.67 25 20 25h7c12 0 17-8.33 15-25l-5-45c-2-13.33-9-20-21-20h-23l-6-55h23c12 0 17-7.33 15-22l-8-58c-1.33-13.33-8-20-20-20h-7c-11.33 0-16.33 6.67-15 20l5 42H32Zm288-287 50 116c10 20 19.33 43 28 69h1c-9.33-32.67-14.67-56.67-16-72l-14-113Z" horiz-adv-x="482" vert-adv-y="1000"/><glyph glyph-name="unibf" unicode="¿" d="M50-190h54c29.33 0 53.83 8.83 73.5 26.5S208.67-122.67 212-94L224 8h-88l-11-96c-2-13.33-9.67-20-23-20H72c-13.33 0-19 6.67-17 20L68 27c1.33 6.67 4 12.67 8 18l80 112c4.67 6 7 12 7 18l6 122h-68l-20-96c-2.67-10-6.33-18.33-11-25L10 85C-7.33 64.33-18 39.67-22 11L-34-94c-4-28.67 1.67-51.83 17-69.5S20.67-190 50-190Zm66 670-12-103h82l12 103Z" horiz-adv-x="281" vert-adv-y="1000"/><glyph glyph-name="unic0" unicode="À" d="m46 0 37 162h81L161 0h82l5 700H131L-36 0Zm118 518c6 32 9.67 56.33 11 73h2c-3.33-36.67-5-61-5-73l-6-281h-66Zm11 233h64l-25 137h-87Z" horiz-adv-x="293" vert-adv-y="1000"/><glyph glyph-name="unic1" unicode="Á" d="m46 0 37 162h81L161 0h82l5 700H131L-36 0Zm118 518c6 32 9.67 56.33 11 73h2c-3.33-36.67-5-61-5-73l-6-281h-66Zm-12 233h63l83 137h-87Z" horiz-adv-x="293" vert-adv-y="1000"/><glyph glyph-name="unic2" unicode="Â" d="m46 0 37 162h81L161 0h82l5 700H131L-36 0Zm121 750 38 76 20-76h58l-41 137h-60l-74-137Zm-3-232c6 32 9.67 56.33 11 73h2c-3.33-36.67-5-61-5-73l-6-281h-66Z" horiz-adv-x="293" vert-adv-y="1000"/><glyph glyph-name="unic3" unicode="Ã" d="m46 0 37 162h81L161 0h82l5 700H131L-36 0Zm111 754c1.33 15.33 7 23 17 23 3.33 0 10.17-4.33 20.5-13s22.5-13 36.5-13c20 0 36.67 6.83 50 20.5 13.33 13.67 21.67 31.83 25 54.5h-53c-2-16-8-24-18-24-3.33 0-10.17 4.5-20.5 13.5S191.67 829 177 829c-20 0-36.33-6.83-49-20.5-12.67-13.67-20.67-31.83-24-54.5Zm7-236c6 32 9.67 56.33 11 73h2c-3.33-36.67-5-61-5-73l-6-281h-66Z" horiz-adv-x="293" vert-adv-y="1000"/><glyph glyph-name="unic4" unicode="Ä" d="m46 0 37 162h81L161 0h82l5 700H131L-36 0Zm118 518c6 32 9.67 56.33 11 73h2c-3.33-36.67-5-61-5-73l-6-281h-66Zm17 236 11 92h-70l-12-92Zm102 0 11 92h-70l-12-92Z" horiz-adv-x="293" vert-adv-y="1000"/><glyph glyph-name="unic5" unicode="Å" d="m46 0 37 162h81L161 0h82l5 700H131L-36 0Zm85 824c-2.67-21.33 2.17-39.17 14.5-53.5 12.33-14.33 29.17-21.5 50.5-21.5 20.67 0 39 7.17 55 21.5s25.33 32.17 28 53.5c2.67 20.67-2.33 38.17-15 52.5-12.67 14.33-29.33 21.5-50 21.5-21.33 0-39.83-7.17-55.5-21.5-15.67-14.33-24.83-31.83-27.5-52.5Zm33-306c6 32 9.67 56.33 11 73h2c-3.33-36.67-5-61-5-73l-6-281h-66Zm38 279c-8 0-14.17 2.5-18.5 7.5S177.33 816 178 824c1.33 8 4.67 14.5 10 19.5s12 7.5 20 7.5 14.17-2.5 18.5-7.5 6.17-11.5 5.5-19.5c-1.33-8-4.67-14.5-10-19.5s-12-7.5-20-7.5Z" horiz-adv-x="293" vert-adv-y="1000"/><glyph glyph-name="unic6" unicode="Æ" d="m48 0 54 162h81L163 0h192l9 76H261l29 236h95l9 76h-95l29 236h103l10 76H210L-36 0Zm171 515c8 28 14.33 51 19 69h2c-7.33-29.33-11.67-52.67-13-70l-35-277h-65Z" horiz-adv-x="421" vert-adv-y="1000"/><glyph glyph-name="unic7" unicode="Ç" d="M87-3h10L76-80h34c2 8 5.67 12 11 12h6c6 0 8.33-4.67 7-14l-5-38c-1.33-6.67-4.67-10-10-10h-10c-5.33 0-7.33 3.33-6 10l2 15H67l-2-13c-1.33-14.67 1.5-26.33 8.5-35 7-8.67 17.17-13 30.5-13h11c14 0 25.67 4 35 12 9.33 8 15 18.67 17 32l6 44c1.33 13.33-.5 24-5.5 32S155.33-34 146-34h-12c-4.67 0-9-2.33-13-7l10 38h11c28.67 0 53 8.83 73 26.5s31.33 40.83 34 69.5l17 131h-89L163 99c-2-13.33-9.67-20-23-20h-30c-13.33 0-19 6.67-17 20l61 502c2 13.33 9.67 20 23 20h30c13.33 0 19-6.67 17-20l-16-129h88l17 135c3.33 29.33-2.67 52.67-18 70s-37.33 26-66 26h-55c-28.67 0-52.83-8.83-72.5-26.5S70.33 635.67 67 607L3 93C-.33 64.33 5.67 41.17 21 23.5S58.33-3 87-3Z" horiz-adv-x="311" vert-adv-y="1000"/><glyph glyph-name="unic8" unicode="È" d="M-8 0h192l9 76H89l29 236h96l9 76h-95l29 236h103l10 76H78Zm120 888 48-137h64l-25 137Z" horiz-adv-x="250" vert-adv-y="1000"/><glyph glyph-name="unic9" unicode="É" d="m184 0 9 76H89l29 236h96l9 76h-95l29 236h103l10 76H78L-8 0Zm-48 751h64l82 137h-87Z" horiz-adv-x="250" vert-adv-y="1000"/><glyph glyph-name="unica" unicode="Ê" d="M-8 0h192l9 76H89l29 236h96l9 76h-95l29 236h103l10 76H78ZM93 750h58l39 76 19-76h58l-40 137h-60Z" horiz-adv-x="250" vert-adv-y="1000"/><glyph glyph-name="unicb" unicode="Ë" d="m184 0 9 76H89l29 236h96l9 76h-95l29 236h103l10 76H78L-8 0Zm83 754 12 92h-71l-12-92Zm-173 0h71l12 92h-71Z" horiz-adv-x="250" vert-adv-y="1000"/><glyph glyph-name="unicc" unicode="Ì" d="M-8 0h88l86 700H78Zm154 888H59l49-137h63Z" horiz-adv-x="158" vert-adv-y="1000"/><glyph glyph-name="unicd" unicode="Í" d="M-8 0h88l86 700H78Zm155 751 83 137h-87L84 751Z" horiz-adv-x="158" vert-adv-y="1000"/><glyph glyph-name="unice" unicode="Î" d="M-8 0h88l86 700H78Zm49 750h58l38 76 20-76h58l-41 137h-59Z" horiz-adv-x="158" vert-adv-y="1000"/><glyph glyph-name="unicf" unicode="Ï" d="M-8 0h88l86 700H78Zm223 754 12 92h-71l-12-92Zm-173 0h71l12 92H54Z" horiz-adv-x="158" vert-adv-y="1000"/><glyph glyph-name="unid0" unicode="Ð" d="M142 0c29.33 0 53.83 8.83 73.5 26.5S246.67 67.33 250 96l62 508c4 28.67-1.67 51.83-17 69.5S257.33 700 228 700H78L38 372H6l-6-44h32L-8 0Zm18 328 6 44h-40l31 252h50c13.33 0 19-6.67 17-20L162 96c-1.33-13.33-8.67-20-22-20H89l31 252Z" horiz-adv-x="316" vert-adv-y="1000"/><glyph glyph-name="unid1" unicode="Ñ" d="m77 0 45 364c2 22 3 46 3 72l2 1c0-29.33 1.33-53.33 4-72L155 0h85l86 700h-85l-45-366c-2.67-29.33-4-53.67-4-73l-2-1c0 26.67-1 51-3 73l-24 367H78L-8 0Zm92 754c2 15.33 7.67 23 17 23 3.33 0 10.33-4.33 21-13s23-13 37-13c20 0 36.5 6.83 49.5 20.5s21.17 31.83 24.5 54.5h-53c-2-16-8-24-18-24-3.33 0-10.17 4.5-20.5 13.5S203.67 829 189 829c-19.33 0-35.5-6.83-48.5-20.5S119.33 776.67 116 754Z" horiz-adv-x="318" vert-adv-y="1000"/><glyph glyph-name="unid2" unicode="Ò" d="M3 93C-.33 64.33 5.67 41.17 21 23.5S58.33-3 87-3h55c28.67 0 53 8.83 73 26.5s31.33 40.83 34 69.5l64 514c3.33 29.33-2.67 52.67-18 70s-37.33 26-66 26h-55c-28.67 0-52.83-8.83-72.5-26.5S70.33 635.67 67 607Zm107-14c-13.33 0-19 6.67-17 20l61 502c2 13.33 9.67 20 23 20h30c13.33 0 19-6.67 17-20L163 99c-2-13.33-9.67-20-23-20Zm77 672h63l-25 137h-87Z" horiz-adv-x="316" vert-adv-y="1000"/><glyph glyph-name="unid3" unicode="Ó" d="M3 93C-.33 64.33 5.67 41.17 21 23.5S58.33-3 87-3h55c28.67 0 53 8.83 73 26.5s31.33 40.83 34 69.5l64 514c3.33 29.33-2.67 52.67-18 70s-37.33 26-66 26h-55c-28.67 0-52.83-8.83-72.5-26.5S70.33 635.67 67 607Zm107-14c-13.33 0-19 6.67-17 20l61 502c2 13.33 9.67 20 23 20h30c13.33 0 19-6.67 17-20L163 99c-2-13.33-9.67-20-23-20Zm116 672 83 137h-87l-59-137Z" horiz-adv-x="316" vert-adv-y="1000"/><glyph glyph-name="unid4" unicode="Ô" d="M3 93C-.33 64.33 5.67 41.17 21 23.5S58.33-3 87-3h55c28.67 0 53 8.83 73 26.5s31.33 40.83 34 69.5l64 514c3.33 29.33-2.67 52.67-18 70s-37.33 26-66 26h-55c-28.67 0-52.83-8.83-72.5-26.5S70.33 635.67 67 607Zm107-14c-13.33 0-19 6.67-17 20l61 502c2 13.33 9.67 20 23 20h30c13.33 0 19-6.67 17-20L163 99c-2-13.33-9.67-20-23-20Zm68 671 38 76 20-76h58l-41 137h-59l-74-137Z" horiz-adv-x="316" vert-adv-y="1000"/><glyph glyph-name="unid5" unicode="Õ" d="M3 93C-.33 64.33 5.67 41.17 21 23.5S58.33-3 87-3h55c28.67 0 53 8.83 73 26.5s31.33 40.83 34 69.5l64 514c3.33 29.33-2.67 52.67-18 70s-37.33 26-66 26h-55c-28.67 0-52.83-8.83-72.5-26.5S70.33 635.67 67 607Zm107-14c-13.33 0-19 6.67-17 20l61 502c2 13.33 9.67 20 23 20h30c13.33 0 19-6.67 17-20L163 99c-2-13.33-9.67-20-23-20Zm78 750c-19.33 0-35.5-6.83-48.5-20.5S118.33 776.67 115 754h53c2 15.33 7.67 23 17 23 3.33 0 10.33-4.33 21-13s23-13 37-13c20 0 36.5 6.83 49.5 20.5s21.17 31.83 24.5 54.5h-53c-2-16-8-24-18-24-3.33 0-10.17 4.5-20.5 13.5S202.67 829 188 829Z" horiz-adv-x="316" vert-adv-y="1000"/><glyph glyph-name="unid6" unicode="Ö" d="M3 93C-.33 64.33 5.67 41.17 21 23.5S58.33-3 87-3h55c28.67 0 53 8.83 73 26.5s31.33 40.83 34 69.5l64 514c3.33 29.33-2.67 52.67-18 70s-37.33 26-66 26h-55c-28.67 0-52.83-8.83-72.5-26.5S70.33 635.67 67 607Zm107-14c-13.33 0-19 6.67-17 20l61 502c2 13.33 9.67 20 23 20h30c13.33 0 19-6.67 17-20L163 99c-2-13.33-9.67-20-23-20Zm11 675h71l12 92h-71Zm173 0 12 92h-71l-12-92Z" horiz-adv-x="316" vert-adv-y="1000"/><glyph glyph-name="unid7" unicode="×" d="m93 350-58-58 49-49 58 58 58-58 49 49-58 58 58 58-49 49-58-58-58 58-49-49Z" horiz-adv-x="284" vert-adv-y="1000"/><glyph glyph-name="unid8" unicode="Ø" d="M30 15C44 3 63-3 87-3h55c28.67 0 53 8.83 73 26.5s31.33 40.83 34 69.5l64 514c2.67 22.67-.67 42-10 58l15 35-21 9-10-24c-15.33 12-34.67 18-58 18h-55c-28.67 0-52.83-8.83-72.5-26.5S70.33 635.67 67 607L3 93C1 69 4.33 49.67 13 35L-2 0l22-9Zm84 259 40 327c2 13.33 9.67 20 23 20h30c13.33 0 19-6.67 17-20l-12-93Zm88 151L163 99c-2-13.33-9.67-20-23-20h-30c-13.33 0-19 6.67-17 20l11 92Z" horiz-adv-x="316" vert-adv-y="1000"/><glyph glyph-name="unid9" unicode="Ù" d="M3 93C-.33 64.33 5.67 41.17 21 23.5S58.33-3 87-3h55c28.67 0 53 8.83 73 26.5s31.33 40.83 34 69.5l75 607h-88L163 99c-2-13.33-9.67-20-23-20h-30c-13.33 0-19 6.67-17 20l73 601H78Zm184 658h63l-25 137h-87Z" horiz-adv-x="316" vert-adv-y="1000"/><glyph glyph-name="unida" unicode="Ú" d="M3 93C-.33 64.33 5.67 41.17 21 23.5S58.33-3 87-3h55c28.67 0 53 8.83 73 26.5s31.33 40.83 34 69.5l75 607h-88L163 99c-2-13.33-9.67-20-23-20h-30c-13.33 0-19 6.67-17 20l73 601H78Zm160 658h63l83 137h-87Z" horiz-adv-x="316" vert-adv-y="1000"/><glyph glyph-name="unidb" unicode="Û" d="M3 93C-.33 64.33 5.67 41.17 21 23.5S58.33-3 87-3h55c28.67 0 53 8.83 73 26.5s31.33 40.83 34 69.5l75 607h-88L163 99c-2-13.33-9.67-20-23-20h-30c-13.33 0-19 6.67-17 20l73 601H78Zm175 657 38 76 20-76h58l-41 137h-59l-74-137Z" horiz-adv-x="316" vert-adv-y="1000"/><glyph glyph-name="unidc" unicode="Ü" d="M3 93C-.33 64.33 5.67 41.17 21 23.5S58.33-3 87-3h55c28.67 0 53 8.83 73 26.5s31.33 40.83 34 69.5l75 607h-88L163 99c-2-13.33-9.67-20-23-20h-30c-13.33 0-19 6.67-17 20l73 601H78Zm118 661h71l12 92h-71Zm173 0 12 92h-71l-12-92Z" horiz-adv-x="316" vert-adv-y="1000"/><glyph glyph-name="unidd" unicode="Ý" d="M84 261 52 0h88l33 263 142 437h-84l-76-271c-5.33-18.67-10-42.67-14-72h-2c4 28.67 5 52.67 3 72l-8 271H50Zm124 490 82 137h-87l-59-137Z" horiz-adv-x="278" vert-adv-y="1000"/><glyph glyph-name="unide" unicode="Þ" d="M-8 0h88l19 151h62c28.67 0 52.83 8.83 72.5 26.5S265 218.33 269 247l25 207c3.33 28.67-2.67 51.67-18 69s-37.33 26-66 26h-62l18 151H78Zm116 227 30 247h50c13.33 0 19.33-6.67 18-20l-25-207c-2-13.33-9.67-20-23-20Z" horiz-adv-x="298" vert-adv-y="1000"/><glyph glyph-name="unidf" unicode="ß" d="m69 0 78 634c1.33 13.33 8.67 20 22 20h15c13.33 0 19.33-6.67 18-20l-25-203c-1.33-13.33-8.67-20-22-20h-7l-9-70h12c13.33 0 19-6.67 17-20L140 90c-2-13.33-9.67-20-23-20h-12L97 0h24c26.67 0 49.17 7.5 67.5 22.5S217.67 57.33 221 82l28 227c4 31.33-6 54.33-30 69 24.67 15.33 38.33 37 41 65l25 199c3.33 24-2.5 43.5-17.5 58.5S231.67 723 205 723h-40c-26.67 0-49-7.5-67-22.5S69.33 666 66 642L-13 0Z" horiz-adv-x="281" vert-adv-y="1000"/><glyph glyph-name="unie0" unicode="à" d="M-2 86c-3.33-26.67-.17-48.17 9.5-64.5S32-3 52-3h33c18 0 33.67 6.67 47 20l-2-17h82l48 394c3.33 26.67-2.17 48.17-16.5 64.5S208.67 483 182 483h-45c-26.67 0-49.33-8.17-68-24.5S39.33 420.67 36 394l-8-67h82l7 57c2.67 15.33 10.33 23 23 23h20c6 0 10.67-2.33 14-7s4.33-10 3-16l-14-116c-10.67 14-24.67 21-42 21H88c-20 0-37-8.17-51-24.5S14.33 226.33 11 199Zm146 445h64l-25 137H96ZM98 73c-13.33 0-19.33 6.67-18 20l13 100c1.33 13.33 8.67 20 22 20h20c13.33 0 19.33-6.67 18-20L140 93c-1.33-13.33-8.67-20-22-20Z" horiz-adv-x="285" vert-adv-y="1000"/><glyph glyph-name="unie1" unicode="á" d="M-2 86c-3.33-26.67-.17-48.17 9.5-64.5S32-3 52-3h33c18 0 33.67 6.67 47 20l-2-17h82l48 394c3.33 26.67-2.17 48.17-16.5 64.5S208.67 483 182 483h-45c-26.67 0-49.33-8.17-68-24.5S39.33 420.67 36 394l-8-67h82l7 57c2.67 15.33 10.33 23 23 23h20c6 0 10.67-2.33 14-7s4.33-10 3-16l-14-116c-10.67 14-24.67 21-42 21H88c-20 0-37-8.17-51-24.5S14.33 226.33 11 199Zm123 445h63l83 137h-87ZM98 73c-13.33 0-19.33 6.67-18 20l13 100c1.33 13.33 8.67 20 22 20h20c13.33 0 19.33-6.67 18-20L140 93c-1.33-13.33-8.67-20-22-20Z" horiz-adv-x="285" vert-adv-y="1000"/><glyph glyph-name="unie2" unicode="â" d="M-2 86c-3.33-26.67-.17-48.17 9.5-64.5S32-3 52-3h33c18 0 33.67 6.67 47 20l-2-17h82l48 394c3.33 26.67-2.17 48.17-16.5 64.5S208.67 483 182 483h-45c-26.67 0-49.33-8.17-68-24.5S39.33 420.67 36 394l-8-67h82l7 57c2.67 15.33 10.33 23 23 23h20c6 0 10.67-2.33 14-7s4.33-10 3-16l-14-116c-10.67 14-24.67 21-42 21H88c-20 0-37-8.17-51-24.5S14.33 226.33 11 199Zm79 444h59l38 76 20-76h58l-41 137h-60ZM98 73c-13.33 0-19.33 6.67-18 20l13 100c1.33 13.33 8.67 20 22 20h20c13.33 0 19.33-6.67 18-20L140 93c-1.33-13.33-8.67-20-22-20Z" horiz-adv-x="285" vert-adv-y="1000"/><glyph glyph-name="unie3" unicode="ã" d="M-2 86c-3.33-26.67-.17-48.17 9.5-64.5S32-3 52-3h33c18 0 33.67 6.67 47 20l-2-17h82l48 394c3.33 26.67-2.17 48.17-16.5 64.5S208.67 483 182 483h-45c-26.67 0-49.33-8.17-68-24.5S39.33 420.67 36 394l-8-67h82l7 57c2.67 15.33 10.33 23 23 23h20c6 0 10.67-2.33 14-7s4.33-10 3-16l-14-116c-10.67 14-24.67 21-42 21H88c-20 0-37-8.17-51-24.5S14.33 226.33 11 199Zm148 523c-20 0-36.33-6.83-49-20.5-12.67-13.67-20.67-31.83-24-54.5h53c2 15.33 7.67 23 17 23 3.33 0 10.17-4.33 20.5-13s22.5-13 36.5-13c20 0 36.67 6.83 50 20.5 13.33 13.67 21.67 31.83 25 54.5h-53c-2-16-8-24-18-24-3.33 0-10.17 4.5-20.5 13.5S160.67 609 146 609ZM98 73c-13.33 0-19.33 6.67-18 20l13 100c1.33 13.33 8.67 20 22 20h20c13.33 0 19.33-6.67 18-20L140 93c-1.33-13.33-8.67-20-22-20Z" horiz-adv-x="285" vert-adv-y="1000"/><glyph glyph-name="unie4" unicode="ä" d="M-2 86c-3.33-26.67-.17-48.17 9.5-64.5S32-3 52-3h33c18 0 33.67 6.67 47 20l-2-17h82l48 394c3.33 26.67-2.17 48.17-16.5 64.5S208.67 483 182 483h-45c-26.67 0-49.33-8.17-68-24.5S39.33 420.67 36 394l-8-67h82l7 57c2.67 15.33 10.33 23 23 23h20c6 0 10.67-2.33 14-7s4.33-10 3-16l-14-116c-10.67 14-24.67 21-42 21H88c-20 0-37-8.17-51-24.5S14.33 226.33 11 199ZM98 73c-13.33 0-19.33 6.67-18 20l13 100c1.33 13.33 8.67 20 22 20h20c13.33 0 19.33-6.67 18-20L140 93c-1.33-13.33-8.67-20-22-20ZM79 534h71l11 92H91Zm173 0 11 92h-70l-12-92Z" horiz-adv-x="285" vert-adv-y="1000"/><glyph glyph-name="unie5" unicode="å" d="M-2 86c-3.33-26.67-.17-48.17 9.5-64.5S32-3 52-3h33c18 0 33.67 6.67 47 20l-2-17h82l48 394c3.33 26.67-2.17 48.17-16.5 64.5S208.67 483 182 483h-45c-26.67 0-49.33-8.17-68-24.5S39.33 420.67 36 394l-8-67h82l7 57c2.67 15.33 10.33 23 23 23h20c6 0 10.67-2.33 14-7s4.33-10 3-16l-14-116c-10.67 14-24.67 21-42 21H88c-20 0-37-8.17-51-24.5S14.33 226.33 11 199Zm102 518c-2.67-21.33 2.17-39.17 14.5-53.5 12.33-14.33 29.17-21.5 50.5-21.5 20.67 0 39 7.17 55 21.5s25.33 32.17 28 53.5c2.67 20.67-2.33 38.17-15 52.5-12.67 14.33-29.33 21.5-50 21.5-21.33 0-39.83-7.17-55.5-21.5-15.67-14.33-24.83-31.83-27.5-52.5ZM98 73c-13.33 0-19.33 6.67-18 20l13 100c1.33 13.33 8.67 20 22 20h20c13.33 0 19.33-6.67 18-20L140 93c-1.33-13.33-8.67-20-22-20Zm73 504c-8 0-14.17 2.5-18.5 7.5S146.33 596 147 604c1.33 8 4.67 14.5 10 19.5s12 7.5 20 7.5 14.17-2.5 18.5-7.5 6.17-11.5 5.5-19.5c-1.33-8-4.67-14.5-10-19.5s-12-7.5-20-7.5Z" horiz-adv-x="285" vert-adv-y="1000"/><glyph glyph-name="unie6" unicode="æ" d="M-2 86c-3.33-26.67-.17-48.17 9.5-64.5S32-3 52-3h33c26.67 0 47.33 13.33 62 40 12-26.67 36-40 72-40h45c26.67 0 49.33 8.17 68 24.5s29.33 37.83 32 64.5l9 75h-82l-8-68c-1.33-13.33-8.67-20-22-20h-20c-13.33 0-19.33 6.67-18 20l14 113h142l23 188c3.33 26.67-2.17 48.17-16.5 64.5S350.67 483 324 483h-45c-19.33 0-36.33-4-51-12-12 8-27.33 12-46 12h-45c-26.67 0-49.33-8.17-68-24.5S39.33 420.67 36 394l-8-67h82l7 57c2.67 15.33 10.33 23 23 23h20c10 0 16-4.33 18-13l-15-126c-10.67 14-24.67 21-42 21H88c-20 0-37-8.17-51-24.5S14.33 226.33 11 199ZM98 73c-13.33 0-19.33 6.67-18 20l13 100c1.33 13.33 8.67 20 22 20h20c13.33 0 19.33-6.67 18-20L140 93c-1.33-13.33-8.67-20-22-20Zm148 203 14 111c1.33 13.33 8.67 20 22 20h20c13.33 0 19.33-6.67 18-20l-14-111Z" horiz-adv-x="425" vert-adv-y="1000"/><glyph glyph-name="unie7" unicode="ç" d="M76-3h4L59-80h35c2 8 5.67 12 11 12h6c6 0 8.33-4.67 7-14l-5-38c-1.33-6.67-4.67-10-10-10H93c-5.33 0-7.33 3.33-6 10l2 15H51l-2-13c-1.33-14.67 1.5-26.33 8.5-35 7-8.67 17.17-13 30.5-13h11c14 0 25.67 4 35 12 9.33 8 14.67 18.67 16 32l6 44c2 13.33.5 24-4.5 32S139.33-34 130-34h-12c-4.67 0-9-2.33-13-7l10 38h6c26.67 0 49.33 8.17 68 24.5s29.33 37.83 32 64.5l12 93h-82l-11-86c-1.33-13.33-8.67-20-22-20H98c-13.33 0-19.33 6.67-18 20l37 294c1.33 13.33 8.67 20 22 20h20c13.33 0 19.33-6.67 18-20l-11-86h82l11 93c3.33 26.67-2.17 48.17-16.5 64.5S207.67 483 181 483h-45c-26.67 0-49.33-8.17-68-24.5S38.33 420.67 35 394L-2 86C-5.33 59.33.17 37.83 14.5 21.5S49.33-3 76-3Z" horiz-adv-x="274" vert-adv-y="1000"/><glyph glyph-name="unie8" unicode="è" d="M76-3h45c26.67 0 49.33 8.17 68 24.5s29.33 37.83 32 64.5l9 75h-81l-9-68c-1.33-13.33-8.67-20-22-20H98c-13.33 0-19.33 6.67-18 20l14 113h142l23 188c3.33 26.67-2.17 48.17-16.5 64.5S207.67 483 181 483h-45c-26.67 0-49.33-8.17-68-24.5S38.33 420.67 35 394L-2 86C-5.33 59.33.17 37.83 14.5 21.5S49.33-3 76-3Zm19 671 48-137h64l-25 137Zm22-281c1.33 13.33 8.67 20 22 20h20c13.33 0 19.33-6.67 18-20l-14-111h-60Z" horiz-adv-x="282" vert-adv-y="1000"/><glyph glyph-name="unie9" unicode="é" d="M76-3h45c26.67 0 49.33 8.17 68 24.5s29.33 37.83 32 64.5l9 75h-81l-9-68c-1.33-13.33-8.67-20-22-20H98c-13.33 0-19.33 6.67-18 20l14 113h142l23 188c3.33 26.67-2.17 48.17-16.5 64.5S207.67 483 181 483h-45c-26.67 0-49.33-8.17-68-24.5S38.33 420.67 35 394L-2 86C-5.33 59.33.17 37.83 14.5 21.5S49.33-3 76-3Zm44 534h63l83 137h-87Zm-17-255 14 111c1.33 13.33 8.67 20 22 20h20c13.33 0 19.33-6.67 18-20l-14-111Z" horiz-adv-x="282" vert-adv-y="1000"/><glyph glyph-name="uniea" unicode="ê" d="M76-3h45c26.67 0 49.33 8.17 68 24.5s29.33 37.83 32 64.5l9 75h-81l-9-68c-1.33-13.33-8.67-20-22-20H98c-13.33 0-19.33 6.67-18 20l14 113h142l23 188c3.33 26.67-2.17 48.17-16.5 64.5S207.67 483 181 483h-45c-26.67 0-49.33-8.17-68-24.5S38.33 420.67 35 394L-2 86C-5.33 59.33.17 37.83 14.5 21.5S49.33-3 76-3Zm59 533 38 76 20-76h58l-41 137h-60L76 530Zm-32-254 14 111c1.33 13.33 8.67 20 22 20h20c13.33 0 19.33-6.67 18-20l-14-111Z" horiz-adv-x="282" vert-adv-y="1000"/><glyph glyph-name="unieb" unicode="ë" d="M76-3h45c26.67 0 49.33 8.17 68 24.5s29.33 37.83 32 64.5l9 75h-81l-9-68c-1.33-13.33-8.67-20-22-20H98c-13.33 0-19.33 6.67-18 20l14 113h142l23 188c3.33 26.67-2.17 48.17-16.5 64.5S207.67 483 181 483h-45c-26.67 0-49.33-8.17-68-24.5S38.33 420.67 35 394L-2 86C-5.33 59.33.17 37.83 14.5 21.5S49.33-3 76-3Zm27 279 14 111c1.33 13.33 8.67 20 22 20h20c13.33 0 19.33-6.67 18-20l-14-111ZM78 534h71l11 92H90Zm173 0 11 92h-70l-12-92Z" horiz-adv-x="282" vert-adv-y="1000"/><glyph glyph-name="uniec" unicode="ì" d="M-13 0h82l59 480H46Zm124 668H24l49-137h63Z" horiz-adv-x="142" vert-adv-y="1000"/><glyph glyph-name="unied" unicode="í" d="M-13 0h82l59 480H46Zm125 531 83 137h-87L49 531Z" horiz-adv-x="142" vert-adv-y="1000"/><glyph glyph-name="uniee" unicode="î" d="m69 0 59 480H46L-13 0ZM5 530h59l38 76 20-76h58l-41 137H80Z" horiz-adv-x="142" vert-adv-y="1000"/><glyph glyph-name="unief" unicode="ï" d="M-13 0h82l59 480H46Zm187 534 11 92h-67l-12-92Zm-161 0h68l12 92H25Z" horiz-adv-x="142" vert-adv-y="1000"/><glyph glyph-name="unif0" unicode="ð" d="M-2 86C-5.33 59.33.17 37.83 14.5 21.5S49.33-3 76-3h45c26.67 0 49.33 7.83 68 23.5S218.33 57 221 83l58 471c7.33 60-24.67 103.67-96 131h-1l26 54-35 13-26-54-64 25-9-80 39-16-27-56 35-13 26 55 14-5c27.33-11.33 39-31.33 35-60l-10-85c-8.67 13.33-24.33 20-47 20h-8c-24.67 0-46-8.17-64-24.5S38.33 420.67 35 394ZM98 73c-13.33 0-19.33 6.67-18 20l37 294c1.33 13.33 8.67 20 22 20h20c13.33 0 19.33-6.67 18-20L140 93c-1.33-13.33-8.67-20-22-20Z" horiz-adv-x="284" vert-adv-y="1000"/><glyph glyph-name="unif1" unicode="ñ" d="M-13 0h82l48 387v1c1.33 12.67 8.67 19 22 19h20c13.33 0 19.33-6.67 18-20L129 0h82l48 394c3.33 26.67.17 48.17-9.5 64.5S225 483 205 483h-33c-16.67 0-32-6.33-46-19l2 16H46Zm133 534c2 15.33 7.67 23 17 23 3.33 0 10.17-4.33 20.5-13s22.5-13 36.5-13c20 0 36.67 6.83 50 20.5 13.33 13.67 21.67 31.83 25 54.5h-53c-2-16-8-24-18-24-3.33 0-10.17 4.5-20.5 13.5S154.67 609 140 609c-20 0-36.33-6.83-49-20.5-12.67-13.67-20.67-31.83-24-54.5Z" horiz-adv-x="284" vert-adv-y="1000"/><glyph glyph-name="unif2" unicode="ò" d="M-2 86C-5.33 59.33.17 37.83 14.5 21.5S49.33-3 76-3h45c26.67 0 49.33 8.17 68 24.5s29.33 37.83 32 64.5l38 308c3.33 26.67-2.17 48.17-16.5 64.5S207.67 483 181 483h-45c-26.67 0-49.33-8.17-68-24.5S38.33 420.67 35 394ZM98 73c-13.33 0-19.33 6.67-18 20l37 294c1.33 13.33 8.67 20 22 20h20c13.33 0 19.33-6.67 18-20L140 93c-1.33-13.33-8.67-20-22-20Zm-3 595 48-137h64l-25 137Z" horiz-adv-x="284" vert-adv-y="1000"/><glyph glyph-name="unif3" unicode="ó" d="M-2 86C-5.33 59.33.17 37.83 14.5 21.5S49.33-3 76-3h45c26.67 0 49.33 8.17 68 24.5s29.33 37.83 32 64.5l38 308c3.33 26.67-2.17 48.17-16.5 64.5S207.67 483 181 483h-45c-26.67 0-49.33-8.17-68-24.5S38.33 420.67 35 394ZM98 73c-13.33 0-19.33 6.67-18 20l37 294c1.33 13.33 8.67 20 22 20h20c13.33 0 19.33-6.67 18-20L140 93c-1.33-13.33-8.67-20-22-20Zm22 458h63l83 137h-87Z" horiz-adv-x="284" vert-adv-y="1000"/><glyph glyph-name="unif4" unicode="ô" d="M-2 86C-5.33 59.33.17 37.83 14.5 21.5S49.33-3 76-3h45c26.67 0 49.33 8.17 68 24.5s29.33 37.83 32 64.5l38 308c3.33 26.67-2.17 48.17-16.5 64.5S207.67 483 181 483h-45c-26.67 0-49.33-8.17-68-24.5S38.33 420.67 35 394ZM98 73c-13.33 0-19.33 6.67-18 20l37 294c1.33 13.33 8.67 20 22 20h20c13.33 0 19.33-6.67 18-20L140 93c-1.33-13.33-8.67-20-22-20ZM76 530h59l38 76 20-76h58l-41 137h-60Z" horiz-adv-x="284" vert-adv-y="1000"/><glyph glyph-name="unif5" unicode="õ" d="M-2 86C-5.33 59.33.17 37.83 14.5 21.5S49.33-3 76-3h45c26.67 0 49.33 8.17 68 24.5s29.33 37.83 32 64.5l38 308c3.33 26.67-2.17 48.17-16.5 64.5S207.67 483 181 483h-45c-26.67 0-49.33-8.17-68-24.5S38.33 420.67 35 394ZM98 73c-13.33 0-19.33 6.67-18 20l37 294c1.33 13.33 8.67 20 22 20h20c13.33 0 19.33-6.67 18-20L140 93c-1.33-13.33-8.67-20-22-20Zm47 536c-20 0-36.33-6.83-49-20.5-12.67-13.67-20.67-31.83-24-54.5h53c2 15.33 7.67 23 17 23 3.33 0 10.17-4.33 20.5-13s22.5-13 36.5-13c20 0 36.67 6.83 50 20.5 13.33 13.67 21.67 31.83 25 54.5h-53c-2-16-8-24-18-24-3.33 0-10.17 4.5-20.5 13.5S159.67 609 145 609Z" horiz-adv-x="284" vert-adv-y="1000"/><glyph glyph-name="unif6" unicode="ö" d="M-2 86C-5.33 59.33.17 37.83 14.5 21.5S49.33-3 76-3h45c26.67 0 49.33 8.17 68 24.5s29.33 37.83 32 64.5l38 308c3.33 26.67-2.17 48.17-16.5 64.5S207.67 483 181 483h-45c-26.67 0-49.33-8.17-68-24.5S38.33 420.67 35 394ZM98 73c-13.33 0-19.33 6.67-18 20l37 294c1.33 13.33 8.67 20 22 20h20c13.33 0 19.33-6.67 18-20L140 93c-1.33-13.33-8.67-20-22-20ZM78 534h71l11 92H90Zm173 0 11 92h-70l-12-92Z" horiz-adv-x="284" vert-adv-y="1000"/><glyph glyph-name="unif7" unicode="÷" d="M254 315v70H30v-70ZM104 429h76v91h-76Zm0-248h76v90h-76Z" horiz-adv-x="284" vert-adv-y="1000"/><glyph glyph-name="unif8" unicode="ø" d="M33 7C44.33.33 58.67-3 76-3h45c26.67 0 49.33 8.17 68 24.5s29.33 37.83 32 64.5l38 308c2.67 24.67-2 45.33-14 62l12 24-21 9-9-18c-12 8-27.33 12-46 12h-45c-26.67 0-49.33-8.17-68-24.5S38.33 420.67 35 394L-2 86C-6 60.67-.67 39 14 21L5 0l21-9Zm58 177 26 203c1.33 13.33 8.67 20 22 20h20c13.33 0 19.33-6.67 18-20l-4-31Zm73 99L140 93c-1.33-13.33-8.67-20-22-20H98c-13.33 0-19.33 6.67-18 20l2 18Z" horiz-adv-x="284" vert-adv-y="1000"/><glyph glyph-name="unif9" unicode="ù" d="M-2 86c-3.33-26.67-.17-48.17 9.5-64.5S32-3 52-3h33c16.67 0 32 6.33 46 19l-2-16h82l59 480h-82L140 93v-1c-1.33-12.67-8.67-19-22-19H98c-13.33 0-19.33 6.67-18 20l48 387H46Zm145 445h64l-25 137H95Z" horiz-adv-x="284" vert-adv-y="1000"/><glyph glyph-name="unifa" unicode="ú" d="M-2 86c-3.33-26.67-.17-48.17 9.5-64.5S32-3 52-3h33c16.67 0 32 6.33 46 19l-2-16h82l59 480h-82L140 93v-1c-1.33-12.67-8.67-19-22-19H98c-13.33 0-19.33 6.67-18 20l48 387H46Zm122 445h63l83 137h-87Z" horiz-adv-x="284" vert-adv-y="1000"/><glyph glyph-name="unifb" unicode="û" d="M-2 86c-3.33-26.67-.17-48.17 9.5-64.5S32-3 52-3h33c16.67 0 32 6.33 46 19l-2-16h82l59 480h-82L140 93v-1c-1.33-12.67-8.67-19-22-19H98c-13.33 0-19.33 6.67-18 20l48 387H46Zm78 444h59l38 76 20-76h58l-41 137h-60Z" horiz-adv-x="284" vert-adv-y="1000"/><glyph glyph-name="unifc" unicode="ü" d="M-2 86c-3.33-26.67-.17-48.17 9.5-64.5S32-3 52-3h33c16.67 0 32 6.33 46 19l-2-16h82l59 480h-82L140 93v-1c-1.33-12.67-8.67-19-22-19H98c-13.33 0-19.33 6.67-18 20l48 387H46Zm80 448h71l11 92H90Zm102 0h71l11 92h-70Z" horiz-adv-x="284" vert-adv-y="1000"/><glyph glyph-name="unifd" unicode="ý" d="M10-190c55.33 0 92.67 34.33 112 103l152 567h-80l-81-326c-4-14.67-8.33-39-13-73h-2c3.33 24.67 5 49 5 73l1 326H23L37 0h34L52-81c-2.67-10-8.33-18-17-24s-18.33-9-29-9h-19l-8-76Zm98 721h63l83 137h-87Z" horiz-adv-x="265" vert-adv-y="1000"/><glyph glyph-name="unife" unicode="þ" d="M46-190 71 17C81 3.67 95-3 113-3h32c20 0 37 8.17 51 24.5s22.67 37.83 26 64.5l38 308c3.33 26.67.17 48.17-9.5 64.5S226 483 206 483h-33c-18.67 0-34.67-7-48-21l32 258H75L-36-190ZM99 73c-13.33 0-19.33 6.67-18 20l37 294c1.33 13.33 8.67 20 22 20h20c13.33 0 19.33-6.67 18-20L141 93c-1.33-13.33-8.67-20-22-20Z" horiz-adv-x="285" vert-adv-y="1000"/><glyph glyph-name="uniff" unicode="ÿ" d="M10-190c55.33 0 92.67 34.33 112 103l152 567h-80l-81-326c-4-14.67-8.33-39-13-73h-2c3.33 24.67 5 49 5 73l1 326H23L37 0h34L52-81c-2.67-10-8.33-18-17-24s-18.33-9-29-9h-19l-8-76Zm56 724h71l11 92H78Zm102 0h71l11 92h-70Z" horiz-adv-x="265" vert-adv-y="1000"/><glyph glyph-name="uni0100" unicode="Ā" d="m46 0 37 162h81L161 0h82l5 700H131L-36 0Zm239 757 9 69H117l-8-69ZM164 518c6 32 9.67 56.33 11 73h2c-3.33-36.67-5-61-5-73l-6-281h-66Z" horiz-adv-x="293" vert-adv-y="1000"/><glyph glyph-name="uni0101" unicode="ā" d="M-2 86c-3.33-26.67-.17-48.17 9.5-64.5S32-3 52-3h33c18 0 33.67 6.67 47 20l-2-17h82l48 394c3.33 26.67-2.17 48.17-16.5 64.5S208.67 483 182 483h-45c-26.67 0-49.33-8.17-68-24.5S39.33 420.67 36 394l-8-67h82l7 57c2.67 15.33 10.33 23 23 23h20c6 0 10.67-2.33 14-7s4.33-10 3-16l-14-116c-10.67 14-24.67 21-42 21H88c-20 0-37-8.17-51-24.5S14.33 226.33 11 199Zm256 451 9 69H86l-8-69ZM98 73c-13.33 0-19.33 6.67-18 20l13 100c1.33 13.33 8.67 20 22 20h20c13.33 0 19.33-6.67 18-20L140 93c-1.33-13.33-8.67-20-22-20Z" horiz-adv-x="285" vert-adv-y="1000"/><glyph glyph-name="uni0102" unicode="Ă" d="m46 0 37 162h81L161 0h82l5 700H131L-36 0Zm68 828c-2.67-22 1.83-39.67 13.5-53 11.67-13.33 28.83-20 51.5-20h36c22.67 0 41.33 6.67 56 20 14.67 13.33 23.33 31 26 53l4 32h-65l-3-31c-2-11.33-9-17-21-17h-18c-12 0-17.33 5.67-16 17l4 31h-65Zm50-310c6 32 9.67 56.33 11 73h2c-3.33-36.67-5-61-5-73l-6-281h-66Z" horiz-adv-x="293" vert-adv-y="1000"/><glyph glyph-name="uni0103" unicode="ă" d="M-2 86c-3.33-26.67-.17-48.17 9.5-64.5S32-3 52-3h33c18 0 33.67 6.67 47 20l-2-17h82l48 394c3.33 26.67-2.17 48.17-16.5 64.5S208.67 483 182 483h-45c-26.67 0-49.33-8.17-68-24.5S39.33 420.67 36 394l-8-67h82l7 57c2.67 15.33 10.33 23 23 23h20c6 0 10.67-2.33 14-7s4.33-10 3-16l-14-116c-10.67 14-24.67 21-42 21H88c-20 0-37-8.17-51-24.5S14.33 226.33 11 199Zm85 522c-2.67-22 1.83-39.67 13.5-53 11.67-13.33 28.83-20 51.5-20h36c22.67 0 41.33 6.67 56 20 14.67 13.33 23.33 31 26 53l4 32h-65l-3-31c-2-11.33-9-17-21-17h-18c-12 0-17.33 5.67-16 17l4 31H87ZM98 73c-13.33 0-19.33 6.67-18 20l13 100c1.33 13.33 8.67 20 22 20h20c13.33 0 19.33-6.67 18-20L140 93c-1.33-13.33-8.67-20-22-20Z" horiz-adv-x="285" vert-adv-y="1000"/><glyph glyph-name="uni0104" unicode="Ą" d="m46 0 37 162h81L161 0h21l-26-34c-12.67-17.33-20-35.33-22-54-2.67-18 1.5-32.67 12.5-44 11-11.33 26.17-17 45.5-17h55l6 50-40-1c-10 0-17.83 2.33-23.5 7-5.67 4.67-8.17 10.67-7.5 18 1.33 9.33 6.33 20 15 32l33 43h13l5 700H131L-36 0Zm118 518c6 32 9.67 56.33 11 73h2c-3.33-36.67-5-61-5-73l-6-281h-66Z" horiz-adv-x="293" vert-adv-y="1000"/><glyph glyph-name="uni0105" unicode="ą" d="M-2 86c-3.33-26.67-.17-48.17 9.5-64.5S32-3 52-3h33c18 0 33.67 6.67 47 20l-2-17h13l-26-34c-12.67-17.33-20-35.33-22-54-2.67-18 1.5-32.67 12.5-44 11-11.33 26.17-17 45.5-17h55l7 50-41-1c-10 0-17.83 2.33-23.5 7-5.67 4.67-8.17 10.67-7.5 18 1.33 9.33 6.33 20 15 32l33 43h21l48 394c3.33 26.67-2.17 48.17-16.5 64.5S208.67 483 182 483h-45c-26.67 0-49.33-8.17-68-24.5S39.33 420.67 36 394l-8-67h82l7 57c2.67 15.33 10.33 23 23 23h20c6 0 10.67-2.33 14-7s4.33-10 3-16l-14-116c-10.67 14-24.67 21-42 21H88c-20 0-37-8.17-51-24.5S14.33 226.33 11 199ZM98 73c-13.33 0-19.33 6.67-18 20l13 100c1.33 13.33 8.67 20 22 20h20c13.33 0 19.33-6.67 18-20L140 93c-1.33-13.33-8.67-20-22-20Z" horiz-adv-x="285" vert-adv-y="1000"/><glyph glyph-name="uni0106" unicode="Ć" d="M87-3h55c28.67 0 53 8.83 73 26.5s31.33 40.83 34 69.5l17 131h-89L163 99c-2-13.33-9.67-20-23-20h-30c-13.33 0-19 6.67-17 20l61 502c2 13.33 9.67 20 23 20h30c13.33 0 19-6.67 17-20l-16-129h88l17 135c3.33 29.33-2.67 52.67-18 70s-37.33 26-66 26h-55c-28.67 0-52.83-8.83-72.5-26.5S70.33 635.67 67 607L3 93C-.33 64.33 5.67 41.17 21 23.5S58.33-3 87-3Zm76 754h63l83 137h-87Z" horiz-adv-x="311" vert-adv-y="1000"/><glyph glyph-name="uni0107" unicode="ć" d="M76-3h45c26.67 0 49.33 8.17 68 24.5s29.33 37.83 32 64.5l12 93h-82l-11-86c-1.33-13.33-8.67-20-22-20H98c-13.33 0-19.33 6.67-18 20l37 294c1.33 13.33 8.67 20 22 20h20c13.33 0 19.33-6.67 18-20l-11-86h82l11 93c3.33 26.67-2.17 48.17-16.5 64.5S207.67 483 181 483h-45c-26.67 0-49.33-8.17-68-24.5S38.33 420.67 35 394L-2 86C-5.33 59.33.17 37.83 14.5 21.5S49.33-3 76-3Zm44 534h63l83 137h-87Z" horiz-adv-x="274" vert-adv-y="1000"/><glyph glyph-name="uni0108" unicode="Ĉ" d="M87-3h55c28.67 0 53 8.83 73 26.5s31.33 40.83 34 69.5l17 131h-89L163 99c-2-13.33-9.67-20-23-20h-30c-13.33 0-19 6.67-17 20l61 502c2 13.33 9.67 20 23 20h30c13.33 0 19-6.67 17-20l-16-129h88l17 135c3.33 29.33-2.67 52.67-18 70s-37.33 26-66 26h-55c-28.67 0-52.83-8.83-72.5-26.5S70.33 635.67 67 607L3 93C-.33 64.33 5.67 41.17 21 23.5S58.33-3 87-3Zm91 753 38 76 20-76h58l-41 137h-59l-74-137Z" horiz-adv-x="311" vert-adv-y="1000"/><glyph glyph-name="uni0109" unicode="ĉ" d="M76-3h45c26.67 0 49.33 8.17 68 24.5s29.33 37.83 32 64.5l12 93h-82l-11-86c-1.33-13.33-8.67-20-22-20H98c-13.33 0-19.33 6.67-18 20l37 294c1.33 13.33 8.67 20 22 20h20c13.33 0 19.33-6.67 18-20l-11-86h82l11 93c3.33 26.67-2.17 48.17-16.5 64.5S207.67 483 181 483h-45c-26.67 0-49.33-8.17-68-24.5S38.33 420.67 35 394L-2 86C-5.33 59.33.17 37.83 14.5 21.5S49.33-3 76-3Zm59 533 38 76 20-76h58l-41 137h-60L76 530Z" horiz-adv-x="274" vert-adv-y="1000"/><glyph glyph-name="uni010A" unicode="Ċ" d="M87-3h55c28.67 0 53 8.83 73 26.5s31.33 40.83 34 69.5l17 131h-89L163 99c-2-13.33-9.67-20-23-20h-30c-13.33 0-19 6.67-17 20l61 502c2 13.33 9.67 20 23 20h30c13.33 0 19-6.67 17-20l-16-129h88l17 135c3.33 29.33-2.67 52.67-18 70s-37.33 26-66 26h-55c-28.67 0-52.83-8.83-72.5-26.5S70.33 635.67 67 607L3 93C-.33 64.33 5.67 41.17 21 23.5S58.33-3 87-3Zm161 757 13 103h-81l-13-103Z" horiz-adv-x="311" vert-adv-y="1000"/><glyph glyph-name="uni010B" unicode="ċ" d="M76-3h45c26.67 0 49.33 8.17 68 24.5s29.33 37.83 32 64.5l12 93h-82l-11-86c-1.33-13.33-8.67-20-22-20H98c-13.33 0-19.33 6.67-18 20l37 294c1.33 13.33 8.67 20 22 20h20c13.33 0 19.33-6.67 18-20l-11-86h82l11 93c3.33 26.67-2.17 48.17-16.5 64.5S207.67 483 181 483h-45c-26.67 0-49.33-8.17-68-24.5S38.33 420.67 35 394L-2 86C-5.33 59.33.17 37.83 14.5 21.5S49.33-3 76-3Zm129 537 13 103h-82l-13-103Z" horiz-adv-x="274" vert-adv-y="1000"/><glyph glyph-name="uni010C" unicode="Č" d="M87-3h55c28.67 0 53 8.83 73 26.5s31.33 40.83 34 69.5l17 131h-89L163 99c-2-13.33-9.67-20-23-20h-30c-13.33 0-19 6.67-17 20l61 502c2 13.33 9.67 20 23 20h30c13.33 0 19-6.67 17-20l-16-129h88l17 135c3.33 29.33-2.67 52.67-18 70s-37.33 26-66 26h-55c-28.67 0-52.83-8.83-72.5-26.5S70.33 635.67 67 607L3 93C-.33 64.33 5.67 41.17 21 23.5S58.33-3 87-3Zm49 890 41-137h60l74 137h-58l-39-76-20 76Z" horiz-adv-x="311" vert-adv-y="1000"/><glyph glyph-name="uni010D" unicode="č" d="M76-3h45c26.67 0 49.33 8.17 68 24.5s29.33 37.83 32 64.5l12 93h-82l-11-86c-1.33-13.33-8.67-20-22-20H98c-13.33 0-19.33 6.67-18 20l37 294c1.33 13.33 8.67 20 22 20h20c13.33 0 19.33-6.67 18-20l-11-86h82l11 93c3.33 26.67-2.17 48.17-16.5 64.5S207.67 483 181 483h-45c-26.67 0-49.33-8.17-68-24.5S38.33 420.67 35 394L-2 86C-5.33 59.33.17 37.83 14.5 21.5S49.33-3 76-3Zm58 533h59l75 137h-59l-38-76-20 76H93Z" horiz-adv-x="274" vert-adv-y="1000"/><glyph glyph-name="uni010E" unicode="Ď" d="M-8 0h150c29.33 0 53.83 8.83 73.5 26.5S246.67 67.33 250 96l62 508c4 28.67-1.67 51.83-17 69.5S257.33 700 228 700H78Zm97 76 68 548h50c13.33 0 19-6.67 17-20L162 96c-1.33-13.33-8.67-20-22-20Zm32 811 41-137h59l74 137h-58l-38-76-20 76Z" horiz-adv-x="316" vert-adv-y="1000"/><glyph glyph-name="uni010F" unicode="ď" d="M-2 86c-3.33-26.67-.17-48.17 9.5-64.5S32-3 52-3h33c18 0 33.67 6.67 47 20l-2-17h82l88 720h-82l-31-257c-10 13.33-24 20-42 20h-33c-20 0-37-8.17-51-24.5S38.33 420.67 35 394ZM98 73c-13.33 0-19.33 6.67-18 20l37 294c1.33 13.33 8.67 20 22 20h20c13.33 0 19.33-6.67 18-20L140 93c-1.33-13.33-8.67-20-22-20Zm246 521 53 126h-65l-36-126Z" horiz-adv-x="352" vert-adv-y="1000"/><glyph glyph-name="uni0110" unicode="Đ" d="M142 0c29.33 0 53.83 8.83 73.5 26.5S246.67 67.33 250 96l62 508c4 28.67-1.67 51.83-17 69.5S257.33 700 228 700H78L38 372H6l-6-44h32L-8 0Zm18 328 6 44h-40l31 252h50c13.33 0 19-6.67 17-20L162 96c-1.33-13.33-8.67-20-22-20H89l31 252Z" horiz-adv-x="316" vert-adv-y="1000"/><glyph glyph-name="uni0111" unicode="đ" d="M-21 86c-3.33-26.67 0-48.17 10-64.5S14-3 34-3h32c19.33 0 35 6.67 47 20l-2-17h82l75 610h27l5 39h-27l8 71h-82l-8-71h-84l-5-39h84l-18-146c-10.67 12.67-24.33 19-41 19H94c-20 0-37-8.17-51-24.5S20.33 420.67 17 394ZM79 73c-13.33 0-19 6.67-17 20l36 294c2 13.33 9.67 20 23 20h20c13.33 0 19-6.67 17-20L122 93c-2-13.33-9.67-20-23-20Z" horiz-adv-x="266" vert-adv-y="1000"/><glyph glyph-name="uni0112" unicode="Ē" d="M-8 0h192l9 76H89l29 236h96l9 76h-95l29 236h103l10 76H78Zm278 757 8 69H102l-9-69Z" horiz-adv-x="250" vert-adv-y="1000"/><glyph glyph-name="uni0113" unicode="ē" d="M76-3h45c26.67 0 49.33 8.17 68 24.5s29.33 37.83 32 64.5l9 75h-81l-9-68c-1.33-13.33-8.67-20-22-20H98c-13.33 0-19.33 6.67-18 20l14 113h142l23 188c3.33 26.67-2.17 48.17-16.5 64.5S207.67 483 181 483h-45c-26.67 0-49.33-8.17-68-24.5S38.33 420.67 35 394L-2 86C-5.33 59.33.17 37.83 14.5 21.5S49.33-3 76-3Zm177 540 9 69H85l-8-69ZM117 387c1.33 13.33 8.67 20 22 20h20c13.33 0 19.33-6.67 18-20l-14-111h-60Z" horiz-adv-x="282" vert-adv-y="1000"/><glyph glyph-name="uni0114" unicode="Ĕ" d="M-8 0h192l9 76H89l29 236h96l9 76h-95l29 236h103l10 76H78ZM98 828c-2.67-22 2-39.67 14-53 12-13.33 29-20 51-20h37c22 0 40.33 6.67 55 20 14.67 13.33 23.67 31 27 53l3 32h-64l-4-31c-1.33-11.33-8-17-20-17h-18c-12 0-17.33 5.67-16 17l4 31h-65Z" horiz-adv-x="250" vert-adv-y="1000"/><glyph glyph-name="uni0115" unicode="ĕ" d="M76-3h45c26.67 0 49.33 8.17 68 24.5s29.33 37.83 32 64.5l9 75h-81l-9-68c-1.33-13.33-8.67-20-22-20H98c-13.33 0-19.33 6.67-18 20l14 113h142l23 188c3.33 26.67-2.17 48.17-16.5 64.5S207.67 483 181 483h-45c-26.67 0-49.33-8.17-68-24.5S38.33 420.67 35 394L-2 86C-5.33 59.33.17 37.83 14.5 21.5S49.33-3 76-3Zm71 538h36c22.67 0 41.33 6.67 56 20 14.67 13.33 23.33 31 26 53l4 32h-65l-3-31c-2-11.33-9-17-21-17h-18c-12 0-17.33 5.67-16 17l4 31H86l-4-32c-2.67-22 1.83-39.67 13.5-53 11.67-13.33 28.83-20 51.5-20Zm-30-148c1.33 13.33 8.67 20 22 20h20c13.33 0 19.33-6.67 18-20l-14-111h-60Z" horiz-adv-x="282" vert-adv-y="1000"/><glyph glyph-name="uni0116" unicode="Ė" d="m184 0 9 76H89l29 236h96l9 76h-95l29 236h103l10 76H78L-8 0Zm38 754 13 103h-82l-13-103Z" horiz-adv-x="250" vert-adv-y="1000"/><glyph glyph-name="uni0117" unicode="ė" d="M76-3h45c26.67 0 49.33 8.17 68 24.5s29.33 37.83 32 64.5l9 75h-81l-9-68c-1.33-13.33-8.67-20-22-20H98c-13.33 0-19.33 6.67-18 20l14 113h142l23 188c3.33 26.67-2.17 48.17-16.5 64.5S207.67 483 181 483h-45c-26.67 0-49.33-8.17-68-24.5S38.33 420.67 35 394L-2 86C-5.33 59.33.17 37.83 14.5 21.5S49.33-3 76-3Zm47 537h82l13 103h-82Zm-20-258 14 111c1.33 13.33 8.67 20 22 20h20c13.33 0 19.33-6.67 18-20l-14-111Z" horiz-adv-x="282" vert-adv-y="1000"/><glyph glyph-name="uni0118" unicode="Ę" d="M-8 0h119L85-34C71-52.67 63.67-70.67 63-88c-2.67-18 1.33-32.67 12-44 10.67-11.33 26-17 46-17h55l6 50-41-1c-10 0-17.83 2.33-23.5 7-5.67 4.67-7.83 10.67-6.5 18 1.33 9.33 6.33 20 15 32l32 43h26l9 76H89l29 236h96l9 76h-95l29 236h103l10 76H78Z" horiz-adv-x="250" vert-adv-y="1000"/><glyph glyph-name="uni0119" unicode="ę" d="M76-3h11L64-34C50-52.67 42.67-70.67 42-88c-2.67-18 1.33-32.67 12-44 10.67-11.33 25.67-17 45-17h56l6 50-41-1c-10 0-17.83 2.33-23.5 7-5.67 4.67-7.83 10.67-6.5 18 1.33 10.67 6.33 21.33 15 32l31 41c23.33 3.33 42.67 12.83 58 28.5C209.33 42.17 218.33 62 221 86l9 75h-81l-9-68c-1.33-13.33-8.67-20-22-20H98c-13.33 0-19.33 6.67-18 20l14 113h142l23 188c3.33 26.67-2.17 48.17-16.5 64.5S207.67 483 181 483h-45c-26.67 0-49.33-8.17-68-24.5S38.33 420.67 35 394L-2 86C-5.33 59.33.17 37.83 14.5 21.5S49.33-3 76-3Zm41 390c1.33 13.33 8.67 20 22 20h20c13.33 0 19.33-6.67 18-20l-14-111h-60Z" horiz-adv-x="282" vert-adv-y="1000"/><glyph glyph-name="uni011A" unicode="Ě" d="M-8 0h192l9 76H89l29 236h96l9 76h-95l29 236h103l10 76H78Zm118 887 40-137h60l74 137h-58l-38-76-20 76Z" horiz-adv-x="250" vert-adv-y="1000"/><glyph glyph-name="uni011B" unicode="ě" d="M76-3h45c26.67 0 49.33 8.17 68 24.5s29.33 37.83 32 64.5l9 75h-81l-9-68c-1.33-13.33-8.67-20-22-20H98c-13.33 0-19.33 6.67-18 20l14 113h142l23 188c3.33 26.67-2.17 48.17-16.5 64.5S207.67 483 181 483h-45c-26.67 0-49.33-8.17-68-24.5S38.33 420.67 35 394L-2 86C-5.33 59.33.17 37.83 14.5 21.5S49.33-3 76-3Zm58 533h59l75 137h-59l-38-76-20 76H93Zm-31-254 14 111c1.33 13.33 8.67 20 22 20h20c13.33 0 19.33-6.67 18-20l-14-111Z" horiz-adv-x="282" vert-adv-y="1000"/><glyph glyph-name="uni011C" unicode="Ĝ" d="M87-3h55c28.67 0 53 8.83 73 26.5s31.33 40.83 34 69.5l34 276H153l-8-75h42L163 99c-2-13.33-9.67-20-23-20h-30c-13.33 0-19 6.67-17 20l61 502c2 13.33 9.67 20 23 20h30c13.33 0 19-6.67 17-20l-16-129h88l17 135c3.33 29.33-2.67 52.67-18 70s-37.33 26-66 26h-55c-28.67 0-52.83-8.83-72.5-26.5S70.33 635.67 67 607L3 93C-.33 64.33 5.67 41.17 21 23.5S58.33-3 87-3Zm91 753 38 76 20-76h58l-41 137h-59l-74-137Z" horiz-adv-x="311" vert-adv-y="1000"/><glyph glyph-name="uni011D" unicode="ĝ" d="M-24-104c-3.33-26.67 2.33-48.17 17-64.5S28.33-193 55-193h44c26.67 0 49.33 8.17 68 24.5s29.33 37.83 32 64.5l72 584h-82l-2-17c-10 13.33-24 20-42 20h-33c-20 0-37-8.17-51-24.5S38.33 420.67 35 394L-2 86c-3.33-26.67-.17-48.17 9.5-64.5S32-3 52-3h33c18.67 0 34.33 7 47 21L118-97c-1.33-13.33-8.67-20-22-20H77c-13.33 0-19.33 6.67-18 20l6 49h-82ZM98 73c-13.33 0-19.33 6.67-18 20l37 294c1.33 13.33 8.67 20 22 20h20c13.33 0 19.33-6.67 18-20L140 93c-1.33-13.33-8.67-20-22-20ZM77 530h59l38 76 20-76h58l-41 137h-60Z" horiz-adv-x="285" vert-adv-y="1000"/><glyph glyph-name="uni011E" unicode="Ğ" d="M87-3h55c28.67 0 53 8.83 73 26.5s31.33 40.83 34 69.5l34 276H153l-8-75h42L163 99c-2-13.33-9.67-20-23-20h-30c-13.33 0-19 6.67-17 20l61 502c2 13.33 9.67 20 23 20h30c13.33 0 19-6.67 17-20l-16-129h88l17 135c3.33 29.33-2.67 52.67-18 70s-37.33 26-66 26h-55c-28.67 0-52.83-8.83-72.5-26.5S70.33 635.67 67 607L3 93C-.33 64.33 5.67 41.17 21 23.5S58.33-3 87-3Zm103 758h36c22.67 0 41.33 6.67 56 20 14.67 13.33 23.67 31 27 53l3 32h-64l-4-31c-1.33-11.33-8.33-17-21-17h-18c-12 0-17 5.67-15 17l3 31h-64l-4-32c-2.67-22 1.83-39.67 13.5-53 11.67-13.33 28.83-20 51.5-20Z" horiz-adv-x="311" vert-adv-y="1000"/><glyph glyph-name="uni011F" unicode="ğ" d="M-24-104c-3.33-26.67 2.33-48.17 17-64.5S28.33-193 55-193h44c26.67 0 49.33 8.17 68 24.5s29.33 37.83 32 64.5l72 584h-82l-2-17c-10 13.33-24 20-42 20h-33c-20 0-37-8.17-51-24.5S38.33 420.67 35 394L-2 86c-3.33-26.67-.17-48.17 9.5-64.5S32-3 52-3h33c18.67 0 34.33 7 47 21L118-97c-1.33-13.33-8.67-20-22-20H77c-13.33 0-19.33 6.67-18 20l6 49h-82ZM98 73c-13.33 0-19.33 6.67-18 20l37 294c1.33 13.33 8.67 20 22 20h20c13.33 0 19.33-6.67 18-20L140 93c-1.33-13.33-8.67-20-22-20ZM83 608c-2.67-22 1.83-39.67 13.5-53 11.67-13.33 28.83-20 51.5-20h36c22.67 0 41.33 6.67 56 20 14.67 13.33 23.33 31 26 53l4 32h-65l-3-31c-2-11.33-9-17-21-17h-18c-12 0-17.33 5.67-16 17l4 31H87Z" horiz-adv-x="285" vert-adv-y="1000"/><glyph glyph-name="uni0120" unicode="Ġ" d="M87-3h55c28.67 0 53 8.83 73 26.5s31.33 40.83 34 69.5l34 276H153l-8-75h42L163 99c-2-13.33-9.67-20-23-20h-30c-13.33 0-19 6.67-17 20l61 502c2 13.33 9.67 20 23 20h30c13.33 0 19-6.67 17-20l-16-129h88l17 135c3.33 29.33-2.67 52.67-18 70s-37.33 26-66 26h-55c-28.67 0-52.83-8.83-72.5-26.5S70.33 635.67 67 607L3 93C-.33 64.33 5.67 41.17 21 23.5S58.33-3 87-3Zm80 757h81l13 103h-81Z" horiz-adv-x="311" vert-adv-y="1000"/><glyph glyph-name="uni0121" unicode="ġ" d="M-24-104c-3.33-26.67 2.33-48.17 17-64.5S28.33-193 55-193h44c26.67 0 49.33 8.17 68 24.5s29.33 37.83 32 64.5l72 584h-82l-2-17c-10 13.33-24 20-42 20h-33c-20 0-37-8.17-51-24.5S38.33 420.67 35 394L-2 86c-3.33-26.67-.17-48.17 9.5-64.5S32-3 52-3h33c18.67 0 34.33 7 47 21L118-97c-1.33-13.33-8.67-20-22-20H77c-13.33 0-19.33 6.67-18 20l6 49h-82ZM98 73c-13.33 0-19.33 6.67-18 20l37 294c1.33 13.33 8.67 20 22 20h20c13.33 0 19.33-6.67 18-20L140 93c-1.33-13.33-8.67-20-22-20Zm108 461 13 103h-82l-13-103Z" horiz-adv-x="285" vert-adv-y="1000"/><glyph glyph-name="uni0122" unicode="Ģ" d="M87-3h55c28.67 0 53 8.83 73 26.5s31.33 40.83 34 69.5l34 276H153l-8-75h42L163 99c-2-13.33-9.67-20-23-20h-30c-13.33 0-19 6.67-17 20l61 502c2 13.33 9.67 20 23 20h30c13.33 0 19-6.67 17-20l-16-129h88l17 135c3.33 29.33-2.67 52.67-18 70s-37.33 26-66 26h-55c-28.67 0-52.83-8.83-72.5-26.5S70.33 635.67 67 607L3 93C-.33 64.33 5.67 41.17 21 23.5S58.33-3 87-3ZM46-169h48l54 126H82Z" horiz-adv-x="311" vert-adv-y="1000"/><glyph glyph-name="uni0123" unicode="ģ" d="M-24-104c-3.33-26.67 2.33-48.17 17-64.5S28.33-193 55-193h44c26.67 0 49.33 8.17 68 24.5s29.33 37.83 32 64.5l72 584h-82l-2-17c-10 13.33-24 20-42 20h-33c-20 0-37-8.17-51-24.5S38.33 420.67 35 394L-2 86c-3.33-26.67-.17-48.17 9.5-64.5S32-3 52-3h33c18.67 0 34.33 7 47 21L118-97c-1.33-13.33-8.67-20-22-20H77c-13.33 0-19.33 6.67-18 20l6 49h-82ZM98 73c-13.33 0-19.33 6.67-18 20l37 294c1.33 13.33 8.67 20 22 20h20c13.33 0 19.33-6.67 18-20L140 93c-1.33-13.33-8.67-20-22-20Zm95 461 37 126h-49l-54-126Z" horiz-adv-x="285" vert-adv-y="1000"/><glyph glyph-name="uni0124" unicode="Ĥ" d="M-8 0h88l38 312h70L150 0h88l86 700h-88l-38-312h-70l38 312H78Zm186 750 38 76 20-76h58l-41 137h-59l-74-137Z" horiz-adv-x="316" vert-adv-y="1000"/><glyph glyph-name="uni0125" unicode="ĥ" d="m69 0 48 387v1c1.33 12.67 8.67 19 22 19h20c13.33 0 19.33-6.67 18-20L129 0h82l48 394c3.33 26.67.17 48.17-9.5 64.5S225 483 205 483h-33c-16.67 0-32-6.33-46-19l31 256H75L-13 0Zm15 750 39 76 20-76h58l-41 137h-60L26 750Z" horiz-adv-x="284" vert-adv-y="1000"/><glyph glyph-name="uni0126" unicode="Ħ" d="m80 0 38 312h70L150 0h88l72 581h29l6 45h-30l9 74h-88l-9-74h-70l9 74H78l-9-74H39l-6-45h30L-8 0Zm142 581-24-193h-70l24 193Z" horiz-adv-x="316" vert-adv-y="1000"/><glyph glyph-name="uni0127" unicode="ħ" d="M-13 0h82l48 387v1c1.33 12.67 8.67 19 22 19h20c13.33 0 19.33-6.67 18-20L129 0h82l48 394c3.33 26.67.17 48.17-9.5 64.5S225 483 205 483h-33c-16.67 0-32-6.33-46-19l18 146h85l5 39h-86l9 71H75l-9-71H40l-5-39h27Z" horiz-adv-x="284" vert-adv-y="1000"/><glyph glyph-name="uni0128" unicode="Ĩ" d="M-8 0h88l86 700H78Zm97 754c2 15.33 7.67 23 17 23 3.33 0 10.33-4.33 21-13s23-13 37-13c20 0 36.5 6.83 49.5 20.5s21.17 31.83 24.5 54.5h-53c-2-16-8-24-18-24-3.33 0-10.17 4.5-20.5 13.5S123.67 829 109 829c-19.33 0-35.5-6.83-48.5-20.5S39.33 776.67 36 754Z" horiz-adv-x="158" vert-adv-y="1000"/><glyph glyph-name="uni0129" unicode="ĩ" d="m69 0 59 480H46L-13 0ZM53 534c1.33 15.33 7 23 17 23 2.67 0 9.17-4.33 19.5-13s22.5-13 36.5-13c19.33 0 35.33 6.83 48 20.5 12.67 13.67 20.67 31.83 24 54.5h-53c-2-16-8-24-18-24-2 0-8.33 4.5-19 13.5S85 609 71 609c-19.33 0-35.33-6.83-48-20.5C10.33 574.83 2.67 556.67 0 534Z" horiz-adv-x="142" vert-adv-y="1000"/><glyph glyph-name="uni012A" unicode="Ī" d="M-8 0h88l86 700H78Zm49 757h176l9 69H49Z" horiz-adv-x="158" vert-adv-y="1000"/><glyph glyph-name="uni012B" unicode="ī" d="M-13 0h82l59 480H46Zm24 537h166l9 69H19Z" horiz-adv-x="142" vert-adv-y="1000"/><glyph glyph-name="uni012C" unicode="Ĭ" d="M-8 0h88l86 700H78Zm54 828c-2.67-22 1.83-39.67 13.5-53 11.67-13.33 28.83-20 51.5-20h36c22.67 0 41.33 6.67 56 20 14.67 13.33 23.33 31 26 53l4 32h-64l-4-31c-1.33-11.33-8.33-17-21-17h-18c-12 0-17 5.67-15 17l3 31H50Z" horiz-adv-x="158" vert-adv-y="1000"/><glyph glyph-name="uni012D" unicode="ĭ" d="M-13 0h82l59 480H46Zm26 608c-2.67-22 1.83-39.67 13.5-53 11.67-13.33 28.83-20 51.5-20h32c22.67 0 41.33 6.67 56 20 14.67 13.33 23.67 31 27 53l3 32h-64l-4-31c-1.33-11.33-8.33-17-21-17H93c-12 0-17.33 5.67-16 17l4 31H16Z" horiz-adv-x="142" vert-adv-y="1000"/><glyph glyph-name="uni012E" unicode="Į" d="M-32-88c-2-18 2.33-32.67 13-44 10.67-11.33 25.67-17 45-17h55l7 50-41-1c-10 0-17.83 2.33-23.5 7-5.67 4.67-8.17 10.67-7.5 18 1.33 9.33 6.33 20 15 32L64 0h16l86 700H78L-8 0h24l-26-34c-12.67-17.33-20-35.33-22-54Z" horiz-adv-x="158" vert-adv-y="1000"/><glyph glyph-name="uni012F" unicode="į" d="M-43-88c-2-18 2.33-32.67 13-44 10.67-11.33 25.67-17 45-17h55l7 50-41-1c-10 0-17.83 2.33-23.5 7C6.83-88.33 4.33-82.33 5-75c1.33 9.33 6.33 20 15 32L53 0h16l59 480H46L-13 0H5l-26-34c-12.67-17.33-20-35.33-22-54Zm183 666 13 103H71L58 578Z" horiz-adv-x="142" vert-adv-y="1000"/><glyph glyph-name="uni0130" unicode="İ" d="M-8 0h88l86 700H78Zm96 754h81l13 103h-82Z" horiz-adv-x="158" vert-adv-y="1000"/><glyph glyph-name="uni0131" unicode="ı" d="M-13 0h82l59 480H46Z" horiz-adv-x="142" vert-adv-y="1000"/><glyph glyph-name="uni0132" unicode="Ĳ" d="M-2 93C-5.33 64.33.67 41.17 16 23.5S53.33-3 82-3h55c28.67 0 53 8.83 73 26.5s31.33 40.83 34 69.5l75 607h-88L158 99c-2-13.33-9.67-20-23-20h-30c-13.33 0-19 6.67-17 20l13 114H13Zm27 220h88l48 387H73Z" horiz-adv-x="311" vert-adv-y="1000"/><glyph glyph-name="uni0133" unicode="ĳ" d="M27-190h57c31.33 0 57.67 9.5 79 28.5s33.67 43.83 37 74.5l70 567h-82L119-81c-.67-10-4.67-18-12-24s-16-9-26-9H36ZM69 0l59 480H46L-13 0Zm213 578 13 103h-82l-13-103Zm-142 0 13 103H71L58 578Z" horiz-adv-x="284" vert-adv-y="1000"/><glyph glyph-name="uni0134" unicode="Ĵ" d="M-17 93c-3.33-28.67 2.67-51.83 18-69.5S38.33-3 67-3h55c28.67 0 53 8.83 73 26.5s31.33 40.83 34 69.5l75 607h-88L143 99c-2-13.33-9.67-20-23-20H90c-13.33 0-19 6.67-17 20l13 114H-2Zm252 657 38 76 20-76h58l-41 137h-60l-74-137Z" horiz-adv-x="296" vert-adv-y="1000"/><glyph glyph-name="uni0135" unicode="ĵ" d="M-94-190h37c31.33 0 57.5 9.5 78.5 28.5S54.67-117.67 58-87l70 567H46L-23-81c-.67-10-4.67-18-12-24s-16-9-26-9h-25ZM59 530l39 76 19-76h59l-41 137H75L1 530Z" horiz-adv-x="142" vert-adv-y="1000"/><glyph glyph-name="uni0136" unicode="Ķ" d="M-8 0h88l36 291L153 0h85l-55 361 136 339h-85L133 430l33 270H78ZM93-169l54 126H81L45-169Z" horiz-adv-x="286" vert-adv-y="1000"/><glyph glyph-name="uni0137" unicode="ķ" d="M-13 0h82l24 194L140 0h85l-64 245 120 235h-85l-91-185 52 425H75Zm97-169 54 126H72L36-169Z" horiz-adv-x="273" vert-adv-y="1000"/><glyph glyph-name="uni0139" unicode="Ĺ" d="M-8 0h192l9 76H89l77 624H78Zm158 751 82 137h-87L86 751Z" horiz-adv-x="237" vert-adv-y="1000"/><glyph glyph-name="uni013A" unicode="ĺ" d="M-13 0h82l88 720H75Zm152 751 83 137h-87L76 751Z" horiz-adv-x="142" vert-adv-y="1000"/><glyph glyph-name="uni013B" unicode="Ļ" d="M-8 0h192l9 76H89l77 624H78Zm26-169h48l54 126H54Z" horiz-adv-x="237" vert-adv-y="1000"/><glyph glyph-name="uni013C" unicode="ļ" d="M-13 0h82l88 720H75Zm-29-169H6L60-43H-6Z" horiz-adv-x="142" vert-adv-y="1000"/><glyph glyph-name="uni013D" unicode="Ľ" d="M-8 0h192l9 76H89l77 624H78Zm228 562 53 138h-63l-35-138Z" horiz-adv-x="237" vert-adv-y="1000"/><glyph glyph-name="uni013E" unicode="ľ" d="M-13 0h82l88 720H75Zm215 594 53 126h-66l-36-126Z" horiz-adv-x="210" vert-adv-y="1000"/><glyph glyph-name="uni013F" unicode="Ŀ" d="M-8 0h192l9 76H89l77 624H78Zm227 298 13 104h-63l-13-104Z" horiz-adv-x="237" vert-adv-y="1000"/><glyph glyph-name="uni0140" unicode="ŀ" d="M-13 0h82l88 720H75Zm175 298h82l13 104h-82Z" horiz-adv-x="278" vert-adv-y="1000"/><glyph glyph-name="uni0141" unicode="Ł" d="m184 0 9 76H89l38 307 94 51-15 33-73-40 33 273H78L38 376 1 356l15-33 17 9L-8 0Z" horiz-adv-x="237" vert-adv-y="1000"/><glyph glyph-name="uni0142" unicode="ł" d="m-5 354 16-33 32 17L1 0h82l47 386 53 28-15 33-32-18 35 291H89L48 382Z" horiz-adv-x="170" vert-adv-y="1000"/><glyph glyph-name="uni0143" unicode="Ń" d="M-8 0h85l45 364c2 22 3 46 3 72l2 1c0-29.33 1.33-53.33 4-72L155 0h85l86 700h-85l-45-366c-2.67-29.33-4-53.67-4-73l-2-1c0 26.67-1 51-3 73l-24 367H78Zm172 751h64l82 137h-87Z" horiz-adv-x="318" vert-adv-y="1000"/><glyph glyph-name="uni0144" unicode="ń" d="m69 0 48 387v1c1.33 12.67 8.67 19 22 19h20c13.33 0 19.33-6.67 18-20L129 0h82l48 394c3.33 26.67.17 48.17-9.5 64.5S225 483 205 483h-33c-16.67 0-32-6.33-46-19l2 16H46L-13 0Zm46 531h63l83 137h-87Z" horiz-adv-x="284" vert-adv-y="1000"/><glyph glyph-name="uni0145" unicode="Ņ" d="m77 0 45 364c2 22 3 46 3 72l2 1c0-29.33 1.33-53.33 4-72L155 0h85l86 700h-85l-45-366c-2.67-29.33-4-53.67-4-73l-2-1c0 26.67-1 51-3 73l-24 367H78L-8 0Zm17-169 54 126H82L46-169Z" horiz-adv-x="318" vert-adv-y="1000"/><glyph glyph-name="uni0146" unicode="ņ" d="M-13 0h82l48 387v1c1.33 12.67 8.67 19 22 19h20c13.33 0 19.33-6.67 18-20L129 0h82l48 394c3.33 26.67.17 48.17-9.5 64.5S225 483 205 483h-33c-16.67 0-32-6.33-46-19l2 16H46Zm42-169h48l54 126H65Z" horiz-adv-x="284" vert-adv-y="1000"/><glyph glyph-name="uni0147" unicode="Ň" d="M-8 0h85l45 364c2 22 3 46 3 72l2 1c0-29.33 1.33-53.33 4-72L155 0h85l86 700h-85l-45-366c-2.67-29.33-4-53.67-4-73l-2-1c0 26.67-1 51-3 73l-24 367H78Zm145 887 41-137h60l74 137h-58l-38-76-20 76Z" horiz-adv-x="318" vert-adv-y="1000"/><glyph glyph-name="uni0148" unicode="ň" d="M-13 0h82l48 387v1c1.33 12.67 8.67 19 22 19h20c13.33 0 19.33-6.67 18-20L129 0h82l48 394c3.33 26.67.17 48.17-9.5 64.5S225 483 205 483h-33c-16.67 0-32-6.33-46-19l2 16H46ZM88 667l41-137h60l74 137h-59l-38-76-20 76Z" horiz-adv-x="284" vert-adv-y="1000"/><glyph glyph-name="uni014A" unicode="Ŋ" d="m77 0 45 364c2 22 3 46 3 72l2 1c0-29.33 1.33-53.33 4-72L155 3l-12-94c-1.33-13.33-8.67-20-22-20H72l-10-82h59c28.67 0 52.83 8.83 72.5 26.5S224.67-125.67 228-97l98 797h-85l-45-366c-2.67-29.33-4-53.67-4-73l-2-1c0 26.67-1 51-3 73l-24 367H78L-8 0Z" horiz-adv-x="318" vert-adv-y="1000"/><glyph glyph-name="uni014B" unicode="ŋ" d="m69 0 48 387v1c1.33 12.67 8.67 19 22 19h20c13.33 0 19.33-6.67 18-20L119-81c-.67-10-4.67-18-12-24s-16-9-26-9H60l-9-76h33c31.33 0 57.67 9.5 79 28.5s33.67 43.83 37 74.5l59 481c3.33 26.67.17 48.17-9.5 64.5S225 483 205 483h-33c-16.67 0-32-6.33-46-19l2 16H46L-13 0Z" horiz-adv-x="284" vert-adv-y="1000"/><glyph glyph-name="uni014C" unicode="Ō" d="M3 93C-.33 64.33 5.67 41.17 21 23.5S58.33-3 87-3h55c28.67 0 53 8.83 73 26.5s31.33 40.83 34 69.5l64 514c3.33 29.33-2.67 52.67-18 70s-37.33 26-66 26h-55c-28.67 0-52.83-8.83-72.5-26.5S70.33 635.67 67 607Zm107-14c-13.33 0-19 6.67-17 20l61 502c2 13.33 9.67 20 23 20h30c13.33 0 19-6.67 17-20L163 99c-2-13.33-9.67-20-23-20Zm10 678h176l9 69H128Z" horiz-adv-x="316" vert-adv-y="1000"/><glyph glyph-name="uni014D" unicode="ō" d="M-2 86C-5.33 59.33.17 37.83 14.5 21.5S49.33-3 76-3h45c26.67 0 49.33 8.17 68 24.5s29.33 37.83 32 64.5l38 308c3.33 26.67-2.17 48.17-16.5 64.5S207.67 483 181 483h-45c-26.67 0-49.33-8.17-68-24.5S38.33 420.67 35 394ZM98 73c-13.33 0-19.33 6.67-18 20l37 294c1.33 13.33 8.67 20 22 20h20c13.33 0 19.33-6.67 18-20L140 93c-1.33-13.33-8.67-20-22-20Zm155 464 9 69H85l-8-69Z" horiz-adv-x="284" vert-adv-y="1000"/><glyph glyph-name="uni014E" unicode="Ŏ" d="M3 93C-.33 64.33 5.67 41.17 21 23.5S58.33-3 87-3h55c28.67 0 53 8.83 73 26.5s31.33 40.83 34 69.5l64 514c3.33 29.33-2.67 52.67-18 70s-37.33 26-66 26h-55c-28.67 0-52.83-8.83-72.5-26.5S70.33 635.67 67 607Zm107-14c-13.33 0-19 6.67-17 20l61 502c2 13.33 9.67 20 23 20h30c13.33 0 19-6.67 17-20L163 99c-2-13.33-9.67-20-23-20Zm15 749c-2.67-22 1.83-39.67 13.5-53 11.67-13.33 28.83-20 51.5-20h36c22.67 0 41.33 6.67 56 20 14.67 13.33 23.67 31 27 53l3 32h-64l-4-31c-1.33-11.33-8.33-17-21-17h-18c-12 0-17 5.67-15 17l3 31h-64Z" horiz-adv-x="316" vert-adv-y="1000"/><glyph glyph-name="uni014F" unicode="ŏ" d="M-2 86C-5.33 59.33.17 37.83 14.5 21.5S49.33-3 76-3h45c26.67 0 49.33 8.17 68 24.5s29.33 37.83 32 64.5l38 308c3.33 26.67-2.17 48.17-16.5 64.5S207.67 483 181 483h-45c-26.67 0-49.33-8.17-68-24.5S38.33 420.67 35 394ZM98 73c-13.33 0-19.33 6.67-18 20l37 294c1.33 13.33 8.67 20 22 20h20c13.33 0 19.33-6.67 18-20L140 93c-1.33-13.33-8.67-20-22-20ZM82 608c-2.67-22 1.83-39.67 13.5-53 11.67-13.33 28.83-20 51.5-20h36c22.67 0 41.33 6.67 56 20 14.67 13.33 23.33 31 26 53l4 32h-65l-3-31c-2-11.33-9-17-21-17h-18c-12 0-17.33 5.67-16 17l4 31H86Z" horiz-adv-x="284" vert-adv-y="1000"/><glyph glyph-name="uni0150" unicode="Ő" d="M3 93C-.33 64.33 5.67 41.17 21 23.5S58.33-3 87-3h55c28.67 0 53 8.83 73 26.5s31.33 40.83 34 69.5l64 514c3.33 29.33-2.67 52.67-18 70s-37.33 26-66 26h-55c-28.67 0-52.83-8.83-72.5-26.5S70.33 635.67 67 607Zm107-14c-13.33 0-19 6.67-17 20l61 502c2 13.33 9.67 20 23 20h30c13.33 0 19-6.67 17-20L163 99c-2-13.33-9.67-20-23-20Zm152 672 71 137h-61l-59-137Zm-132 0h49l71 137h-61Z" horiz-adv-x="316" vert-adv-y="1000"/><glyph glyph-name="uni0151" unicode="ő" d="M-2 86C-5.33 59.33.17 37.83 14.5 21.5S49.33-3 76-3h45c26.67 0 49.33 8.17 68 24.5s29.33 37.83 32 64.5l38 308c3.33 26.67-2.17 48.17-16.5 64.5S207.67 483 181 483h-45c-26.67 0-49.33-8.17-68-24.5S38.33 420.67 35 394ZM98 73c-13.33 0-19.33 6.67-18 20l37 294c1.33 13.33 8.67 20 22 20h20c13.33 0 19.33-6.67 18-20L140 93c-1.33-13.33-8.67-20-22-20Zm37 458 72 137h-61L87 531Zm83 0 72 137h-61l-59-137Z" horiz-adv-x="284" vert-adv-y="1000"/><glyph glyph-name="uni0152" unicode="Œ" d="M3 93c-3.33-28.67.83-51.83 12.5-69.5S44.33-3 67-3h43c23.33 0 44 7.33 62 22l-3-19h167l9 76H241l29 236h96l9 76h-95l29 236h103l10 76H255l-2-19c-13.33 14.67-32 22-56 22h-43c-22.67 0-42-8.83-58-26.5S70.33 635.67 67 607Zm107-14c-13.33 0-19 6.67-17 20l61 502c2 13.33 9.67 20 23 20h30c13.33 0 19-6.67 17-20L163 99c-2-13.33-9.67-20-23-20Z" horiz-adv-x="402" vert-adv-y="1000"/><glyph glyph-name="uni0153" unicode="œ" d="M-2 86C-5.33 59.33-.33 37.83 13 21.5S45.67-3 71-3h42c22.67 0 42.33 6.67 59 20 13.33-13.33 31.33-20 54-20h42c25.33 0 46.83 8.17 64.5 24.5S360.33 59.33 363 86l9 75h-82l-8-68c-1.33-13.33-8.67-20-22-20h-20c-13.33 0-19.33 6.67-18 20l14 113h142l23 188c3.33 26.67-1.67 48.17-15 64.5S353.33 483 328 483h-42c-22.67 0-42.33-6.67-59-20-13.33 13.33-31.33 20-54 20h-42c-25.33 0-46.83-8.17-64.5-24.5S38.33 420.67 35 394ZM98 73c-13.33 0-19.33 6.67-18 20l37 294c1.33 13.33 8.67 20 22 20h20c13.33 0 19.33-6.67 18-20L140 93c-1.33-13.33-8.67-20-22-20Zm147 203 14 111c1.33 13.33 8.67 20 22 20h20c13.33 0 19.33-6.67 18-20l-14-111Z" horiz-adv-x="424" vert-adv-y="1000"/><glyph glyph-name="uni0154" unicode="Ŕ" d="m80 0 37 302h32L168 0h82l-20 314c32.67 16 51.67 44 57 84l25 206c4 28.67-1.67 51.83-17 69.5S257.33 700 228 700H78L-8 0Zm77 624h50c13.33 0 19-6.67 17-20l-25-206c-1.33-13.33-8.67-20-22-20h-50Zm-21 127h64l83 137h-88Z" horiz-adv-x="305" vert-adv-y="1000"/><glyph glyph-name="uni0155" unicode="ŕ" d="M-13 0h82l45 367c1.33 12 7.17 21.67 17.5 29 10.33 7.33 23.17 11 38.5 11h40l9 76h-32c-24.67 0-45.33-10-62-30l3 27H46Zm164 531 83 137h-88L87 531Z" horiz-adv-x="211" vert-adv-y="1000"/><glyph glyph-name="uni0156" unicode="Ŗ" d="m80 0 37 302h32L168 0h82l-20 314c32.67 16 51.67 44 57 84l25 206c4 28.67-1.67 51.83-17 69.5S257.33 700 228 700H78L-8 0Zm77 624h50c13.33 0 19-6.67 17-20l-25-206c-1.33-13.33-8.67-20-22-20h-50ZM51-169h48l54 126H87Z" horiz-adv-x="305" vert-adv-y="1000"/><glyph glyph-name="uni0157" unicode="ŗ" d="m69 0 45 367c1.33 12 7.17 21.67 17.5 29 10.33 7.33 23.17 11 38.5 11h40l9 76h-32c-24.67 0-45.33-10-62-30l3 27H46L-13 0ZM-44-169H5L59-43H-7Z" horiz-adv-x="211" vert-adv-y="1000"/><glyph glyph-name="uni0158" unicode="Ř" d="M-8 0h88l37 302h32L168 0h82l-20 314c32.67 16 51.67 44 57 84l25 206c4 28.67-1.67 51.83-17 69.5S257.33 700 228 700H78Zm165 624h50c13.33 0 19-6.67 17-20l-25-206c-1.33-13.33-8.67-20-22-20h-50Zm-47 263 41-137h59l74 137h-58l-38-76-20 76Z" horiz-adv-x="305" vert-adv-y="1000"/><glyph glyph-name="uni0159" unicode="ř" d="M-13 0h82l45 367c1.33 12 7.17 21.67 17.5 29 10.33 7.33 23.17 11 38.5 11h40l9 76h-32c-24.67 0-45.33-10-62-30l3 27H46Zm74 667 41-137h59l74 137h-58l-38-76-20 76Z" horiz-adv-x="211" vert-adv-y="1000"/><glyph glyph-name="uni015A" unicode="Ś" d="M77-3h55c28.67 0 53 8.83 73 26.5s31.33 40.83 34 69.5l19 148c2 16.67-.17 33.5-6.5 50.5S236 322 224 332l-87 112c-8 6.67-11 15.33-9 26l16 131c2 13.33 9.67 20 23 20h30c13.33 0 19-6.67 17-20l-16-129h88l17 135c3.33 29.33-2.67 52.67-18 70s-37.33 26-66 26h-55c-28.67 0-52.83-8.83-72.5-26.5S60.33 635.67 57 607L40 473c-2-17.33 0-34.33 6-51s15.33-30 28-40l87-112c7.33-7.33 10.33-16 9-26L153 99c-2-13.33-9.67-20-23-20h-30c-13.33 0-19 6.67-17 20l15 130H10L-7 93c-3.33-28.67 2.67-51.83 18-69.5S48.33-3 77-3Zm139 754 83 137h-87l-59-137Z" horiz-adv-x="296" vert-adv-y="1000"/><glyph glyph-name="uni015B" unicode="ś" d="M74-3h45c26.67 0 49.33 8.17 68 24.5s29.33 37.83 32 64.5l13 106c2 15.33-.5 29.5-7.5 42.5S207.33 256.67 194 262l-78 36c-10 4.67-14.33 12.33-13 23l9 66c1.33 13.33 8.67 20 22 20h20c13.33 0 19.33-6.67 18-20l-8-64h81l9 71c3.33 26.67-2.17 48.17-16.5 64.5S202.67 483 176 483h-45c-26.67 0-49.33-8.17-68-24.5S33.33 420.67 30 394l-11-89c-1.33-15.33 1.5-29.5 8.5-42.5S44.67 240.33 58 235l79-37c9.33-4.67 13.33-12.33 12-23l-11-82c-1.33-13.33-8.67-20-22-20H96c-13.33 0-19.33 6.67-18 20l9 68H5l-9-75c-3.33-26.67 2.17-48.17 16.5-64.5S47.33-3 74-3Zm42 534h64l83 137h-88Z" horiz-adv-x="272" vert-adv-y="1000"/><glyph glyph-name="uni015C" unicode="Ŝ" d="M77-3h55c28.67 0 53 8.83 73 26.5s31.33 40.83 34 69.5l19 148c2 16.67-.17 33.5-6.5 50.5S236 322 224 332l-87 112c-8 6.67-11 15.33-9 26l16 131c2 13.33 9.67 20 23 20h30c13.33 0 19-6.67 17-20l-16-129h88l17 135c3.33 29.33-2.67 52.67-18 70s-37.33 26-66 26h-55c-28.67 0-52.83-8.83-72.5-26.5S60.33 635.67 57 607L40 473c-2-17.33 0-34.33 6-51s15.33-30 28-40l87-112c7.33-7.33 10.33-16 9-26L153 99c-2-13.33-9.67-20-23-20h-30c-13.33 0-19 6.67-17 20l15 130H10L-7 93c-3.33-28.67 2.67-51.83 18-69.5S48.33-3 77-3Zm91 753 38 76 20-76h58l-41 137h-59l-74-137Z" horiz-adv-x="296" vert-adv-y="1000"/><glyph glyph-name="uni015D" unicode="ŝ" d="M74-3h45c26.67 0 49.33 8.17 68 24.5s29.33 37.83 32 64.5l13 106c2 15.33-.5 29.5-7.5 42.5S207.33 256.67 194 262l-78 36c-10 4.67-14.33 12.33-13 23l9 66c1.33 13.33 8.67 20 22 20h20c13.33 0 19.33-6.67 18-20l-8-64h81l9 71c3.33 26.67-2.17 48.17-16.5 64.5S202.67 483 176 483h-45c-26.67 0-49.33-8.17-68-24.5S33.33 420.67 30 394l-11-89c-1.33-15.33 1.5-29.5 8.5-42.5S44.67 240.33 58 235l79-37c9.33-4.67 13.33-12.33 12-23l-11-82c-1.33-13.33-8.67-20-22-20H96c-13.33 0-19.33 6.67-18 20l9 68H5l-9-75c-3.33-26.67 2.17-48.17 16.5-64.5S47.33-3 74-3Zm57 533 39 76 19-76h59l-41 137h-60L73 530Z" horiz-adv-x="272" vert-adv-y="1000"/><glyph glyph-name="uni015E" unicode="Ş" d="M77-3h10L66-80h34c2 8 5.67 12 11 12h6c6 0 8.33-4.67 7-14l-5-38c-1.33-6.67-4.67-10-10-10H99c-5.33 0-7.33 3.33-6 10l2 15H57l-2-13c-1.33-14.67 1.5-26.33 8.5-35 7-8.67 17.17-13 30.5-13h11c14 0 25.67 4 35 12 9.33 8 15 18.67 17 32l6 44c1.33 13.33-.5 24-5.5 32S145.33-34 136-34h-12c-4.67 0-9-2.33-13-7l10 38h11c28.67 0 53 8.83 73 26.5s31.33 40.83 34 69.5l19 148c2 16.67-.17 33.5-6.5 50.5S236 322 224 332l-87 112c-8 6.67-11 15.33-9 26l16 131c2 13.33 9.67 20 23 20h30c13.33 0 19-6.67 17-20l-16-129h88l17 135c3.33 29.33-2.67 52.67-18 70s-37.33 26-66 26h-55c-28.67 0-52.83-8.83-72.5-26.5S60.33 635.67 57 607L40 473c-2-17.33 0-34.33 6-51s15.33-30 28-40l87-112c7.33-7.33 10.33-16 9-26L153 99c-2-13.33-9.67-20-23-20h-30c-13.33 0-19 6.67-17 20l15 130H10L-7 93c-3.33-28.67 2.67-51.83 18-69.5S48.33-3 77-3Z" horiz-adv-x="296" vert-adv-y="1000"/><glyph glyph-name="uni015F" unicode="ş" d="M74-3h3L56-80h35c2 8 5.33 12 10 12h6c6.67 0 9.33-4.67 8-14l-5-38c-1.33-6.67-5-10-11-10H89c-5.33 0-7.33 3.33-6 10l2 15H48l-2-13c-2-14.67.5-26.33 7.5-35 7-8.67 17.17-13 30.5-13h12c14 0 25.67 4 35 12 9.33 8 14.67 18.67 16 32l6 44c2 13.33.5 24-4.5 32S136-34 126-34h-11c-4.67 0-9-2.33-13-7l10 38h7c26.67 0 49.33 8.17 68 24.5s29.33 37.83 32 64.5l13 106c2 15.33-.5 29.5-7.5 42.5S207.33 256.67 194 262l-78 36c-10 4.67-14.33 12.33-13 23l9 66c1.33 13.33 8.67 20 22 20h20c13.33 0 19.33-6.67 18-20l-8-64h81l9 71c3.33 26.67-2.17 48.17-16.5 64.5S202.67 483 176 483h-45c-26.67 0-49.33-8.17-68-24.5S33.33 420.67 30 394l-11-89c-1.33-15.33 1.5-29.5 8.5-42.5S44.67 240.33 58 235l79-37c9.33-4.67 13.33-12.33 12-23l-11-82c-1.33-13.33-8.67-20-22-20H96c-13.33 0-19.33 6.67-18 20l9 68H5l-9-75c-3.33-26.67 2.17-48.17 16.5-64.5S47.33-3 74-3Z" horiz-adv-x="272" vert-adv-y="1000"/><glyph glyph-name="uni0160" unicode="Š" d="M77-3h55c28.67 0 53 8.83 73 26.5s31.33 40.83 34 69.5l19 148c2 16.67-.17 33.5-6.5 50.5S236 322 224 332l-87 112c-8 6.67-11 15.33-9 26l16 131c2 13.33 9.67 20 23 20h30c13.33 0 19-6.67 17-20l-16-129h88l17 135c3.33 29.33-2.67 52.67-18 70s-37.33 26-66 26h-55c-28.67 0-52.83-8.83-72.5-26.5S60.33 635.67 57 607L40 473c-2-17.33 0-34.33 6-51s15.33-30 28-40l87-112c7.33-7.33 10.33-16 9-26L153 99c-2-13.33-9.67-20-23-20h-30c-13.33 0-19 6.67-17 20l15 130H10L-7 93c-3.33-28.67 2.67-51.83 18-69.5S48.33-3 77-3Zm49 890 41-137h60l74 137h-58l-39-76-20 76Z" horiz-adv-x="296" vert-adv-y="1000"/><glyph glyph-name="uni0161" unicode="š" d="M74-3h45c26.67 0 49.33 8.17 68 24.5s29.33 37.83 32 64.5l13 106c2 15.33-.5 29.5-7.5 42.5S207.33 256.67 194 262l-78 36c-10 4.67-14.33 12.33-13 23l9 66c1.33 13.33 8.67 20 22 20h20c13.33 0 19.33-6.67 18-20l-8-64h81l9 71c3.33 26.67-2.17 48.17-16.5 64.5S202.67 483 176 483h-45c-26.67 0-49.33-8.17-68-24.5S33.33 420.67 30 394l-11-89c-1.33-15.33 1.5-29.5 8.5-42.5S44.67 240.33 58 235l79-37c9.33-4.67 13.33-12.33 12-23l-11-82c-1.33-13.33-8.67-20-22-20H96c-13.33 0-19.33 6.67-18 20l9 68H5l-9-75c-3.33-26.67 2.17-48.17 16.5-64.5S47.33-3 74-3Zm16 670 41-137h59l74 137h-58l-38-76-20 76Z" horiz-adv-x="272" vert-adv-y="1000"/><glyph glyph-name="uni0162" unicode="Ţ" d="m282 624 9 76H48l-9-76h77L39 0h89l76 624ZM13-169h49l53 126H50Z" horiz-adv-x="253" vert-adv-y="1000"/><glyph glyph-name="uni0163" unicode="ţ" d="M13 411h47L22 97c-3.33-29.33 2.83-52.83 18.5-70.5S78.33 0 107 0h52l10 76h-40c-18 0-26 9-24 27l37 308h68l8 69h-67l12 100H81L69 480H21Zm62-580 54 126H63L27-169Z" horiz-adv-x="215" vert-adv-y="1000"/><glyph glyph-name="uni0164" unicode="Ť" d="m282 624 9 76H48l-9-76h77L39 0h89l76 624ZM105 887l40-137h60l74 137h-58l-38-76-20 76Z" horiz-adv-x="253" vert-adv-y="1000"/><glyph glyph-name="uni0165" unicode="ť" d="M13 411h47L22 97c-3.33-29.33 2.83-52.83 18.5-70.5S78.33 0 107 0h52l10 76h-40c-18 0-26 9-24 27l37 308h68l8 69h-67l12 100H81L69 480H21Zm208 123 54 126h-66l-36-126Z" horiz-adv-x="228" vert-adv-y="1000"/><glyph glyph-name="uni0166" unicode="Ŧ" d="M24 435h69L39 0h89l53 435h70l5 45h-70l18 144h78l9 76H48l-9-76h77L98 480H29Z" horiz-adv-x="253" vert-adv-y="1000"/><glyph glyph-name="uni0167" unicode="ŧ" d="M-4 278h48L22 97c-3.33-29.33 2.83-52.83 18.5-70.5S78.33 0 107 0h52l10 76h-40c-18 0-26 9-24 27l21 175h68l5 39h-68l11 94h68l8 69h-67l12 100H81L69 480H21l-8-69h47l-11-94H1Z" horiz-adv-x="215" vert-adv-y="1000"/><glyph glyph-name="uni0168" unicode="Ũ" d="M3 93C-.33 64.33 5.67 41.17 21 23.5S58.33-3 87-3h55c28.67 0 53 8.83 73 26.5s31.33 40.83 34 69.5l75 607h-88L163 99c-2-13.33-9.67-20-23-20h-30c-13.33 0-19 6.67-17 20l73 601H78Zm185 736c-19.33 0-35.5-6.83-48.5-20.5S118.33 776.67 115 754h53c2 15.33 7.67 23 17 23 3.33 0 10.33-4.33 21-13s23-13 37-13c20 0 36.5 6.83 49.5 20.5s21.17 31.83 24.5 54.5h-53c-2-16-8-24-18-24-3.33 0-10.17 4.5-20.5 13.5S202.67 829 188 829Z" horiz-adv-x="316" vert-adv-y="1000"/><glyph glyph-name="uni0169" unicode="ũ" d="M-2 86c-3.33-26.67-.17-48.17 9.5-64.5S32-3 52-3h33c16.67 0 32 6.33 46 19l-2-16h82l59 480h-82L140 93v-1c-1.33-12.67-8.67-19-22-19H98c-13.33 0-19.33 6.67-18 20l48 387H46Zm147 523c-20 0-36.33-6.83-49-20.5-12.67-13.67-20.67-31.83-24-54.5h53c2 15.33 7.67 23 17 23 3.33 0 10.17-4.33 20.5-13s22.5-13 36.5-13c20 0 36.67 6.83 50 20.5 13.33 13.67 21.67 31.83 25 54.5h-53c-2-16-8-24-18-24-3.33 0-10.17 4.5-20.5 13.5S159.67 609 145 609Z" horiz-adv-x="284" vert-adv-y="1000"/><glyph glyph-name="uni016A" unicode="Ū" d="M3 93C-.33 64.33 5.67 41.17 21 23.5S58.33-3 87-3h55c28.67 0 53 8.83 73 26.5s31.33 40.83 34 69.5l75 607h-88L163 99c-2-13.33-9.67-20-23-20h-30c-13.33 0-19 6.67-17 20l73 601H78Zm117 664h176l9 69H128Z" horiz-adv-x="316" vert-adv-y="1000"/><glyph glyph-name="uni016B" unicode="ū" d="M-2 86c-3.33-26.67-.17-48.17 9.5-64.5S32-3 52-3h33c16.67 0 32 6.33 46 19l-2-16h82l59 480h-82L140 93v-1c-1.33-12.67-8.67-19-22-19H98c-13.33 0-19.33 6.67-18 20l48 387H46Zm79 451h176l9 69H85Z" horiz-adv-x="284" vert-adv-y="1000"/><glyph glyph-name="uni016C" unicode="Ŭ" d="M3 93C-.33 64.33 5.67 41.17 21 23.5S58.33-3 87-3h55c28.67 0 53 8.83 73 26.5s31.33 40.83 34 69.5l75 607h-88L163 99c-2-13.33-9.67-20-23-20h-30c-13.33 0-19 6.67-17 20l73 601H78Zm122 735c-2.67-22 1.83-39.67 13.5-53 11.67-13.33 28.83-20 51.5-20h36c22.67 0 41.33 6.67 56 20 14.67 13.33 23.67 31 27 53l3 32h-64l-4-31c-1.33-11.33-8.33-17-21-17h-18c-12 0-17 5.67-15 17l3 31h-64Z" horiz-adv-x="316" vert-adv-y="1000"/><glyph glyph-name="uni016D" unicode="ŭ" d="M-2 86c-3.33-26.67-.17-48.17 9.5-64.5S32-3 52-3h33c16.67 0 32 6.33 46 19l-2-16h82l59 480h-82L140 93v-1c-1.33-12.67-8.67-19-22-19H98c-13.33 0-19.33 6.67-18 20l48 387H46Zm84 522c-2.67-22 1.83-39.67 13.5-53 11.67-13.33 28.83-20 51.5-20h36c22.67 0 41.33 6.67 56 20 14.67 13.33 23.33 31 26 53l4 32h-65l-3-31c-2-11.33-9-17-21-17h-18c-12 0-17.33 5.67-16 17l4 31H86Z" horiz-adv-x="284" vert-adv-y="1000"/><glyph glyph-name="uni016E" unicode="Ů" d="M3 93C-.33 64.33 5.67 41.17 21 23.5S58.33-3 87-3h55c28.67 0 53 8.83 73 26.5s31.33 40.83 34 69.5l75 607h-88L163 99c-2-13.33-9.67-20-23-20h-30c-13.33 0-19 6.67-17 20l73 601H78Zm139 731c-2.67-21.33 2.17-39.17 14.5-53.5 12.33-14.33 29.17-21.5 50.5-21.5 20.67 0 39.17 7.17 55.5 21.5S288 802.67 290 824c2.67 20.67-2.33 38.17-15 52.5-12.67 14.33-29.33 21.5-50 21.5-21.33 0-39.83-7.17-55.5-21.5-15.67-14.33-24.83-31.83-27.5-52.5Zm71-27c-8 0-14.17 2.5-18.5 7.5S188.33 816 189 824c1.33 8 4.67 14.5 10 19.5s12 7.5 20 7.5 14.17-2.5 18.5-7.5 6.17-11.5 5.5-19.5c-1.33-8-4.67-14.5-10-19.5s-12-7.5-20-7.5Z" horiz-adv-x="316" vert-adv-y="1000"/><glyph glyph-name="uni016F" unicode="ů" d="M-2 86c-3.33-26.67-.17-48.17 9.5-64.5S32-3 52-3h33c16.67 0 32 6.33 46 19l-2-16h82l59 480h-82L140 93v-1c-1.33-12.67-8.67-19-22-19H98c-13.33 0-19.33 6.67-18 20l48 387H46ZM99 604c-2.67-21.33 2.17-39.17 14.5-53.5 12.33-14.33 29.17-21.5 50.5-21.5 20.67 0 39 7.17 55 21.5s25.33 32.17 28 53.5c2.67 20.67-2.33 38.17-15 52.5-12.67 14.33-29.33 21.5-50 21.5-21.33 0-39.83-7.17-55.5-21.5-15.67-14.33-24.83-31.83-27.5-52.5Zm71-27c-8 0-14.17 2.5-18.5 7.5S145.33 596 146 604c1.33 8 4.67 14.5 10 19.5s12 7.5 20 7.5 14.17-2.5 18.5-7.5 6.17-11.5 5.5-19.5c-1.33-8-4.67-14.5-10-19.5s-12-7.5-20-7.5Z" horiz-adv-x="284" vert-adv-y="1000"/><glyph glyph-name="uni0170" unicode="Ű" d="M3 93C-.33 64.33 5.67 41.17 21 23.5S58.33-3 87-3h55c28.67 0 53 8.83 73 26.5s31.33 40.83 34 69.5l75 607h-88L163 99c-2-13.33-9.67-20-23-20h-30c-13.33 0-19 6.67-17 20l73 601H78Zm210 658h49l71 137h-61Zm-34 0 71 137h-61l-59-137Z" horiz-adv-x="316" vert-adv-y="1000"/><glyph glyph-name="uni0171" unicode="ű" d="M-2 86c-3.33-26.67-.17-48.17 9.5-64.5S32-3 52-3h33c16.67 0 32 6.33 46 19l-2-16h82l59 480h-82L140 93v-1c-1.33-12.67-8.67-19-22-19H98c-13.33 0-19.33 6.67-18 20l48 387H46Zm137 445 72 137h-61L87 531Zm83 0 72 137h-61l-59-137Z" horiz-adv-x="284" vert-adv-y="1000"/><glyph glyph-name="uni0172" unicode="Ų" d="M3 93C-.33 64.33 5.67 41.17 21 23.5S58.33-3 87-3h23L87-34C74.33-51.33 67-69.33 65-88c-2.67-18 1.5-32.67 12.5-44 11-11.33 26.17-17 45.5-17h55l6 50-40-1c-10 0-18 2.33-24 7s-8.33 10.67-7 18c1.33 9.33 6.33 20 15 32l31 41c24.67 3.33 45.17 13.5 61.5 30.5S246.33 67 249 93l75 607h-88L163 99c-2-13.33-9.67-20-23-20h-30c-13.33 0-19 6.67-17 20l73 601H78Z" horiz-adv-x="316" vert-adv-y="1000"/><glyph glyph-name="uni0173" unicode="ų" d="M-2 86c-3.33-26.67-.17-48.17 9.5-64.5S32-3 52-3h33c16.67 0 32 6.33 46 19l-2-16h16l-26-34c-12.67-17.33-20-35.33-22-54-2-18 2.33-32.67 13-44 10.67-11.33 25.67-17 45-17h55l7 50-41-1c-10 0-17.83 2.33-23.5 7-5.67 4.67-8.17 10.67-7.5 18 1.33 9.33 6.33 20 15 32l33 43h18l59 480h-82L140 93v-1c-1.33-12.67-8.67-19-22-19H98c-13.33 0-19.33 6.67-18 20l48 387H46Z" horiz-adv-x="284" vert-adv-y="1000"/><glyph glyph-name="uni0174" unicode="Ŵ" d="M34 0h116l111 520c4.67 20.67 8.33 45.33 11 74h2c-4-44-6-68.67-6-74L251 0h117l156 700h-81L334 176c-2.67-15.33-6.33-39.67-11-73h-2c4 29.33 6 53.67 6 73l21 524H225L117 176c-2-8-5.67-32.33-11-73h-2c4 29.33 6 53.67 6 73l20 524H48Zm229 750 39 76 19-76h58l-40 137h-60l-74-137Z" horiz-adv-x="486" vert-adv-y="1000"/><glyph glyph-name="uni0175" unicode="ŵ" d="M31 0h96l78 328c4.67 21.33 8.33 45.67 11 73h2c-3.33-36.67-5-61-5-73L210 0h96l126 480h-80l-76-331c-4-14.67-8.33-39-13-73h-2c4.67 34 7 58.33 7 73l3 331h-87l-77-331c-4-14.67-8.33-39-13-73h-2c4.67 34 7 58.33 7 73l4 331H23Zm115 530h58l39 76 19-76h58l-40 137h-60Z" horiz-adv-x="423" vert-adv-y="1000"/><glyph glyph-name="uni0176" unicode="Ŷ" d="M84 261 52 0h88l33 263 142 437h-84l-76-271c-5.33-18.67-10-42.67-14-72h-2c4 28.67 5 52.67 3 72l-8 271H50Zm17 489h58l39 76 19-76h58l-40 137h-60Z" horiz-adv-x="278" vert-adv-y="1000"/><glyph glyph-name="uni0177" unicode="ŷ" d="M-21-190h31c55.33 0 92.67 34.33 112 103l152 567h-80l-81-326c-4-14.67-8.33-39-13-73h-2c3.33 24.67 5 49 5 73l1 326H23L37 0h34L52-81c-2.67-10-8.33-18-17-24s-18.33-9-29-9h-19Zm85 720h59l38 76 20-76h58l-41 137h-60Z" horiz-adv-x="265" vert-adv-y="1000"/><glyph glyph-name="uni0178" unicode="Ÿ" d="M84 261 52 0h88l33 263 142 437h-84l-76-271c-5.33-18.67-10-42.67-14-72h-2c4 28.67 5 52.67 3 72l-8 271H50Zm89 493 12 92h-71l-11-92Zm32 0h70l12 92h-71Z" horiz-adv-x="278" vert-adv-y="1000"/><glyph glyph-name="uni0179" unicode="Ź" d="M-29 0h200l9 76H64l185 561 8 63H57l-10-76h116L-22 63Zm211 751 83 137h-87l-59-137Z" horiz-adv-x="228" vert-adv-y="1000"/><glyph glyph-name="uni017A" unicode="ź" d="M-33 0h200l8 70H65l154 353 7 57H26l-8-69h110L-26 57Zm185 531 82 137h-87L88 531Z" horiz-adv-x="220" vert-adv-y="1000"/><glyph glyph-name="uni017B" unicode="Ż" d="M-29 0h200l9 76H64l185 561 8 63H57l-10-76h116L-22 63Zm233 754 13 103h-81l-13-103Z" horiz-adv-x="228" vert-adv-y="1000"/><glyph glyph-name="uni017C" unicode="ż" d="M-33 0h200l8 70H65l154 353 7 57H26l-8-69h110L-26 57ZM92 534h82l12 103h-81Z" horiz-adv-x="220" vert-adv-y="1000"/><glyph glyph-name="uni017D" unicode="Ž" d="M-29 0h200l9 76H64l185 561 8 63H57l-10-76h116L-22 63ZM92 887l41-137h60l74 137h-58l-39-76-19 76Z" horiz-adv-x="228" vert-adv-y="1000"/><glyph glyph-name="uni017E" unicode="ž" d="m167 0 8 70H65l154 353 7 57H26l-8-69h110L-26 57l-7-57ZM61 667l41-137h60l74 137h-58l-38-76-20 76Z" horiz-adv-x="220" vert-adv-y="1000"/><glyph glyph-name="uni018F" unicode="Ə" d="M82-3h55c28.67 0 53 8.83 73 26.5s31.33 40.83 34 69.5l64 514c3.33 29.33-2.67 52.67-18 70s-37.33 26-66 26h-55c-28.67 0-52.83-8.83-72.5-26.5S65.33 635.67 62 607L45 472h88l16 129c2 13.33 9.67 20 23 20h30c13.33 0 19-6.67 17-20l-27-222H34L-2 93C-5.33 64.33.67 41.17 16 23.5S53.33-3 82-3Zm100 306L158 99c-2-13.33-9.67-20-23-20h-30c-13.33 0-19 6.67-17 20l24 204Z" horiz-adv-x="311" vert-adv-y="1000"/><glyph glyph-name="uni0192" unicode="ƒ" d="M-45-190H1c28.67 0 52.67 8.83 72 26.5s30.67 41.17 34 70.5l44 504h67l6 69h-67l12 137c1.33 18 11.33 27 30 27h33l7 76h-46c-28.67 0-52.67-8.83-72-26.5S90.67 652.33 88 623L75 480H27l-6-69h48L26-87c-2-18-12.33-27-31-27h-33Z" horiz-adv-x="214" vert-adv-y="1000"/><glyph glyph-name="uni01DD" unicode="ǝ" d="M76-3h45c26.67 0 49.33 8.17 68 24.5s29.33 37.83 32 64.5l38 308c3.33 26.67-2.17 48.17-16.5 64.5S207.67 483 181 483h-45c-26.67 0-49.33-8.17-68-24.5S38.33 420.67 35 394l-9-75h82l9 68c1.33 13.33 8.67 20 22 20h20c13.33 0 19.33-6.67 18-20l-15-113H21L-2 86C-5.33 59.33.17 37.83 14.5 21.5S49.33-3 76-3Zm4 96 14 111h60L140 93c-1.33-13.33-8.67-20-22-20H98c-13.33 0-19.33 6.67-18 20Z" horiz-adv-x="284" vert-adv-y="1000"/><glyph glyph-name="uni01FA" unicode="Ǻ" d="m46 0 37 162h81L161 0h82l5 700H131L-36 0Zm80 787c-2.67-21.33 2.33-39 15-53s29.33-21 50-21 39.17 7.17 55.5 21.5 25.83 31.83 28.5 52.5c2 16-.67 30.33-8 43l77 129h-87l-42-98c-1.33.67-3.33 1-6 1-20.67 0-38.83-7.17-54.5-21.5-15.67-14.33-25.17-32.17-28.5-53.5Zm38-269c6 32 9.67 56.33 11 73h2c-3.33-36.67-5-61-5-73l-6-281h-66Zm33 242c-8 0-14.17 2.5-18.5 7.5S172.33 779 173 787c.67 8 4 14.5 10 19.5s13 7.5 21 7.5c17.33 0 25-9 23-27-1.33-8-4.67-14.5-10-19.5s-12-7.5-20-7.5Z" horiz-adv-x="293" vert-adv-y="1000"/><glyph glyph-name="uni01FB" unicode="ǻ" d="M-2 86c-3.33-26.67-.17-48.17 9.5-64.5S32-3 52-3h33c18 0 33.67 6.67 47 20l-2-17h82l48 394c3.33 26.67-2.17 48.17-16.5 64.5S208.67 483 182 483h-45c-26.67 0-49.33-8.17-68-24.5S39.33 420.67 36 394l-8-67h82l7 57c2.67 15.33 10.33 23 23 23h20c6 0 10.67-2.33 14-7s4.33-10 3-16l-14-116c-10.67 14-24.67 21-42 21H88c-20 0-37-8.17-51-24.5S14.33 226.33 11 199Zm102 518c-2.67-21.33 2.17-39.17 14.5-53.5 12.33-14.33 29.17-21.5 50.5-21.5 20.67 0 39 7.17 55 21.5s25.33 32.17 28 53.5c2 11.33 1 22-3 32l82 136h-88l-41-96c-6.67 1.33-11.67 2-15 2-21.33 0-39.83-7.17-55.5-21.5-15.67-14.33-24.83-31.83-27.5-52.5ZM98 73c-13.33 0-19.33 6.67-18 20l13 100c1.33 13.33 8.67 20 22 20h20c13.33 0 19.33-6.67 18-20L140 93c-1.33-13.33-8.67-20-22-20Zm73 504c-8 0-14.17 2.5-18.5 7.5S146.33 596 147 604c1.33 8 4.67 14.5 10 19.5s12 7.5 20 7.5 14.17-2.5 18.5-7.5 6.17-11.5 5.5-19.5c-1.33-8-4.67-14.5-10-19.5s-12-7.5-20-7.5Z" horiz-adv-x="285" vert-adv-y="1000"/><glyph glyph-name="uni01FC" unicode="Ǽ" d="m48 0 54 162h81L163 0h192l9 76H261l29 236h95l9 76h-95l29 236h103l10 76H210L-36 0Zm171 515c8 28 14.33 51 19 69h2c-7.33-29.33-11.67-52.67-13-70l-35-277h-65Zm12 236h64l82 137h-87Z" horiz-adv-x="421" vert-adv-y="1000"/><glyph glyph-name="uni01FD" unicode="ǽ" d="M-2 86c-3.33-26.67-.17-48.17 9.5-64.5S32-3 52-3h33c26.67 0 47.33 13.33 62 40 12-26.67 36-40 72-40h45c26.67 0 49.33 8.17 68 24.5s29.33 37.83 32 64.5l9 75h-82l-8-68c-1.33-13.33-8.67-20-22-20h-20c-13.33 0-19.33 6.67-18 20l14 113h142l23 188c3.33 26.67-2.17 48.17-16.5 64.5S350.67 483 324 483h-45c-19.33 0-36.33-4-51-12-12 8-27.33 12-46 12h-45c-26.67 0-49.33-8.17-68-24.5S39.33 420.67 36 394l-8-67h82l7 57c1.33 6 4.17 11.33 8.5 16s9.5 7 15.5 7h20c10 0 15.67-5.67 17-17l-15-122c-10.67 14-24.67 21-42 21H88c-20 0-37-8.17-51-24.5S14.33 226.33 11 199Zm194 445h63l83 137h-87ZM98 73c-13.33 0-19.33 6.67-18 20l13 100c1.33 13.33 8.67 20 22 20h20c13.33 0 19.33-6.67 18-20L140 93c-1.33-13.33-8.67-20-22-20Zm162 314c1.33 13.33 8.67 20 22 20h20c13.33 0 19.33-6.67 18-20l-14-111h-60Z" horiz-adv-x="425" vert-adv-y="1000"/><glyph glyph-name="uni01FE" unicode="Ǿ" d="M30 15C44 3 63-3 87-3h55c28.67 0 53 8.83 73 26.5s31.33 40.83 34 69.5l64 514c2.67 22.67-.67 42-10 58l15 35-21 9-10-24c-14 12-33.33 18-58 18h-55c-28.67 0-52.83-8.83-72.5-26.5S70.33 635.67 67 607L3 93C1 69 4.33 49.67 13 35L-2 0l22-9Zm124 586c2 13.33 9.67 20 23 20h30c13.33 0 19-6.67 17-20l-12-95-98-234Zm48-176L163 99c-2-13.33-9.67-20-23-20h-30c-13.33 0-19 6.67-17 20l11 92Zm-39 326h63l83 137h-87Z" horiz-adv-x="316" vert-adv-y="1000"/><glyph glyph-name="uni01FF" unicode="ǿ" d="M33 7C44.33.33 58.67-3 76-3h45c26.67 0 49.33 8.17 68 24.5s29.33 37.83 32 64.5l38 308c2.67 24.67-2 45.33-14 62l12 24-21 9-9-18c-12 8-27.33 12-46 12h-45c-26.67 0-49.33-8.17-68-24.5S38.33 420.67 35 394L-2 86C-6 60.67-.67 39 14 21L5 0l21-9Zm87 524h63l83 137h-87ZM91 183l26 204c1.33 13.33 8.67 20 22 20h20c13.33 0 19.33-6.67 18-20l-4-32Zm73 100L140 93c-1.33-13.33-8.67-20-22-20H98c-13.33 0-19.33 6.67-18 20l2 18Z" horiz-adv-x="284" vert-adv-y="1000"/><glyph glyph-name="uni0218" unicode="Ș" d="M77-3h55c28.67 0 53 8.83 73 26.5s31.33 40.83 34 69.5l19 148c2 16.67-.17 33.5-6.5 50.5S236 322 224 332l-87 112c-8 6.67-11 15.33-9 26l16 131c2 13.33 9.67 20 23 20h30c13.33 0 19-6.67 17-20l-16-129h88l17 135c3.33 29.33-2.67 52.67-18 70s-37.33 26-66 26h-55c-28.67 0-52.83-8.83-72.5-26.5S60.33 635.67 57 607L40 473c-2-17.33 0-34.33 6-51s15.33-30 28-40l87-112c7.33-7.33 10.33-16 9-26L153 99c-2-13.33-9.67-20-23-20h-30c-13.33 0-19 6.67-17 20l15 130H10L-7 93c-3.33-28.67 2.67-51.83 18-69.5S48.33-3 77-3Zm6-166 54 126H71L35-169Z" horiz-adv-x="296" vert-adv-y="1000"/><glyph glyph-name="uni0219" unicode="ș" d="M74-3h45c26.67 0 49.33 8.17 68 24.5s29.33 37.83 32 64.5l13 106c2 15.33-.5 29.5-7.5 42.5S207.33 256.67 194 262l-78 36c-10 4.67-14.33 12.33-13 23l9 66c1.33 13.33 8.67 20 22 20h20c13.33 0 19.33-6.67 18-20l-8-64h81l9 71c3.33 26.67-2.17 48.17-16.5 64.5S202.67 483 176 483h-45c-26.67 0-49.33-8.17-68-24.5S33.33 420.67 30 394l-11-89c-1.33-15.33 1.5-29.5 8.5-42.5S44.67 240.33 58 235l79-37c9.33-4.67 13.33-12.33 12-23l-11-82c-1.33-13.33-8.67-20-22-20H96c-13.33 0-19.33 6.67-18 20l9 68H5l-9-75c-3.33-26.67 2.17-48.17 16.5-64.5S47.33-3 74-3Zm0-166 54 126H62L25-169Z" horiz-adv-x="272" vert-adv-y="1000"/><glyph glyph-name="uni021A" unicode="Ț" d="m282 624 9 76H48l-9-76h77L39 0h89l76 624ZM13-169h49l53 126H50Z" horiz-adv-x="253" vert-adv-y="1000"/><glyph glyph-name="uni021B" unicode="ț" d="M13 411h47L22 97c-3.33-29.33 2.83-52.83 18.5-70.5S78.33 0 107 0h52l10 76h-40c-18 0-26 9-24 27l37 308h68l8 69h-67l12 100H81L69 480H21Zm62-580 54 126H63L27-169Z" horiz-adv-x="215" vert-adv-y="1000"/><glyph glyph-name="uni0237" unicode="ȷ" d="M-94-190h37c31.33 0 57.5 9.5 78.5 28.5S54.67-117.67 58-87l70 567H46L-23-81c-.67-10-4.67-18-12-24s-16-9-26-9h-25Z" horiz-adv-x="142" vert-adv-y="1000"/><glyph glyph-name="uni0259" unicode="ə" d="M76-3h45c26.67 0 49.33 8.17 68 24.5s29.33 37.83 32 64.5l38 308c3.33 26.67-2.17 48.17-16.5 64.5S207.67 483 181 483h-45c-26.67 0-49.33-8.17-68-24.5S38.33 420.67 35 394l-9-75h82l9 68c1.33 13.33 8.67 20 22 20h20c13.33 0 19.33-6.67 18-20l-15-113H21L-2 86C-5.33 59.33.17 37.83 14.5 21.5S49.33-3 76-3Zm4 96 14 111h60L140 93c-1.33-13.33-8.67-20-22-20H98c-13.33 0-19.33 6.67-18 20Z" horiz-adv-x="284" vert-adv-y="1000"/><glyph glyph-name="uni02C6" unicode="ˆ" d="M74 710h58l39 76 19-76h59l-41 137h-60Z" horiz-adv-x="234" vert-adv-y="1000"/><glyph glyph-name="uni02C7" unicode="ˇ" d="M131 710h60l74 137h-58l-38-76-20 76H91Z" horiz-adv-x="234" vert-adv-y="1000"/><glyph glyph-name="uni02D8" unicode="˘" d="M84 788c-2.67-22 1.83-39.67 13.5-53 11.67-13.33 28.5-20 50.5-20h37c22 0 40.5 6.67 55.5 20s23.83 31 26.5 53l4 32h-65l-3-31c-2-11.33-8.67-17-20-17h-18c-12.67 0-18.33 5.67-17 17l4 31H87Z" horiz-adv-x="243" vert-adv-y="1000"/><glyph glyph-name="uni02D9" unicode="˙" d="M75 720h82l13 103H88Z" horiz-adv-x="142" vert-adv-y="1000"/><glyph glyph-name="uni02DA" unicode="˚" d="M83 784c-2.67-21.33 2.17-39.17 14.5-53.5 12.33-14.33 29.17-21.5 50.5-21.5 20.67 0 39.17 7.17 55.5 21.5s25.83 32.17 28.5 53.5c2.67 20.67-2.5 38.17-15.5 52.5-13 14.33-29.83 21.5-50.5 21.5s-38.83-7-54.5-21c-15.67-14-25.17-31.67-28.5-53Zm71-27c-8 0-14.17 2.5-18.5 7.5S129.33 776 130 784c.67 8 4 14.5 10 19.5s13 7.5 21 7.5c17.33 0 25-9 23-27-1.33-8-4.67-14.5-10-19.5s-12-7.5-20-7.5Z" horiz-adv-x="208" vert-adv-y="1000"/><glyph glyph-name="uni02DB" unicode="˛" d="M-24-88c-2-18 2.33-32.67 13-44 10.67-11.33 25.67-17 45-17h56l6 50-41-1c-10 0-17.83 2.33-23.5 7-5.67 4.67-8.17 10.67-7.5 18 1.33 10 6.67 20.67 16 32L72 0H24L-1-34c-13.33-18-21-36-23-54Z" horiz-adv-x="181" vert-adv-y="1000"/><glyph glyph-name="uni02DC" unicode="˜" d="M128 714c1.33 15.33 7 23 17 23 3.33 0 10.17-4.33 20.5-13s22.5-13 36.5-13c20 0 36.67 6.83 50 20.5 13.33 13.67 21.33 31.83 24 54.5h-53c-2-16-8-24-18-24-3.33 0-10.17 4.5-20.5 13.5S161.67 789 147 789c-19.33 0-35.33-6.83-48-20.5-12.67-13.67-20.67-31.83-24-54.5Z" horiz-adv-x="252" vert-adv-y="1000"/><glyph glyph-name="uni02DD" unicode="˝" d="M158 717h48l71 137h-60Zm-35 0 71 137h-60L75 717Z" horiz-adv-x="246" vert-adv-y="1000"/><glyph glyph-name="uni0394" unicode="Δ" d="M7 0h279l-81 700H88Zm90 76 46 442c2 22 3 46.33 3 73h2c0-26.67 1-51 3-73l45-442Z" horiz-adv-x="309" vert-adv-y="1000"/><glyph glyph-name="uni03A9" unicode="Ω" d="M145 0v71c-13.33 0-20 6.67-20 20v510c0 13.33 6.67 20 20 20h30c13.33 0 20-6.67 20-20V91c0-13.33-6.67-20-20-20V0h132v76h-48c16 16 24 36 24 60v481c0 26-8.67 46.83-26 62.5-17.33 15.67-40.67 23.5-70 23.5h-54c-29.33 0-52.67-7.83-70-23.5S37 643 37 617V136c0-24 8-44 24-60H13V0Z" horiz-adv-x="332" vert-adv-y="1000"/><glyph glyph-name="uni03C0" unicode="π" d="M4 0h82l51 411h60L146 0h82l51 411h42l9 69H21l-8-69h42Z" horiz-adv-x="319" vert-adv-y="1000"/><glyph glyph-name="uni0400" unicode="Ѐ" d="M-8 0h192l9 76H89l29 236h96l9 76h-95l29 236h103l10 76H78Zm120 888 48-137h64l-25 137Z" horiz-adv-x="250" vert-adv-y="1000"/><glyph glyph-name="uni0401" unicode="Ё" d="m184 0 9 76H89l29 236h96l9 76h-95l29 236h103l10 76H78L-8 0Zm83 754 12 92h-71l-12-92Zm-173 0h71l12 92h-71Z" horiz-adv-x="250" vert-adv-y="1000"/><glyph glyph-name="uni0402" unicode="Ђ" d="m282 624 9 76H48l-9-76h77L39 0h89l38 314c14.67 4 27.33 6 38 6 22 0 32.33-6.67 31-20L210 99c-2-13.33-9.67-20-23-20h-11L166-3h23c29.33 0 53.83 8.83 73.5 26.5S293.67 64.33 297 93l26 213c4 28.67-2.17 51.83-18.5 69.5S263.33 402 230 402c-12.67 0-30.67-2.33-54-7l28 229Z" horiz-adv-x="359" vert-adv-y="1000"/><glyph glyph-name="uni0403" unicode="Ѓ" d="M-8 0h88l77 624h94l10 76H78Zm135 751h64l83 137h-88Z" horiz-adv-x="223" vert-adv-y="1000"/><glyph glyph-name="uni0404" unicode="Є" d="M87-3h55c28.67 0 53 8.83 73 26.5s31.33 40.83 34 69.5l17 131h-89L163 99c-2-13.33-9.67-20-23-20h-30c-13.33 0-19 6.67-17 20l25 213h100l10 76H128l26 213c2 13.33 9.67 20 23 20h30c13.33 0 19-6.67 17-20l-16-129h88l17 135c3.33 29.33-2.67 52.67-18 70s-37.33 26-66 26h-55c-28.67 0-52.83-8.83-72.5-26.5S70.33 635.67 67 607L3 93C-.33 64.33 5.67 41.17 21 23.5S58.33-3 87-3Z" horiz-adv-x="311" vert-adv-y="1000"/><glyph glyph-name="uni0405" unicode="Ѕ" d="M77-3h55c28.67 0 53 8.83 73 26.5s31.33 40.83 34 69.5l19 148c2 16.67-.17 33.5-6.5 50.5S236 322 224 332l-87 112c-8 6.67-11 15.33-9 26l16 131c2 13.33 9.67 20 23 20h30c13.33 0 19-6.67 17-20l-16-129h88l17 135c3.33 29.33-2.67 52.67-18 70s-37.33 26-66 26h-55c-28.67 0-52.83-8.83-72.5-26.5S60.33 635.67 57 607L40 473c-2-17.33 0-34.33 6-51s15.33-30 28-40l87-112c7.33-7.33 10.33-16 9-26L153 99c-2-13.33-9.67-20-23-20h-30c-13.33 0-19 6.67-17 20l15 130H10L-7 93c-3.33-28.67 2.67-51.83 18-69.5S48.33-3 77-3Z" horiz-adv-x="296" vert-adv-y="1000"/><glyph glyph-name="uni0406" unicode="І" d="M-8 0h88l86 700H78Z" horiz-adv-x="158" vert-adv-y="1000"/><glyph glyph-name="uni0407" unicode="Ї" d="M-8 0h88l86 700H78Zm223 754 12 92h-71l-12-92Zm-173 0h71l12 92H54Z" horiz-adv-x="158" vert-adv-y="1000"/><glyph glyph-name="uni0408" unicode="Ј" d="M-17 93c-3.33-28.67 2.67-51.83 18-69.5S38.33-3 67-3h55c28.67 0 53 8.83 73 26.5s31.33 40.83 34 69.5l75 607h-88L143 99c-2-13.33-9.67-20-23-20H90c-13.33 0-19 6.67-17 20l13 114H-2Z" horiz-adv-x="296" vert-adv-y="1000"/><glyph glyph-name="uni0409" unicode="Љ" d="M-11 0c30 0 54.83 9 74.5 27s31.83 43.33 36.5 76l80 528h50L153 0h150c28.67 0 52.83 8.67 72.5 26S407 66.67 411 96l25 206c3.33 28.67-2.67 51.83-18 69.5S380.67 398 352 398h-62l37 302H106L16 116C12.67 93.33 2.67 82-14 82h-14L-38 0Zm261 76 30 246h50c13.33 0 19.33-6.67 18-20L323 96c-2-13.33-9.67-20-23-20Z" horiz-adv-x="467" vert-adv-y="1000"/><glyph glyph-name="uni040A" unicode="Њ" d="M-8 0h88l39 317h70L150 0h151c28.67 0 52.83 8.67 72.5 26s31.17 40 34.5 68l25 203c3.33 28.67-2.67 51.83-18 69.5S377.67 393 349 393h-63l38 307h-88l-38-307h-70l38 307H78Zm255 76 30 241h50c13.33 0 19-6.67 17-20L320 95c-1.33-12.67-8.67-19-22-19Z" horiz-adv-x="464" vert-adv-y="1000"/><glyph glyph-name="uni040B" unicode="Ћ" d="m282 624 9 76H48l-9-76h77L39 0h89l38 314c14.67 4 27.33 6 38 6 22 0 32.33-6.67 31-20L198 0h88l37 306c4 28.67-2.17 51.83-18.5 69.5S263.33 402 230 402c-12.67 0-30.67-2.33-54-7l28 229Z" horiz-adv-x="359" vert-adv-y="1000"/><glyph glyph-name="uni040C" unicode="Ќ" d="m80 0 36 291L153 0h85l-55 361 136 339h-85L133 430l33 270H78L-8 0Zm83 751h64l82 137h-87Z" horiz-adv-x="286" vert-adv-y="1000"/><glyph glyph-name="uni040D" unicode="Ѝ" d="m80 0 13 109 85 220c10.67 22 19.33 45.67 26 71h2c-8-30-13.33-54-16-72L150 0h88l86 700h-88l-13-109-85-220c-10.67-22-19.33-45.67-26-71h-2c8 29.33 13.33 53.67 16 73l40 327H78L-8 0Zm107 751h63l-25 137h-87Z" horiz-adv-x="316" vert-adv-y="1000"/><glyph glyph-name="uni040E" unicode="Ў" d="M44 0c56.67 0 94.67 34.33 114 103l161 597h-83l-87-356c-6.67-23.33-11-47.67-13-73h-2c3.33 36 4.67 60.33 4 73l-7 356H48l23-507h33l-22-79c-2.67-9.33-8.33-17-17-23s-18.67-9-30-9H14L4 0Zm57 805c-3.33-22 1-39.83 13-53.5 12-13.67 29.33-20.5 52-20.5h40c22 0 41.17 6.83 57.5 20.5S289.33 783 292 805l3 19h-67l-2-13c-.67-5.33-2.83-10-6.5-14s-8.17-6-13.5-6h-24c-10.67 0-15.33 6.67-14 20l2 13h-67Z" horiz-adv-x="281" vert-adv-y="1000"/><glyph glyph-name="uni040F" unicode="Џ" d="M-8 0h79L58-110h88L159 0h79l86 700h-88L159 76H89l77 624H78Z" horiz-adv-x="316" vert-adv-y="1000"/><glyph glyph-name="uni0410" unicode="А" d="m46 0 37 162h81L161 0h82l5 700H131L-36 0Zm118 518c6 32 9.67 56.33 11 73h2c-3.33-36.67-5-61-5-73l-6-281h-66Z" horiz-adv-x="293" vert-adv-y="1000"/><glyph glyph-name="uni0411" unicode="Б" d="M-8 0h150c29.33 0 53.83 8.83 73.5 26.5S246.67 67.33 250 96l25 206c3.33 29.33-2.67 52.67-18 70s-37.33 26-66 26h-62l28 226h134l10 76H78Zm97 76 31 246h49c13.33 0 19.33-6.67 18-20L162 96c-1.33-13.33-8.67-20-22-20Z" horiz-adv-x="301" vert-adv-y="1000"/><glyph glyph-name="uni0412" unicode="В" d="M142 0c29.33 0 53.83 8.33 73.5 25s30.83 38.33 33.5 65l24 195c4 37.33-8.67 63-38 77 30.67 16 48 41 52 75l22 178c3.33 25.33-3 45.83-19 61.5-16 15.67-38.33 23.5-67 23.5H78L-8 0ZM89 76l31 247h50c13.33 0 19.33-6.67 18-20L162 96c-1.33-13.33-8.67-20-22-20Zm68 548h45c13.33 0 19-6.33 17-19l-23-186c-1.33-13.33-8.67-20-22-20h-45Z" horiz-adv-x="306" vert-adv-y="1000"/><glyph glyph-name="uni0413" unicode="Г" d="M-8 0h88l77 624h94l10 76H78Z" horiz-adv-x="223" vert-adv-y="1000"/><glyph glyph-name="uni0414" unicode="Д" d="M-51-110h88L50 0h168l-13-110h88l22 186h-49l77 624H122L33 106c-3.33-15.33-8.67-25.33-16-30h-46ZM108 76c4 10 7 21 9 33l80 522h49L178 76Z" horiz-adv-x="354" vert-adv-y="1000"/><glyph glyph-name="uni0415" unicode="Е" d="M-8 0h192l9 76H89l29 236h96l9 76h-95l29 236h103l10 76H78Z" horiz-adv-x="250" vert-adv-y="1000"/><glyph glyph-name="uni0416" unicode="Ж" d="M-38 0h85l113 324L120 0h88l40 325L281 0h85l-49 361 130 339h-85L257 397l37 303h-88l-37-303-31 303H53l47-339Z" horiz-adv-x="414" vert-adv-y="1000"/><glyph glyph-name="uni0417" unicode="З" d="M-10 93c-3.33-28.67 2.67-51.83 18-69.5S45.33-3 74-3h55c28.67 0 52.83 8.33 72.5 25s31.17 38.33 34.5 65l25 202c4 38-9 63.67-39 77 30.67 16 48 41 52 75l22 178c3.33 25.33-2.83 45.67-18.5 61-15.67 15.33-37.83 23-66.5 23h-55c-28.67 0-53-8.83-73-26.5S51.67 635.67 49 607L34 485h88l14 116c2 13.33 9.67 20 23 20h30c13.33 0 19-6.33 17-19l-22-179c-1.33-13.33-8.67-20-22-20h-56l-9-76h60c13.33 0 19.33-6.67 18-20L149 99c-2-13.33-9.67-20-23-20H96c-13.33 0-19 6.67-17 20l14 113H5Z" horiz-adv-x="293" vert-adv-y="1000"/><glyph glyph-name="uni0418" unicode="И" d="M-8 0h88l13 109 85 220c10.67 22 19.33 45.67 26 71h2c-8-30-13.33-54-16-72L150 0h88l86 700h-88l-13-109-85-220c-10.67-22-19.33-45.67-26-71h-2c8 29.33 13.33 53.67 16 73l40 327H78Z" horiz-adv-x="316" vert-adv-y="1000"/><glyph glyph-name="uni0419" unicode="Й" d="M-8 0h88l13 109 85 220c10.67 22 19.33 45.67 26 71h2c-8-30-13.33-54-16-72L150 0h88l86 700h-88l-13-109-85-220c-10.67-22-19.33-45.67-26-71h-2c8 29.33 13.33 53.67 16 73l40 327H78Zm128 805c-2.67-22 1.83-39.83 13.5-53.5C145.17 737.83 162 731 184 731h41c22 0 41.17 6.83 57.5 20.5S308.33 783 311 805l2 19h-67l-1-13c-2.67-13.33-9.33-20-20-20h-24c-10.67 0-15.33 6.67-14 20l2 13h-67Z" horiz-adv-x="318" vert-adv-y="1000"/><glyph glyph-name="uni041A" unicode="К" d="m80 0 36 291L153 0h85l-55 361 136 339h-85L133 430l33 270H78L-8 0Z" horiz-adv-x="286" vert-adv-y="1000"/><glyph glyph-name="uni041B" unicode="Л" d="M-39-3h27c30.67 0 55.67 9 75 27s31.33 43.67 36 77l81 530h50L153 0h88l86 700H106L16 113C12.67 90.33 2.33 79-15 79h-14Z" horiz-adv-x="319" vert-adv-y="1000"/><glyph glyph-name="uni041C" unicode="М" d="M-13 0h82l63 515c2.67 19.33 4.67 44.33 6 75h2c-2-46-3-71-3-75L132 0h92l121 512c6 27.33 11 52.67 15 76h2c-7.33-41.33-11.33-66.67-12-76L287 0h82l86 700H323L203 167c-5.33-19.33-9.33-44.33-12-75h-2c4 46 6 71 6 75l10 533H73Z" horiz-adv-x="442" vert-adv-y="1000"/><glyph glyph-name="uni041D" unicode="Н" d="M-8 0h88l38 312h70L150 0h88l86 700h-88l-38-312h-70l38 312H78Z" horiz-adv-x="316" vert-adv-y="1000"/><glyph glyph-name="uni041E" unicode="О" d="M3 93C-.33 64.33 5.67 41.17 21 23.5S58.33-3 87-3h55c28.67 0 53 8.83 73 26.5s31.33 40.83 34 69.5l64 514c3.33 29.33-2.67 52.67-18 70s-37.33 26-66 26h-55c-28.67 0-52.83-8.83-72.5-26.5S70.33 635.67 67 607Zm107-14c-13.33 0-19 6.67-17 20l61 502c2 13.33 9.67 20 23 20h30c13.33 0 19-6.67 17-20L163 99c-2-13.33-9.67-20-23-20Z" horiz-adv-x="316" vert-adv-y="1000"/><glyph glyph-name="uni041F" unicode="П" d="m80 0 77 624h70L150 0h88l86 700H78L-8 0Z" horiz-adv-x="316" vert-adv-y="1000"/><glyph glyph-name="uni0420" unicode="Р" d="M-8 0h88l37 302h63c28.67 0 52.83 8.83 72.5 26.5s31.17 40.83 34.5 69.5l25 206c4 28.67-1.67 51.83-17 69.5S257.33 700 228 700H78Zm165 624h50c13.33 0 19-6.67 17-20l-25-206c-1.33-13.33-8.67-20-22-20h-50Z" horiz-adv-x="298" vert-adv-y="1000"/><glyph glyph-name="uni0421" unicode="С" d="M87-3h55c28.67 0 53 8.83 73 26.5s31.33 40.83 34 69.5l17 131h-89L163 99c-2-13.33-9.67-20-23-20h-30c-13.33 0-19 6.67-17 20l61 502c2 13.33 9.67 20 23 20h30c13.33 0 19-6.67 17-20l-16-129h88l17 135c3.33 29.33-2.67 52.67-18 70s-37.33 26-66 26h-55c-28.67 0-52.83-8.83-72.5-26.5S70.33 635.67 67 607L3 93C-.33 64.33 5.67 41.17 21 23.5S58.33-3 87-3Z" horiz-adv-x="311" vert-adv-y="1000"/><glyph glyph-name="uni0422" unicode="Т" d="m282 624 9 76H48l-9-76h77L39 0h89l76 624Z" horiz-adv-x="253" vert-adv-y="1000"/><glyph glyph-name="uni0423" unicode="У" d="M44 0c56.67 0 94.67 34.33 114 103l161 597h-83l-87-356c-6.67-23.33-11-47.67-13-73h-2c3.33 36 4.67 60.33 4 73l-7 356H48l23-507h33l-22-79c-2.67-9.33-8.33-17-17-23s-18.67-9-30-9H14L4 0Z" horiz-adv-x="281" vert-adv-y="1000"/><glyph glyph-name="uni0424" unicode="Ф" d="M13 170c-3.33-28.67 2.67-51.67 18-69s37.33-26 66-26h57l-9-75h88l9 75h58c28.67 0 52.83 8.67 72.5 26s31.17 40.33 34.5 69l44 360c4 28.67-1.83 51.83-17.5 69.5S395.67 626 367 626h-57l9 74h-88l-9-74h-57c-28.67 0-53-8.83-73-26.5S60.33 558.67 57 530Zm239-14 48 388h45c13.33 0 19.33-6.67 18-20l-43-348c-1.33-13.33-8.67-20-22-20Zm-132 0c-13.33 0-19.33 6.67-18 20l43 348c1.33 13.33 8.67 20 22 20h45l-48-388Z" horiz-adv-x="464" vert-adv-y="1000"/><glyph glyph-name="uni0425" unicode="Х" d="M-38 0h85l65 194c7.33 19.33 13 43.33 17 72h2c-3.33-25.33-4-49.33-2-72L147 0h85l-46 361 127 339h-85l-58-172c-8.67-27.33-14-51.67-16-73h-2c2.67 32 3 56.33 1 73l-15 172H53l44-339Z" horiz-adv-x="280" vert-adv-y="1000"/><glyph glyph-name="uni0426" unicode="Ц" d="M-8 0h207l-13-110h88l22 186h-49l77 624h-88L159 76H89l77 624H78Z" horiz-adv-x="335" vert-adv-y="1000"/><glyph glyph-name="uni0427" unicode="Ч" d="M27 394c-3.33-28.67 3.17-51.83 19.5-69.5S87.67 298 121 298c12.67 0 30.67 2.33 54 7L137 0h88l86 700h-88l-39-314c-14.67-4-27-6-37-6-22 0-32.33 6.67-31 20l37 300H65Z" horiz-adv-x="303" vert-adv-y="1000"/><glyph glyph-name="uni0428" unicode="Ш" d="M-8 0h404l86 700h-88L317 76h-70l77 624h-88L159 76H89l77 624H78Z" horiz-adv-x="474" vert-adv-y="1000"/><glyph glyph-name="uni0429" unicode="Щ" d="m357 0-13-110h88l22 186h-48l76 624h-88L317 76h-70l77 624h-88L159 76H89l77 624H78L-8 0Z" horiz-adv-x="493" vert-adv-y="1000"/><glyph glyph-name="uni042A" unicode="Ъ" d="M116 624 39 0h151c28.67 0 52.83 8.83 72.5 26.5S293.67 67.33 297 96l26 206c3.33 28.67-2.67 51.83-18 69.5S267.67 398 239 398h-63l38 302H48l-9-76Zm21-548 30 246h50c13.33 0 19.33-6.67 18-20L209 96c-1.33-13.33-8.67-20-22-20Z" horiz-adv-x="349" vert-adv-y="1000"/><glyph glyph-name="uni042B" unicode="Ы" d="M-8 0h150c29.33 0 53.83 8.83 73.5 26.5S246.67 67.33 250 96l25 206c3.33 29.33-2.67 52.67-18 70s-37.33 26-66 26h-62l37 302H78Zm376 0 86 700h-88L280 0ZM89 76l31 246h49c13.33 0 19.33-6.67 18-20L162 96c-1.33-13.33-8.67-20-22-20Z" horiz-adv-x="446" vert-adv-y="1000"/><glyph glyph-name="uni042C" unicode="Ь" d="M142 0c29.33 0 53.83 8.83 73.5 26.5S246.67 67.33 250 96l25 206c3.33 29.33-2.67 52.67-18 70s-37.33 26-66 26h-62l37 302H78L-8 0ZM89 76l31 246h49c13.33 0 19.33-6.67 18-20L162 96c-1.33-13.33-8.67-20-22-20Z" horiz-adv-x="301" vert-adv-y="1000"/><glyph glyph-name="uni042D" unicode="Э" d="M82-3h55c28.67 0 53 8.83 73 26.5s31.33 40.83 34 69.5l64 514c3.33 29.33-2.67 52.67-18 70s-37.33 26-66 26h-55c-28.67 0-52.83-8.83-72.5-26.5S65.33 635.67 62 607L45 472h88l16 129c2 13.33 9.67 20 23 20h30c13.33 0 19-6.67 17-20l-26-213h-85l-9-76h84L158 99c-2-13.33-9.67-20-23-20h-30c-13.33 0-19 6.67-17 20l14 125H14L-2 93C-5.33 64.33.67 41.17 16 23.5S53.33-3 82-3Z" horiz-adv-x="311" vert-adv-y="1000"/><glyph glyph-name="uni042E" unicode="Ю" d="M-8 0h88l38 312h50L141 93c-3.33-29.33 2.67-52.67 18-70s37.33-26 66-26h55c28.67 0 53 8.83 73 26.5s31.33 40.83 34 69.5l64 514c3.33 29.33-2.67 52.67-18 70s-37.33 26-66 26h-55c-28.67 0-52.83-8.83-72.5-26.5S208.33 635.67 205 607l-27-219h-50l38 312H78Zm256 79c-13.33 0-19 6.67-17 20l61 502c2 13.33 9.67 20 23 20h30c13.33 0 19-6.67 17-20L301 99c-2-13.33-9.67-20-23-20Z" horiz-adv-x="454" vert-adv-y="1000"/><glyph glyph-name="uni042F" unicode="Я" d="m51 0 109 302h16L139 0h88l86 700H163c-29.33 0-53.83-8.83-73.5-26.5S58.33 632.67 55 604L30 398c-6-46.67 10.67-77 50-91L-31 0Zm85 378c-13.33 0-19.33 6.67-18 20l25 206c2 13.33 9.67 20 23 20h50l-31-246Z" horiz-adv-x="305" vert-adv-y="1000"/><glyph glyph-name="uni0430" unicode="а" d="M-2 86c-3.33-26.67-.17-48.17 9.5-64.5S32-3 52-3h33c18 0 33.67 6.67 47 20l-2-17h82l48 394c3.33 26.67-2.17 48.17-16.5 64.5S208.67 483 182 483h-45c-26.67 0-49.33-8.17-68-24.5S39.33 420.67 36 394l-8-67h82l7 57c2.67 15.33 10.33 23 23 23h20c6 0 10.67-2.33 14-7s4.33-10 3-16l-14-116c-10.67 14-24.67 21-42 21H88c-20 0-37-8.17-51-24.5S14.33 226.33 11 199ZM98 73c-13.33 0-19.33 6.67-18 20l13 100c1.33 13.33 8.67 20 22 20h20c13.33 0 19.33-6.67 18-20L140 93c-1.33-13.33-8.67-20-22-20Z" horiz-adv-x="285" vert-adv-y="1000"/><glyph glyph-name="uni0431" unicode="б" d="M-2 83c-3.33-26 2-46.83 16-62.5C28 4.83 48.67-3 76-3h45c26.67 0 49.33 8.17 68 24.5s29.33 37.83 32 64.5l38 308c3.33 26-1.83 47.33-15.5 64s-32.83 25-57.5 25h-8c-23.33 0-40.67-6.67-52-20l10 85c4 28 20.67 48 50 60l96 35 10 80-109-38c-36-12.67-65.33-30.17-88-52.5S59 584 55 554ZM98 73c-13.33 0-19.33 6.67-18 20l37 294c1.33 13.33 8.67 20 22 20h20c13.33 0 19.33-6.67 18-20L140 93c-1.33-13.33-8.67-20-22-20Z" horiz-adv-x="284" vert-adv-y="1000"/><glyph glyph-name="uni0432" unicode="в" d="M121 0c26.67 0 49.17 7.5 67.5 22.5S217.67 57.33 221 82l12 101c4 31.33-5.67 54.33-29 69 23.33 14.67 37 36.33 41 65l10 82c3.33 24-2.5 43.5-17.5 58.5S201.67 480 175 480H46L-13 0ZM77 70l18 145h40c14 0 20-6.67 18-20L140 90c-2-13.33-9.67-20-23-20Zm42 341h36c13.33 0 19-6.67 17-20l-11-86c-1.33-13.33-8.67-20-22-20h-35Z" horiz-adv-x="276" vert-adv-y="1000"/><glyph glyph-name="uni0433" unicode="г" d="m69 0 50 411h91l8 69H46L-13 0Z" horiz-adv-x="210" vert-adv-y="1000"/><glyph glyph-name="uni0434" unicode="д" d="M32-100 44 0h149l-12-100h82l20 170h-44l51 410H85L18 92c-.67-8-3.33-15.33-8-22h-40l-20-170ZM91 70c1.33 3.33 4.33 14.33 9 33l52 308h47L157 70Z" horiz-adv-x="323" vert-adv-y="1000"/><glyph glyph-name="uni0435" unicode="е" d="M76-3h45c26.67 0 49.33 8.17 68 24.5s29.33 37.83 32 64.5l9 75h-81l-9-68c-1.33-13.33-8.67-20-22-20H98c-13.33 0-19.33 6.67-18 20l14 113h142l23 188c3.33 26.67-2.17 48.17-16.5 64.5S207.67 483 181 483h-45c-26.67 0-49.33-8.17-68-24.5S38.33 420.67 35 394L-2 86C-5.33 59.33.17 37.83 14.5 21.5S49.33-3 76-3Zm27 279 14 111c1.33 13.33 8.67 20 22 20h20c13.33 0 19.33-6.67 18-20l-14-111Z" horiz-adv-x="282" vert-adv-y="1000"/><glyph glyph-name="uni0436" unicode="ж" d="M114 0h82l27 223L262 0h85l-59 245 115 235h-85l-90-214 27 214h-82l-27-217-37 217H24l57-235L-38 0h85l95 226Z" horiz-adv-x="395" vert-adv-y="1000"/><glyph glyph-name="uni0437" unicode="з" d="M-16 86c-3.33-26.67 2.33-48.17 17-64.5S36.33-3 63-3h45c26.67 0 49.83 7.67 69.5 23s30.83 35.33 33.5 60l12 98c3.33 32.67-6.67 56.33-30 71 24 14.67 38 36.67 42 66l10 86c3.33 24.67-2.33 44.5-17 59.5S192.67 483 166 483h-45c-26.67 0-49.33-8.17-68-24.5S23.33 420.67 20 394l-10-80h82l10 73c1.33 13.33 8.67 20 22 20h20c13.33 0 19.33-6.33 18-19l-11-87c-2-12.67-9.67-19-23-19H83l-9-70h51c13.33 0 19.33-6.33 18-19L130 92c-.67-5.33-3.5-9.83-8.5-13.5S111 73 105 73H85c-13.33 0-19.33 6.67-18 20l9 73H-6Z" horiz-adv-x="266" vert-adv-y="1000"/><glyph glyph-name="uni0438" unicode="и" d="M-13 0h82l12 94 55 107c10 13.33 21.67 35.67 35 67h2c-11.33-26.67-18-50.67-20-72L129 0h82l59 480h-82l-12-93-55-108c-14-20.67-25.67-43.33-35-68h-2c10.67 29.33 17.33 53.67 20 73l24 196H46Z" horiz-adv-x="284" vert-adv-y="1000"/><glyph glyph-name="uni0439" unicode="й" d="M-13 0h82l12 94 55 107c10 13.33 21.67 35.67 35 67h2c-11.33-26.67-18-50.67-20-72L129 0h82l59 480h-82l-12-93-55-108c-14-20.67-25.67-43.33-35-68h-2c10.67 29.33 17.33 53.67 20 73l24 196H46Zm97 593c-2.67-22 1.67-39.5 13-52.5s28-19.5 50-19.5h32c21.33 0 39.33 6.67 54 20 14.67 13.33 23.67 30.67 27 52l2 18h-64l-2-13c-1.33-11.33-7.67-17-19-17h-13c-12 0-17 5.67-15 17l1 13H87Z" horiz-adv-x="284" vert-adv-y="1000"/><glyph glyph-name="uni043A" unicode="к" d="m69 0 24 194L140 0h85l-64 245 120 235h-85l-91-185 23 185H46L-13 0Z" horiz-adv-x="273" vert-adv-y="1000"/><glyph glyph-name="uni043B" unicode="л" d="M-39-3h26c28.67 0 52.17 9 70.5 27S87.67 67.67 93 101l53 310h47L143 0h82l59 480H79L15 106C10.33 84 .33 73-15 73h-14Z" horiz-adv-x="298" vert-adv-y="1000"/><glyph glyph-name="uni043C" unicode="м" d="M-13 0h79l38 309c2 12.67 3.67 37 5 73h2c-.67-14.67-1-38.67-1-72l5-310h87l82 310c6 21.33 11.33 45.33 16 72h2c-5.33-30-9.33-54.33-12-73L252 0h79l59 480H263l-80-331c-5.33-20-10-44.33-14-73h-2c3.33 24.67 5 49 5 73l1 331H46Z" horiz-adv-x="404" vert-adv-y="1000"/><glyph glyph-name="uni043D" unicode="н" d="M-13 0h82l25 205h60L129 0h82l59 480h-82l-25-205h-60l25 205H46Z" horiz-adv-x="284" vert-adv-y="1000"/><glyph glyph-name="uni043E" unicode="о" d="M-2 86C-5.33 59.33.17 37.83 14.5 21.5S49.33-3 76-3h45c26.67 0 49.33 8.17 68 24.5s29.33 37.83 32 64.5l38 308c3.33 26.67-2.17 48.17-16.5 64.5S207.67 483 181 483h-45c-26.67 0-49.33-8.17-68-24.5S38.33 420.67 35 394ZM98 73c-13.33 0-19.33 6.67-18 20l37 294c1.33 13.33 8.67 20 22 20h20c13.33 0 19.33-6.67 18-20L140 93c-1.33-13.33-8.67-20-22-20Z" horiz-adv-x="284" vert-adv-y="1000"/><glyph glyph-name="uni043F" unicode="п" d="m69 0 50 411h60L129 0h82l59 480H46L-13 0Z" horiz-adv-x="284" vert-adv-y="1000"/><glyph glyph-name="uni0440" unicode="р" d="M46-190 71 17C81 3.67 95-3 113-3h32c20 0 37 8.17 51 24.5s22.67 37.83 26 64.5l38 308c3.33 26.67.17 48.17-9.5 64.5S226 483 206 483h-33c-18 0-33.67-6.67-47-20l2 17H46l-82-670ZM99 73c-13.33 0-19.33 6.67-18 20l37 294c1.33 13.33 8.67 20 22 20h20c13.33 0 19.33-6.67 18-20L141 93c-1.33-13.33-8.67-20-22-20Z" horiz-adv-x="285" vert-adv-y="1000"/><glyph glyph-name="uni0441" unicode="с" d="M76-3h45c26.67 0 49.33 8.17 68 24.5s29.33 37.83 32 64.5l12 93h-82l-11-86c-1.33-13.33-8.67-20-22-20H98c-13.33 0-19.33 6.67-18 20l37 294c1.33 13.33 8.67 20 22 20h20c13.33 0 19.33-6.67 18-20l-11-86h82l11 93c3.33 26.67-2.17 48.17-16.5 64.5S207.67 483 181 483h-45c-26.67 0-49.33-8.17-68-24.5S38.33 420.67 35 394L-2 86C-5.33 59.33.17 37.83 14.5 21.5S49.33-3 76-3Z" horiz-adv-x="274" vert-adv-y="1000"/><glyph glyph-name="uni0442" unicode="т" d="M13 411h68L30 0h82l50 411h69l8 69H21Z" horiz-adv-x="228" vert-adv-y="1000"/><glyph glyph-name="uni0443" unicode="у" d="M10-190c55.33 0 92.67 34.33 112 103l152 567h-80l-81-326c-4-14.67-8.33-39-13-73h-2c3.33 24.67 5 49 5 73l1 326H23L37 0h34L52-81c-2.67-10-8.33-18-17-24s-18.33-9-29-9h-19l-8-76Z" horiz-adv-x="265" vert-adv-y="1000"/><glyph glyph-name="uni0444" unicode="ф" d="M-2 90C-5.33 63.33.17 41.67 14.5 25S49.67 0 77 0h47l-23-190h82L206 0h47c26.67 0 49.33 8.17 68 24.5s29.67 38.17 33 65.5l36 301c3.33 26.67-2.17 48.17-16.5 64.5S338.67 480 312 480h-47l29 240h-82l-29-240h-47c-26.67 0-49.33-8.17-68-24.5S38.33 417.67 35 391Zm257 314h35c13.33 0 19.33-6.67 18-20L273 96c-2-13.33-9.67-20-23-20h-35ZM98 76c-13.33 0-19 6.67-17 20l35 288c2 13.33 9.67 20 23 20h34L133 76Z" horiz-adv-x="416" vert-adv-y="1000"/><glyph glyph-name="uni0445" unicode="х" d="M-38 0h86l45 107c11.33 20 18.67 43.33 22 70h2c-3.33-26-2-49.33 4-70L140 0h85l-58 245 114 235h-85l-41-97c-11.33-21.33-18.67-45-22-71h-2c3.33 22.67 2 46.33-4 71l-17 97H24l57-235Z" horiz-adv-x="273" vert-adv-y="1000"/><glyph glyph-name="uni0446" unicode="ц" d="M-13 0h182l-12-100h82l20 170h-40l51 410h-82L137 70H77l51 410H46Z" horiz-adv-x="299" vert-adv-y="1000"/><glyph glyph-name="uni0447" unicode="ч" d="M8 278c-8-60 18-90 78-90 14 0 32 2.33 54 7L116 0h82l59 480h-82l-26-211c-15.33-3.33-26-5-32-5-10 0-17.17 1.83-21.5 5.5-4.33 3.67-5.83 8.5-4.5 14.5l24 196H33Z" horiz-adv-x="271" vert-adv-y="1000"/><glyph glyph-name="uni0448" unicode="ш" d="M-13 0h366l59 480h-82L279 70h-60l51 410h-82L137 70H77l51 410H46Z" horiz-adv-x="426" vert-adv-y="1000"/><glyph glyph-name="uni0449" unicode="щ" d="m311 0-12-100h82l20 170h-40l51 410h-82L279 70h-60l51 410h-82L137 70H77l51 410H46L-13 0Z" horiz-adv-x="441" vert-adv-y="1000"/><glyph glyph-name="uni044A" unicode="ъ" d="M16 411h68L33 0h134c26.67 0 49.33 8.17 68 24.5s29.67 38.17 33 65.5l13 101c3.33 27.33-2.33 49.17-17 65.5S228.67 281 202 281h-52l24 199H24ZM124 70l17 141h40c13.33 0 19.33-6.67 18-20L186 90c-2-13.33-9.67-20-23-20Z" horiz-adv-x="312" vert-adv-y="1000"/><glyph glyph-name="uni044B" unicode="ы" d="M121 0c26.67 0 49.33 8.17 68 24.5s29.67 38.17 33 65.5l12 101c3.33 27.33-2.17 49.17-16.5 65.5S182.67 281 156 281h-53l25 199H46L-13 0Zm127 0h82l59 480h-82ZM77 70l18 141h40c13.33 0 19-6.67 17-20L140 90c-2-13.33-9.67-20-23-20Z" horiz-adv-x="403" vert-adv-y="1000"/><glyph glyph-name="uni044C" unicode="ь" d="M121 0c26.67 0 49.33 8.17 68 24.5s29.67 38.17 33 65.5l12 101c3.33 27.33-2.17 49.17-16.5 65.5S182.67 281 156 281h-53l25 199H46L-13 0ZM77 70l18 141h40c13.33 0 19-6.67 17-20L140 90c-2-13.33-9.67-20-23-20Z" horiz-adv-x="266" vert-adv-y="1000"/><glyph glyph-name="uni044D" unicode="э" d="M66-3h45c26.67 0 49.33 8.17 68 24.5s29.33 37.83 32 64.5l38 308c3.33 26.67-2.17 48.17-16.5 64.5S197.67 483 171 483h-45c-26.67 0-49.33-8.17-68-24.5S28.33 420.67 25 394l-8-73h81l9 66c1.33 13.33 8.67 20 22 20h20c13.33 0 19.33-6.67 18-20l-14-112h-53l-9-70h53L130 93c-1.33-13.33-8.67-20-22-20H88c-13.33 0-19.33 6.67-18 20l8 66H-4l-8-73c-3.33-26.67 2.17-48.17 16.5-64.5S39.33-3 66-3Z" horiz-adv-x="274" vert-adv-y="1000"/><glyph glyph-name="uni044E" unicode="ю" d="M-13 0h82l25 205h50L129 86c-3.33-26.67 2.33-48.17 17-64.5S181.33-3 208-3h45c26.67 0 49.33 8.17 68 24.5s29.33 37.83 32 64.5l38 308c3.33 26.67-2.17 48.17-16.5 64.5S339.67 483 313 483h-45c-26.67 0-49.33-8.17-68-24.5s-29.67-37.83-33-64.5l-14-119h-50l25 205H46Zm243 73c-13.33 0-19.33 6.67-18 20l37 294c1.33 13.33 8.67 20 22 20h20c13.33 0 19.33-6.67 18-20L272 93c-1.33-13.33-8.67-20-22-20Z" horiz-adv-x="416" vert-adv-y="1000"/><glyph glyph-name="uni044F" unicode="я" d="M-24 0h82l61 194h25L121 0h82l59 480H127c-26.67 0-49.33-8.17-68-24.5S29.67 417.67 27 391L14 284c-5.33-37.33 6-64 34-80Zm137 264c-13.33 0-19 6.67-17 20l13 107c2 13.33 9.67 20 23 20h39l-18-147Z" horiz-adv-x="276" vert-adv-y="1000"/><glyph glyph-name="uni0450" unicode="ѐ" d="M76-3h45c26.67 0 49.33 8.17 68 24.5s29.33 37.83 32 64.5l9 75h-81l-9-68c-1.33-13.33-8.67-20-22-20H98c-13.33 0-19.33 6.67-18 20l14 113h142l23 188c3.33 26.67-2.17 48.17-16.5 64.5S207.67 483 181 483h-45c-26.67 0-49.33-8.17-68-24.5S38.33 420.67 35 394L-2 86C-5.33 59.33.17 37.83 14.5 21.5S49.33-3 76-3Zm19 671 48-137h64l-25 137Zm22-281c1.33 13.33 8.67 20 22 20h20c13.33 0 19.33-6.67 18-20l-14-111h-60Z" horiz-adv-x="282" vert-adv-y="1000"/><glyph glyph-name="uni0451" unicode="ё" d="M76-3h45c26.67 0 49.33 8.17 68 24.5s29.33 37.83 32 64.5l9 75h-81l-9-68c-1.33-13.33-8.67-20-22-20H98c-13.33 0-19.33 6.67-18 20l14 113h142l23 188c3.33 26.67-2.17 48.17-16.5 64.5S207.67 483 181 483h-45c-26.67 0-49.33-8.17-68-24.5S38.33 420.67 35 394L-2 86C-5.33 59.33.17 37.83 14.5 21.5S49.33-3 76-3Zm27 279 14 111c1.33 13.33 8.67 20 22 20h20c13.33 0 19.33-6.67 18-20l-14-111ZM78 534h71l11 92H90Zm173 0 11 92h-70l-12-92Z" horiz-adv-x="282" vert-adv-y="1000"/><glyph glyph-name="uni0452" unicode="ђ" d="M-13 0h82l48 387v1c1.33 12.67 8.67 19 22 19h20c13.33 0 19.33-6.67 18-20L119-81c-.67-10-4.67-18-12-24s-16-9-26-9H60l-9-76h33c31.33 0 57.67 9.5 79 28.5s33.67 43.83 37 74.5l59 481c3.33 26.67.17 48.17-9.5 64.5S225 483 205 483h-33c-16.67 0-32-6.33-46-19l18 146h85l5 39h-86l9 71H75l-9-71H40l-5-39h27Z" horiz-adv-x="284" vert-adv-y="1000"/><glyph glyph-name="uni0453" unicode="ѓ" d="m69 0 50 411h91l8 69H46L-13 0Zm25 531h63l83 137h-87Z" horiz-adv-x="210" vert-adv-y="1000"/><glyph glyph-name="uni0454" unicode="є" d="M76-3h45c26.67 0 49.33 8.17 68 24.5s29.33 37.83 32 64.5l9 70h-82l-8-63c-1.33-13.33-8.67-20-22-20H98c-13.33 0-19.33 6.67-18 20l14 112h73l10 70h-74l14 112c1.33 13.33 8.67 20 22 20h20c13.33 0 19.33-6.67 18-20l-8-62h82l8 69c3.33 26.67-2.17 48.17-16.5 64.5S207.67 483 181 483h-45c-26.67 0-49.33-8.17-68-24.5S38.33 420.67 35 394L-2 86C-5.33 59.33.17 37.83 14.5 21.5S49.33-3 76-3Z" horiz-adv-x="274" vert-adv-y="1000"/><glyph glyph-name="uni0455" unicode="ѕ" d="M74-3h45c26.67 0 49.33 8.17 68 24.5s29.33 37.83 32 64.5l13 106c2 15.33-.5 29.5-7.5 42.5S207.33 256.67 194 262l-78 36c-10 4.67-14.33 12.33-13 23l9 66c1.33 13.33 8.67 20 22 20h20c13.33 0 19.33-6.67 18-20l-8-64h81l9 71c3.33 26.67-2.17 48.17-16.5 64.5S202.67 483 176 483h-45c-26.67 0-49.33-8.17-68-24.5S33.33 420.67 30 394l-11-89c-1.33-15.33 1.5-29.5 8.5-42.5S44.67 240.33 58 235l79-37c9.33-4.67 13.33-12.33 12-23l-11-82c-1.33-13.33-8.67-20-22-20H96c-13.33 0-19.33 6.67-18 20l9 68H5l-9-75c-3.33-26.67 2.17-48.17 16.5-64.5S47.33-3 74-3Z" horiz-adv-x="272" vert-adv-y="1000"/><glyph glyph-name="uni0456" unicode="і" d="M-13 0h82l59 480H46Zm71 578h82l13 103H71Z" horiz-adv-x="142" vert-adv-y="1000"/><glyph glyph-name="uni0457" unicode="ї" d="M-13 0h82l59 480H46Zm187 534 11 92h-67l-12-92Zm-161 0h68l12 92H25Z" horiz-adv-x="142" vert-adv-y="1000"/><glyph glyph-name="uni0458" unicode="ј" d="M-57-190c31.33 0 57.5 9.5 78.5 28.5S54.67-117.67 58-87l70 567H46L-23-81c-.67-10-4.67-18-12-24s-16-9-26-9h-25l-8-76ZM58 578h82l13 103H71Z" horiz-adv-x="142" vert-adv-y="1000"/><glyph glyph-name="uni0459" unicode="љ" d="M-12 0c28.67 0 52 8.83 70 26.5S87.67 69.67 93 103l53 308h47L143 0h134c26.67 0 49.33 8.17 68 24.5s29.67 38.17 33 65.5l12 101c3.33 26.67-2.17 48.33-16.5 65s-34.83 25-61.5 25h-53l25 199H79L15 110C11.67 87.33 1.67 76-15 76h-14l-9-76Zm245 70 18 141h40c13.33 0 19-6.67 17-20L296 90c-2-13.33-9.67-20-23-20Z" horiz-adv-x="423" vert-adv-y="1000"/><glyph glyph-name="uni045A" unicode="њ" d="m69 0 26 208h60L129 0h134c26.67 0 49.33 8.17 68 24.5s29.67 38.17 33 65.5l12 98c3.33 27.33-2.33 49.17-17 65.5S323.67 278 297 278h-52l25 202h-82l-25-202h-60l25 202H46L-13 0Zm207 208c13.33 0 19.33-6.67 18-20l-12-98c-2-13.33-9.67-20-23-20h-40l17 138Z" horiz-adv-x="409" vert-adv-y="1000"/><glyph glyph-name="uni045B" unicode="ћ" d="M-13 0h82l48 387v1c1.33 12.67 8.67 19 22 19h20c13.33 0 19.33-6.67 18-20L129 0h82l48 394c3.33 26.67.17 48.17-9.5 64.5S225 483 205 483h-33c-16.67 0-32-6.33-46-19l18 146h85l5 39h-86l9 71H75l-9-71H40l-5-39h27Z" horiz-adv-x="284" vert-adv-y="1000"/><glyph glyph-name="uni045C" unicode="ќ" d="m69 0 24 194L140 0h85l-64 245 120 235h-85l-91-185 23 185H46L-13 0Zm58 531h64l82 137h-87Z" horiz-adv-x="273" vert-adv-y="1000"/><glyph glyph-name="uni045D" unicode="ѝ" d="m69 0 12 94 55 107c10 13.33 21.67 35.67 35 67h2c-11.33-26.67-18-50.67-20-72L129 0h82l59 480h-82l-12-93-55-108c-14-20.67-25.67-43.33-35-68h-2c10.67 29.33 17.33 53.67 20 73l24 196H46L-13 0Zm74 531h64l-25 137H95Z" horiz-adv-x="284" vert-adv-y="1000"/><glyph glyph-name="uni045E" unicode="ў" d="M10-190c55.33 0 92.67 34.33 112 103l152 567h-80l-81-326c-4-14.67-8.33-39-13-73h-2c3.33 24.67 5 49 5 73l1 326H23L37 0h34L52-81c-2.67-10-8.33-18-17-24s-18.33-9-29-9h-19l-8-76Zm65 783c-2.67-22 1.67-39.5 13-52.5s28-19.5 50-19.5h32c21.33 0 39.33 6.67 54 20 14.67 13.33 23.67 30.67 27 52l2 18h-64l-2-13c-1.33-11.33-7.33-17-18-17h-14c-12 0-17 5.67-15 17l2 13H78Z" horiz-adv-x="265" vert-adv-y="1000"/><glyph glyph-name="uni045F" unicode="џ" d="M58 0 46-100h82L140 0h71l59 480h-82L137 70H77l51 410H46L-13 0Z" horiz-adv-x="284" vert-adv-y="1000"/><glyph glyph-name="uni0490" unicode="Ґ" d="m80 0 77 624h94l24 192h-88l-14-116H78L-8 0Z" horiz-adv-x="223" vert-adv-y="1000"/><glyph glyph-name="uni0491" unicode="ґ" d="m69 0 50 411h91l22 183h-82l-14-114H46L-13 0Z" horiz-adv-x="210" vert-adv-y="1000"/><glyph glyph-name="uni04D8" unicode="Ә" d="M82-3h55c28.67 0 53 8.83 73 26.5s31.33 40.83 34 69.5l64 514c3.33 29.33-2.67 52.67-18 70s-37.33 26-66 26h-55c-28.67 0-52.83-8.83-72.5-26.5S65.33 635.67 62 607L45 472h88l16 129c2 13.33 9.67 20 23 20h30c13.33 0 19-6.67 17-20l-27-222H34L-2 93C-5.33 64.33.67 41.17 16 23.5S53.33-3 82-3Zm6 102 25 204h70L158 99c-2-13.33-9.67-20-23-20h-30c-13.33 0-19 6.67-17 20Z" horiz-adv-x="311" vert-adv-y="1000"/><glyph glyph-name="uni04D9" unicode="ә" d="M76-3h45c26.67 0 49.33 8.17 68 24.5s29.33 37.83 32 64.5l38 308c3.33 26.67-2.17 48.17-16.5 64.5S207.67 483 181 483h-45c-26.67 0-49.33-8.17-68-24.5S38.33 420.67 35 394l-9-75h82l9 68c1.33 13.33 8.67 20 22 20h20c13.33 0 19.33-6.67 18-20l-15-113H21L-2 86C-5.33 59.33.17 37.83 14.5 21.5S49.33-3 76-3Zm4 96 14 111h60L140 93c-1.33-13.33-8.67-20-22-20H98c-13.33 0-19.33 6.67-18 20Z" horiz-adv-x="284" vert-adv-y="1000"/><glyph glyph-name="uni1E80" unicode="Ẁ" d="M34 0h116l111 520c4.67 20.67 8.33 45.33 11 74h2c-4-44-6-68.67-6-74L251 0h117l156 700h-81L334 176c-2.67-15.33-6.33-39.67-11-73h-2c4 29.33 6 53.67 6 73l21 524H225L117 176c-2-8-5.67-32.33-11-73h-2c4 29.33 6 53.67 6 73l20 524H48Zm238 751h64l-25 137h-87Z" horiz-adv-x="486" vert-adv-y="1000"/><glyph glyph-name="uni1E81" unicode="ẁ" d="M31 0h96l78 328c4.67 21.33 8.33 45.67 11 73h2c-3.33-36.67-5-61-5-73L210 0h96l126 480h-80l-76-331c-4-14.67-8.33-39-13-73h-2c4.67 34 7 58.33 7 73l3 331h-87l-77-331c-4-14.67-8.33-39-13-73h-2c4.67 34 7 58.33 7 73l4 331H23Zm182 531h64l-25 137h-87Z" horiz-adv-x="423" vert-adv-y="1000"/><glyph glyph-name="uni1E82" unicode="Ẃ" d="M34 0h116l111 520c4.67 20.67 8.33 45.33 11 74h2c-4-44-6-68.67-6-74L251 0h117l156 700h-81L334 176c-2.67-15.33-6.33-39.67-11-73h-2c4 29.33 6 53.67 6 73l21 524H225L117 176c-2-8-5.67-32.33-11-73h-2c4 29.33 6 53.67 6 73l20 524H48Zm214 751h64l82 137h-87Z" horiz-adv-x="486" vert-adv-y="1000"/><glyph glyph-name="uni1E83" unicode="ẃ" d="M31 0h96l78 328c4.67 21.33 8.33 45.67 11 73h2c-3.33-36.67-5-61-5-73L210 0h96l126 480h-80l-76-331c-4-14.67-8.33-39-13-73h-2c4.67 34 7 58.33 7 73l3 331h-87l-77-331c-4-14.67-8.33-39-13-73h-2c4.67 34 7 58.33 7 73l4 331H23Zm158 531h64l82 137h-87Z" horiz-adv-x="423" vert-adv-y="1000"/><glyph glyph-name="uni1E84" unicode="Ẅ" d="M34 0h116l111 520c4.67 20.67 8.33 45.33 11 74h2c-4-44-6-68.67-6-74L251 0h117l156 700h-81L334 176c-2.67-15.33-6.33-39.67-11-73h-2c4 29.33 6 53.67 6 73l21 524H225L117 176c-2-8-5.67-32.33-11-73h-2c4 29.33 6 53.67 6 73l20 524H48Zm172 754h71l12 92h-71Zm173 0 12 92h-71l-12-92Z" horiz-adv-x="486" vert-adv-y="1000"/><glyph glyph-name="uni1E85" unicode="ẅ" d="M31 0h96l78 328c4.67 21.33 8.33 45.67 11 73h2c-3.33-36.67-5-61-5-73L210 0h96l126 480h-80l-76-331c-4-14.67-8.33-39-13-73h-2c4.67 34 7 58.33 7 73l3 331h-87l-77-331c-4-14.67-8.33-39-13-73h-2c4.67 34 7 58.33 7 73l4 331H23Zm187 534 12 92h-71l-12-92Zm102 0 12 92h-71l-12-92Z" horiz-adv-x="423" vert-adv-y="1000"/><glyph glyph-name="uni1E9E" unicode="ẞ" d="m80 0 74 605c2 12.67 9 19 21 19h59l-72-215-9-78h18c13.33 0 19-6.67 17-20L161 93c-1.33-13.33-8.67-20-22-20h-27l-8-76h38c28.67 0 53 9 73 27s31.67 41.67 35 71l27 219c4 38.67-8.33 66.67-37 84l82 243 7 59H172c-28.67 0-52.5-7.83-71.5-23.5S70.33 640.33 67 615L-8 0Z" horiz-adv-x="306" vert-adv-y="1000"/><glyph glyph-name="uni1EF2" unicode="Ỳ" d="M84 261 52 0h88l33 263 142 437h-84l-76-271c-5.33-18.67-10-42.67-14-72h-2c4 28.67 5 52.67 3 72l-8 271H50Zm84 490h64l-25 137h-87Z" horiz-adv-x="278" vert-adv-y="1000"/><glyph glyph-name="uni1EF3" unicode="ỳ" d="M-21-190h31c55.33 0 92.67 34.33 112 103l152 567h-80l-81-326c-4-14.67-8.33-39-13-73h-2c3.33 24.67 5 49 5 73l1 326H23L37 0h34L52-81c-2.67-10-8.33-18-17-24s-18.33-9-29-9h-19ZM83 668l48-137h64l-25 137Z" horiz-adv-x="265" vert-adv-y="1000"/><glyph glyph-name="uni2012" unicode="‒" d="M30 315h224v70H30Z" horiz-adv-x="284" vert-adv-y="1000"/><glyph glyph-name="uni2013" unicode="–" d="M6 235h243l8 70H14Z" horiz-adv-x="283" vert-adv-y="1000"/><glyph glyph-name="uni2014" unicode="—" d="M6 235h400l8 70H14Z" horiz-adv-x="440" vert-adv-y="1000"/><glyph glyph-name="uni2018" unicode="‘" d="M153 700H97L35 477h70Z" horiz-adv-x="125" vert-adv-y="1000"/><glyph glyph-name="uni2019" unicode="’" d="M30 477h56l62 223H78Z" horiz-adv-x="125" vert-adv-y="1000"/><glyph glyph-name="uni201A" unicode="‚" d="M-43-120h55l62 223H5Z" horiz-adv-x="125" vert-adv-y="1000"/><glyph glyph-name="uni201B" unicode="‛" d="m63 700 7-223h55l8 223Z" horiz-adv-x="125" vert-adv-y="1000"/><glyph glyph-name="uni201C" unicode="“" d="m193 477 48 223h-55l-62-223Zm-163 0h70l48 223H92Z" horiz-adv-x="213" vert-adv-y="1000"/><glyph glyph-name="uni201D" unicode="”" d="m86 477 62 223H78L30 477Zm93 0 62 223h-70l-47-223Z" horiz-adv-x="213" vert-adv-y="1000"/><glyph glyph-name="uni201E" unicode="„" d="m12-120 62 223H5l-48-223Zm94 0 61 223H98L50-120Z" horiz-adv-x="218" vert-adv-y="1000"/><glyph glyph-name="uni201F" unicode="‟" d="M170 477h55l8 223h-70ZM70 700l7-223h55l7 223Z" horiz-adv-x="225" vert-adv-y="1000"/><glyph glyph-name="uni2020" unicode="†" d="M28 499h63L29 0h70l61 499h63l8 70h-62l16 131h-70L99 569H37Z" horiz-adv-x="214" vert-adv-y="1000"/><glyph glyph-name="uni2021" unicode="‡" d="M-16 138h62L29 0h70l17 138h62l9 69h-63l35 286h63l9 69h-63l17 138h-70L98 562H36l-8-69h62L55 207H-8Z" horiz-adv-x="214" vert-adv-y="1000"/><glyph glyph-name="uni2022" unicode="•" d="M27 203h122v134H27Z" horiz-adv-x="176" vert-adv-y="1000"/><glyph glyph-name="uni2026" unicode="…" d="m66 0 12 103H-4L-16 0Zm54 0h82l12 103h-82Zm217 0 13 103h-82L255 0Z" horiz-adv-x="407" vert-adv-y="1000"/><glyph glyph-name="uni2030" unicode="‰" d="M260 96c-3.33-29.33 2.5-53.17 17.5-71.5S314-3 342-3h16c28.67 0 52.83 9.17 72.5 27.5S461.67 66.67 465 96l20 160c3.33 29.33-2.33 53.17-17 71.5S431.67 355 403 355h-16c-28.67 0-52.83-9.17-72.5-27.5S283.33 285.33 280 256Zm235 0c-3.33-29.33 2.5-53.17 17.5-71.5S549-3 577-3h17c28 0 51.83 9.17 71.5 27.5S696.67 66.67 700 96l20 160c3.33 29.33-2.33 53.17-17 71.5S666.67 355 638 355h-16c-28.67 0-52.83-9.17-72.5-27.5S518.33 285.33 515 256ZM29 445c-3.33-30 2.33-54.17 17-72.5S82.33 345 111 345h16c28.67 0 52.83 9.17 72.5 27.5S230.67 415 234 445l20 159c3.33 29.33-2.33 53.17-17 71.5S200.67 703 172 703h-16c-28.67 0-52.83-9.17-72.5-27.5S52.33 633.33 49 604ZM62 0h74l315 700h-73Zm527 63c-16 0-23 10-21 30l20 166c.67 8.67 3.83 15.83 9.5 21.5s12.17 8.5 19.5 8.5h10c16 0 23-10 21-30L628 93c-.67-8.67-3.83-15.83-9.5-21.5S606.33 63 599 63ZM123 411c-7.33 0-13 2.83-17 8.5s-5.33 12.83-4 21.5l20 166c.67 8.67 3.83 15.83 9.5 21.5s12.17 8.5 19.5 8.5h10c16 0 23-10 21-30l-20-166c-3.33-20-13-30-29-30ZM354 63c-16 0-23 10-21 30l19 166c3.33 20 13 30 29 30h10c7.33 0 13-2.83 17-8.5s5.33-12.83 4-21.5L393 93c-.67-8.67-3.83-15.83-9.5-21.5S371.33 63 364 63Z" horiz-adv-x="749" vert-adv-y="1000"/><glyph glyph-name="uni2039" unicode="‹" d="M63 92h73L84 260l94 169h-73L14 260Z" horiz-adv-x="188" vert-adv-y="1000"/><glyph glyph-name="uni203A" unicode="›" d="M103 429H30l52-169-94-168h74l90 168Z" horiz-adv-x="188" vert-adv-y="1000"/><glyph glyph-name="uni203C" unicode="‼" d="M132 183h68l71 517h-82Zm-119 0h68l71 517H70ZM-16 0h82l12 103H-4Zm201 0 12 103h-82L103 0Z" horiz-adv-x="254" vert-adv-y="1000"/><glyph glyph-name="uni2044" unicode="⁄" d="M-43 0h74l316 700h-74Z" horiz-adv-x="304" vert-adv-y="1000"/><glyph glyph-name="uni20AC" unicode="€" d="M-9 278h35L3 93C-.33 64.33 5.67 41.17 21 23.5S58.33-3 87-3h55c28.67 0 53 8.83 73 26.5s31.33 40.83 34 69.5l14 113h-88L163 99c-2-13.33-9.67-20-23-20h-30c-13.33 0-19 6.67-17 20l21 179h73l6 51h-72l5 42h72l6 51h-72l22 179c2 13.33 9.67 20 23 20h30c13.33 0 19-6.67 17-20l-13-110h88l14 116c3.33 29.33-2.67 52.67-18 70s-37.33 26-66 26h-55c-28.67 0-52.83-8.83-72.5-26.5S70.33 635.67 67 607L44 422H9l-6-51h35l-6-42H-3Z" horiz-adv-x="311" vert-adv-y="1000"/><glyph glyph-name="uni20B4" unicode="₴" d="M77-3h55c28.67 0 53 8.83 73 26.5s31.33 40.83 34 69.5l14 111h-88L153 99c-2-13.33-9.67-20-23-20h-30c-13.33 0-19 6.67-17 20l17 145c1.33 10.67 6.33 19.33 15 26l12 11h157l6 51H180l42 42h73l6 51h-32c9.33 15.33 15 31.33 17 48l17 134c3.33 29.33-2.67 52.67-18 70s-37.33 26-66 26h-55c-28.67 0-52.83-8.83-72.5-26.5S60.33 635.67 57 607L43 497h88l13 104c2 13.33 9.67 20 23 20h30c13.33 0 19-6.67 17-20l-16-131c-2.67-12-8-20.67-16-26l-19-19H13l-6-51h103l-42-42H2l-7-51h29c-6.67-14.67-11-28-13-40L-7 93c-3.33-28.67 2.67-51.83 18-69.5S48.33-3 77-3Z" horiz-adv-x="296" vert-adv-y="1000"/><glyph glyph-name="uni20B8" unicode="₸" d="m267 509 10 75H34l-10-75h78L39 0h89l62 509ZM40 631h243l8 69H48Z" horiz-adv-x="253" vert-adv-y="1000"/><glyph glyph-name="uni20BF" unicode="₿" d="M18 0 7-96h57L75 0h42l-12-96h57L174 4c20.67 5.33 37.67 15.67 51 31 13.33 15.33 21.33 33.67 24 55l24 195c4 37.33-8.67 63-38 77 30.67 16 48 41 52 75l22 178c4 40.67-12.67 67.33-50 80l13 101h-58l-11-96h-42l12 96h-57l-12-96H45l-9-76h33L1 76h-33l-8-76Zm71 76 31 247h50c13.33 0 19.33-6.67 18-20L162 96c-1.33-13.33-8.67-20-22-20Zm113 548c13.33 0 19-6.33 17-19l-23-186c-1.33-13.33-8.67-20-22-20h-45l28 225Z" horiz-adv-x="306" vert-adv-y="1000"/><glyph glyph-name="uni2113" unicode="ℓ" d="m7 126 46 30v-1c0-48 9.5-86.67 28.5-116S125.33-5 156-5c12.67 0 25.33 2.67 38 8 12.67 5.33 23.33 11.33 32 18 8.67 6.67 17 14.33 25 23s13.17 14.67 15.5 18 4.17 6 5.5 8l-38 53-7-13c-4.67-9.33-12-18.67-22-28-10-9.33-20.33-14-31-14-13.33 0-24.17 8.17-32.5 24.5-8.33 16.33-12.5 37.17-12.5 62.5v68c83.33 91.33 125 196.67 125 316 0 56-9.33 100.67-28 134s-44 50-76 50c-28.67 0-52-12-70-36s-27-55.33-27-94V236c-17.33-16-32.67-28-46-36Zm122 207v262c0 16 2.17 29.17 6.5 39.5 4.33 10.33 9.83 15.5 16.5 15.5 19.33 0 29-35.33 29-106 0-77.33-17.33-147.67-52-211Z" horiz-adv-x="282" vert-adv-y="1000"/><glyph glyph-name="uni2116" unicode="№" d="m77 0 45 364c2 22 3 46 3 72l2 1c0-29.33 1.33-53.33 4-72L155 0h85l86 700h-85l-45-366c-2.67-29.33-4-53.67-4-73l-2-1c0 26.67-1 51-3 73l-24 367H78L-8 0Zm262 483c-3.33-30 2.33-54.17 17-72.5s36.33-27.5 65-27.5h16c28.67 0 52.83 9.17 72.5 27.5S540.67 453 544 483l15 121c3.33 29.33-2.5 53.17-17.5 71.5S505 703 477 703h-16c-28.67 0-52.83-9.17-72.5-27.5S357.33 633.33 354 604Zm-26-212h206l6 57H320Zm119 179c-16 0-23 10-21 30l15 127c.67 8.67 3.83 15.83 9.5 21.5s12.17 8.5 19.5 8.5h10c16 0 23-10 21-30l-15-127c-.67-8.67-3.83-15.83-9.5-21.5S449.33 450 442 450Z" horiz-adv-x="556" vert-adv-y="1000"/><glyph glyph-name="uni2117" unicode="℗" d="M30 165c0-50.67 14.83-91.67 44.5-123S143.33-5 192-5h55c48.67 0 87.83 15.67 117.5 47S409 114.33 409 165v371c0 50.67-14.83 91.5-44.5 122.5S295.67 705 247 705h-55c-48.67 0-87.83-15.5-117.5-46.5S30 586.67 30 536Zm63 371c0 32.67 9.17 59 27.5 79s42.17 30 71.5 30h55c29.33 0 53-10 71-30s27-46.33 27-79V164c0-32.67-9-59-27-79s-41.67-30-71-30h-55c-29.33 0-53.17 10-71.5 30S93 131.33 93 164Zm54-358h59v129h33c20.67 0 37.33 6.17 50 18.5 12.67 12.33 19 29.17 19 50.5v83c0 20.67-6.33 37.33-19 50-12.67 12.67-29.33 19-50 19h-92Zm87 300c9.33 0 14-4.67 14-14v-92c0-9.33-4.67-14-14-14h-28v120Z" horiz-adv-x="439" vert-adv-y="1000"/><glyph glyph-name="uni2122" unicode="™" d="M188 700V350h57v228c0 4.67-1 22-3 52h1c.67-5.33 1.67-14.17 3-26.5s2.33-20.83 3-25.5l31-228h63l31 228c1.33 8.67 3 26 5 52h2c-2-14.67-3-32-3-52V350h58v350h-93l-28-242c-2-14.67-3-32.33-3-53h-1c0 20.67-1 38.33-3 53l-28 242ZM12 649h48V350h60v299h48v51H12Z" horiz-adv-x="457" vert-adv-y="1000"/><glyph glyph-name="uni212E" unicode="℮" d="M408-7c70 0 134.5 19 193.5 57S704.33 139 733 203h-44c-28-52.67-67-94.17-117-124.5S467.33 33 408 33c-73.33 0-139 23-197 69v248h554c0 98.67-34.83 182.83-104.5 252.5C590.83 672.17 506.67 707 408 707c-98.67 0-182.83-34.83-252.5-104.5C85.83 532.83 51 448.67 51 350c0-98.67 35-182.83 105-252.5C226 27.83 310-7 408-7ZM211 390v208c58 46 123.67 69 197 69s139-23 197-69V390Z" horiz-adv-x="817" vert-adv-y="1000"/><glyph glyph-name="uni2150" unicode="⅐" d="M109 607 78 350h60l43 350h-54c-5.33-38-30.33-57-75-57l-4-36ZM20 0h75l315 700h-74Zm413 350H276l-6-55h92L252 0h60l117 315Z" horiz-adv-x="447" vert-adv-y="1000"/><glyph glyph-name="uni2151" unicode="⅑" d="m95 0 315 700h-74L20 0Zm144 67c-2.67-20.67 1.5-37.5 12.5-50.5S278.33-3 299-3h25c20.67 0 37.83 6.33 51.5 19 13.67 12.67 21.83 29.67 24.5 51l27 224c2.67 18.67-1.5 33.67-12.5 45-11 11.33-26.83 17-47.5 17h-25c-20.67 0-37.83-6.33-51.5-19-13.67-12.67-21.83-29.67-24.5-51l-9-71c-2.67-23.33.17-42 8.5-56s21.17-21 38.5-21h21c8 0 16.33 3 25 9l-8-67c-2-16-9-24-21-24h-7c-11.33 0-16 8-14 24l4 34h-59ZM109 607 78 350h60l43 350h-54c-5.33-38-30.33-57-75-57l-4-36Zm221-421c-11.33 0-16 7-14 21l8 68c2.67 15.33 9.33 23 20 23h7c12 0 17.33-7 16-21l-9-70c-1.33-14-8-21-20-21Z" horiz-adv-x="456" vert-adv-y="1000"/><glyph glyph-name="uni2152" unicode="⅒" d="M109 607 78 350h60l43 350h-54c-5.33-38-30.33-57-75-57l-4-36ZM20 0h75l315 700h-74Zm303 257L291 0h60l43 350h-54c-5.33-38-30.33-57-75-57l-4-36Zm179 19c2 14.67 8.67 22 20 22h7c12 0 17-7.33 15-22L519 74c-2-14-8.67-21-20-21h-7c-12 0-17 7-15 21ZM417 70c-2.67-21.33 1.5-38.83 12.5-52.5C440.5 3.83 456.33-3 477-3h25c20 0 37 6.83 51 20.5s22.33 31.17 25 52.5l26 211c2.67 21.33-1.5 38.67-12.5 52-11 13.33-26.5 20-46.5 20h-25c-20.67 0-38-6.67-52-20s-22.33-30.67-25-52Z" horiz-adv-x="634" vert-adv-y="1000"/><glyph glyph-name="uni2153" unicode="⅓" d="m95 0 315 700h-74L20 0Zm144 60c-2.67-18.67 1.5-33.83 12.5-45.5C262.5 2.83 278.33-3 299-3h25c20.67 0 37.67 5.67 51 17 13.33 11.33 21.33 26.67 24 46l8 61c3.33 26.67-3.33 46.33-20 59 20 13.33 31.33 33 34 59l6 45c2 20.67-2.33 37.33-13 50-10.67 12.67-26.33 19-47 19h-25c-20.67 0-37.83-6.33-51.5-19-13.67-12.67-21.83-29.33-24.5-50l-7-53h60l5 42c2 16.67 8.67 25 20 25h7c12 0 17-8.33 15-25l-5-45c-2-13.33-9-20-21-20h-23l-6-55h23c12 0 17-7.33 15-22l-8-58c-1.33-13.33-8-20-20-20h-7c-11.33 0-16.33 6.67-15 20l5 42h-59ZM109 607 78 350h60l43 350h-54c-5.33-38-30.33-57-75-57l-4-36Z" horiz-adv-x="456" vert-adv-y="1000"/><glyph glyph-name="uni2154" unicode="⅔" d="M42 0h74l315 700h-73Zm218 60c-2.67-18.67 1.5-33.83 12.5-45.5C283.5 2.83 299.33-3 320-3h25c20.67 0 37.67 5.67 51 17 13.33 11.33 21.33 26.67 24 46l8 61c3.33 26.67-3 46.33-19 59 19.33 14 30.33 33.67 33 59l6 45c2.67 20.67-1.5 37.33-12.5 50-11 12.67-26.83 19-47.5 19h-25c-20.67 0-37.83-6.33-51.5-19-13.67-12.67-21.83-29.33-24.5-50l-6-53h59l5 42c2 16.67 9 25 21 25h7c12 0 17-8.33 15-25l-6-45c-2-13.33-9-20-21-20h-23l-6-55h23c12 0 17-7.33 15-22l-7-58c-2-13.33-9-20-21-20h-7c-11.33 0-16.33 6.67-15 20l5 42h-59Zm-79 290 7 55H84l1 10c2.67 10.67 8 18.67 16 24l53 50c13.33 8 24.83 19.17 34.5 33.5 9.67 14.33 15.17 28.83 16.5 43.5l9 68c2 20.67-2.33 37.33-13 50-10.67 12.67-26.33 19-47 19h-25c-20.67 0-37.83-6.33-51.5-19-13.67-12.67-21.83-29.33-24.5-50l-8-62h60l6 51c2 16.67 8.67 25 20 25h7c12 0 17-8.33 15-25l-7-64c-1.33-10-6.67-18-16-24l-53-49c-30-17.33-47.33-43.33-52-78l-7-58Z" horiz-adv-x="477" vert-adv-y="1000"/><glyph glyph-name="uni2155" unicode="⅕" d="m95 0 315 700h-74L20 0Zm146 60c-2.67-18.67 1.67-33.83 13-45.5C265.33 2.83 281-3 301-3h26c20.67 0 37.83 6.5 51.5 19.5 13.67 13 21.83 30.17 24.5 51.5l10 82c2.67 22.67-.17 41.17-8.5 55.5-8.33 14.33-21.17 21.5-38.5 21.5h-22c-8.67 0-17-3-25-9l9 77h90l7 55H276l-24-195h59c2 14 8.67 21 20 21h8c12 0 17-7 15-21l-9-80c-2-14.67-9-22-21-22h-7c-11.33 0-16.33 6.67-15 20l5 42h-59ZM109 607 78 350h60l43 350h-54c-5.33-38-30.33-57-75-57l-4-36Z" horiz-adv-x="452" vert-adv-y="1000"/><glyph glyph-name="uni2156" unicode="⅖" d="M42 0h74l315 700h-73Zm221 60c-2.67-18.67 1.5-33.83 12.5-45.5C286.5 2.83 302.33-3 323-3h25c20.67 0 37.83 6.5 51.5 19.5 13.67 13 21.83 30.17 24.5 51.5l10 82c3.33 23.33.67 42-8 56s-21.67 21-39 21h-21c-9.33 0-18-3-26-9l10 77h89l7 55H297l-24-195h59c2.67 14 9.33 21 20 21h8c12 0 17.33-7 16-21l-10-80c-2-14.67-9-22-21-22h-7c-11.33 0-16.33 6.67-15 20l5 42h-59Zm-82 290 7 55H84l1 10c2.67 10.67 8 18.67 16 24l53 50c13.33 8 24.83 19.17 34.5 33.5 9.67 14.33 15.17 28.83 16.5 43.5l9 68c2 20.67-2.33 37.33-13 50-10.67 12.67-26.33 19-47 19h-25c-20.67 0-37.83-6.33-51.5-19-13.67-12.67-21.83-29.33-24.5-50l-8-62h60l6 51c2 16.67 8.67 25 20 25h7c12 0 17-8.33 15-25l-7-64c-1.33-10-6.67-18-16-24l-53-49c-30-17.33-47.33-43.33-52-78l-7-58Z" horiz-adv-x="474" vert-adv-y="1000"/><glyph glyph-name="uni2157" unicode="⅗" d="m120 0 315 700h-73L46 0Zm147 60c-2.67-18.67 1.5-33.83 12.5-45.5C290.5 2.83 306.33-3 327-3h25c20.67 0 37.83 6.5 51.5 19.5 13.67 13 21.83 30.17 24.5 51.5l10 82c3.33 23.33.67 42-8 56s-21.67 21-39 21h-21c-9.33 0-18-3-26-9l10 77h90l6 55H301l-24-195h60c.67 6 2.83 11 6.5 15s8.17 6 13.5 6h7c12 0 17.33-7 16-21l-10-80c-2-14.67-9-22-21-22h-7c-11.33 0-16 6.67-14 20l5 42h-60ZM26 410c-2.67-18.67 1.5-33.67 12.5-45 11-11.33 26.83-17 47.5-17h25c20.67 0 37.67 5.5 51 16.5 13.33 11 21.33 26.17 24 45.5l8 61c3.33 26.67-3.33 46.33-20 59 20 14 31 33.67 33 59l7 45c2 20.67-2.33 37.33-13 50-10.67 12.67-26.33 19-47 19h-25c-20.67 0-37.83-6.33-51.5-19-13.67-12.67-21.83-29.33-24.5-50l-7-53h59l6 42c2 16.67 8.67 25 20 25h7c12 0 17-8.33 15-25l-5-45c-2-13.33-9-20-21-20h-23l-6-55h23c12 0 17-7.33 15-22l-8-58c-1.33-13.33-8-20-20-20h-7c-11.33 0-16.33 6.67-15 20l5 42H32Z" horiz-adv-x="478" vert-adv-y="1000"/><glyph glyph-name="uni2158" unicode="⅘" d="m121 0 316 700h-74L47 0ZM15 418h102l-8-68h60l8 68h25l7 55h-25l28 227h-84L22 473ZM268 60c-2.67-18.67 1.5-33.83 12.5-45.5C291.5 2.83 307.33-3 328-3h25c20.67 0 37.83 6.5 51.5 19.5 13.67 13 21.83 30.17 24.5 51.5l10 82c3.33 23.33.67 42-8 56s-21.33 21-38 21h-22c-8 0-16.67-3-26-9l10 77h90l6 55H303l-25-195h60c.67 6 2.83 11 6.5 15s8.17 6 13.5 6h7c12 0 17.33-7 16-21l-10-80c-2-14.67-9-22-21-22h-7c-11.33 0-16 6.67-14 20l5 42h-60ZM76 473l50 116c13.33 29.33 22.33 52.33 27 69h2c-8-24-13.67-48-17-72l-14-113Z" horiz-adv-x="479" vert-adv-y="1000"/><glyph glyph-name="uni2159" unicode="⅙" d="m95 0 315 700h-74L20 0Zm147 60c-2.67-19.33 1.67-34.67 13-46 11.33-11.33 27.33-17 48-17h24c20.67 0 38 6.5 52 19.5s22 30.17 24 51.5l10 70c2.67 22.67-.33 41.17-9 55.5-8.67 14.33-21.33 21.5-38 21.5h-21c-8 0-16.67-3-26-9l8 67c2 16.67 9 25 21 25h7c11.33 0 16-8.33 14-25l-4-34h59l6 45c2.67 20.67-1.5 37.33-12.5 50-11 12.67-26.83 19-47.5 19h-24c-20.67 0-38-6.33-52-19s-22.33-29.33-25-50ZM109 607 78 350h60l43 350h-54c-5.33-38-30.33-57-75-57l-4-36ZM317 53c-11.33 0-16.33 6.67-15 20l9 70c2 14 8.67 21 20 21h8c11.33 0 16-7 14-21l-8-68c-2-14.67-8.67-22-20-22Z" horiz-adv-x="456" vert-adv-y="1000"/><glyph glyph-name="uni215A" unicode="⅚" d="M42 0h75l315 700h-73Zm222 60c-2.67-18.67 1.67-33.83 13-45.5C288.33 2.83 304.33-3 325-3h24c20.67 0 38 6.5 52 19.5s22 30.17 24 51.5l10 70c2.67 22.67-.33 41.17-9 55.5-8.67 14.33-21.33 21.5-38 21.5h-21c-8 0-16.67-3-26-9l8 67c2 16.67 9 25 21 25h7c11.33 0 16-8.33 14-25l-4-34h60l5 45c2.67 20.67-1.5 37.33-12.5 50-11 12.67-26.83 19-47.5 19h-24c-20.67 0-38-6.33-52-19s-22.33-29.33-25-50ZM28 410c-2.67-18.67 1.67-33.67 13-45 11.33-11.33 27-17 47-17h25c21.33 0 38.83 6.33 52.5 19 13.67 12.67 21.5 29.67 23.5 51l11 82c2.67 22.67-.17 41.17-8.5 55.5-8.33 14.33-21.17 21.5-38.5 21.5h-22c-8.67 0-17-3-25-9l9 77h90l7 55H63L39 505h59c2.67 14 9.33 21 20 21h8c12 0 17-7 15-21l-9-80c-2-14.67-9-22-21-22h-7c-11.33 0-16.33 6.67-15 20l5 42H35ZM340 53c-12 0-17 6.67-15 20l8 70c2 14 8.67 21 20 21h8c11.33 0 16-7 14-21l-8-68c-2-14.67-8.67-22-20-22Z" horiz-adv-x="478" vert-adv-y="1000"/><glyph glyph-name="uni215B" unicode="⅛" d="M242 60c-2.67-19.33 1.67-34.67 13-46 11.33-11.33 27.33-17 48-17h24c20.67 0 37.83 5.67 51.5 17 13.67 11.33 21.83 26.67 24.5 46l8 63c3.33 26-3.33 45.67-20 59 20 14 31.33 33.67 34 59l5 43c2.67 20.67-1.5 37.33-12.5 50-11 12.67-26.83 19-47.5 19h-24c-20.67 0-38-6.33-52-19s-22.33-29.33-25-50l-5-43c-3.33-26 3.33-45.67 20-59-19.33-12-31-31.67-35-59ZM95 0l315 700h-74L20 0Zm14 607L78 350h60l43 350h-54c-5.33-38-30.33-57-75-57l-4-36ZM317 53c-11.33 0-16.33 6.67-15 20l8 61c2 14 8.67 21 20 21h7c12 0 17-7 15-21l-8-61c-1.33-13.33-7.67-20-19-20Zm20 157c-11.33 0-16.33 7-15 21l6 47c2 13.33 8.67 20 20 20h7c12 0 17-6.67 15-20l-6-47c-1.33-14-8-21-20-21Z" horiz-adv-x="459" vert-adv-y="1000"/><glyph glyph-name="uni215C" unicode="⅜" d="M267 60c-2.67-18.67 1.67-33.83 13-45.5C291.33 2.83 307.33-3 328-3h25c20 0 36.83 5.83 50.5 17.5C417.17 26.17 425.33 41.33 428 60l8 63c3.33 26.67-3.33 46.33-20 59 20 13.33 31.33 33 34 59l6 43c2 20.67-2.5 37.33-13.5 50-11 12.67-26.5 19-46.5 19h-25c-20.67 0-38-6.33-52-19s-22.33-29.33-25-50l-5-43c-3.33-26 3.33-45.67 20-59-19.33-12.67-30.67-32.33-34-59ZM120 0l315 700h-73L46 0ZM26 410c-2.67-18.67 1.5-33.67 12.5-45 11-11.33 26.83-17 47.5-17h25c20.67 0 37.67 5.5 51 16.5 13.33 11 21.33 26.17 24 45.5l8 61c3.33 26.67-3.33 46.33-20 59 20 14 31 33.67 33 59l7 45c2 20.67-2.33 37.33-13 50-10.67 12.67-26.33 19-47 19h-25c-20.67 0-37.83-6.33-51.5-19-13.67-12.67-21.83-29.33-24.5-50l-7-53h59l6 42c2 16.67 8.67 25 20 25h7c12 0 17-8.33 15-25l-5-45c-2-13.33-9-20-21-20h-23l-6-55h23c12 0 17-7.33 15-22l-8-58c-1.33-13.33-8-20-20-20h-7c-11.33 0-16.33 6.67-15 20l5 42H32ZM343 53c-12 0-17 6.67-15 20l8 61c1.33 14 7.67 21 19 21h8c11.33 0 16.33-7 15-21l-8-61c-2-13.33-8.67-20-20-20Zm19 157c-11.33 0-16.33 7-15 21l6 47c2 13.33 8.67 20 20 20h7c12 0 17-6.67 15-20l-6-47c-1.33-14-7.67-21-19-21Z" horiz-adv-x="485" vert-adv-y="1000"/><glyph glyph-name="uni215D" unicode="⅝" d="M264 60c-2.67-18.67 1.67-33.83 13-45.5C288.33 2.83 304.33-3 325-3h24c20.67 0 37.83 5.67 51.5 17 13.67 11.33 21.83 26.67 24.5 46l8 63c3.33 26-3.33 45.67-20 59 20 14 31.33 33.67 34 59l5 43c2.67 20.67-1.5 37.33-12.5 50-11 12.67-26.83 19-47.5 19h-24c-20.67 0-38-6.33-52-19s-22.33-29.33-25-50l-5-43c-3.33-26 3.33-45.67 20-59-19.33-12-31-31.67-35-59ZM42 0h75l315 700h-73ZM28 410c-2.67-18.67 1.67-33.67 13-45 11.33-11.33 27-17 47-17h25c21.33 0 38.83 6.33 52.5 19 13.67 12.67 21.5 29.67 23.5 51l11 82c2.67 22.67-.17 41.17-8.5 55.5-8.33 14.33-21.17 21.5-38.5 21.5h-22c-8.67 0-17-3-25-9l9 77h90l7 55H63L39 505h59c2.67 14 9.33 21 20 21h8c12 0 17-7 15-21l-9-80c-2-14.67-9-22-21-22h-7c-11.33 0-16.33 6.67-15 20l5 42H35ZM340 53c-12 0-17 6.67-15 20l7 61c2 14 8.67 21 20 21h7c12 0 17-7 15-21l-7-61c-2-13.33-8.67-20-20-20Zm19 157c-11.33 0-16.33 7-15 21l6 47c2 13.33 8.67 20 20 20h7c12 0 17-6.67 15-20l-6-47c-1.33-14-8-21-20-21Z" horiz-adv-x="481" vert-adv-y="1000"/><glyph glyph-name="uni215E" unicode="⅞" d="M245 60c-2.67-18.67 1.67-33.83 13-45.5C269.33 2.83 285.33-3 306-3h25c20.67 0 37.83 5.83 51.5 17.5C396.17 26.17 404 41.33 406 60l8 63c4 26-2.33 45.67-19 59 18.67 13.33 30 33 34 59l5 43c2.67 20.67-1.5 37.33-12.5 50-11 12.67-26.83 19-47.5 19h-25c-20.67 0-37.83-6.33-51.5-19-13.67-12.67-21.83-29.33-24.5-50l-5-43c-4-25.33 2.33-45 19-59-19.33-13.33-30.67-33-34-59ZM98 0l316 700h-74L24 0ZM86 350l117 315 4 35H50l-6-55h92L25 350ZM321 53c-11.33 0-16.33 6.67-15 20l8 61c1.33 14 8 21 20 21h7c11.33 0 16.33-7 15-21l-8-61c-1.33-13.33-8-20-20-20Zm20 157c-12 0-17 7-15 21l6 47c2 13.33 8.33 20 19 20h8c12 0 17-6.67 15-20l-6-47c-2-14-8.67-21-20-21Z" horiz-adv-x="463" vert-adv-y="1000"/><glyph glyph-name="uni215F" unicode="⅟" d="m95 0 315 700h-74L20 0Zm14 607L78 350h60l43 350h-54c-5.33-38-30.33-57-75-57l-4-36Z" horiz-adv-x="367" vert-adv-y="1000"/><glyph glyph-name="uni2189" unicode="↉" d="M30 420c-3.33-21.33.67-38.67 12-52 11.33-13.33 27.33-20 48-20h24c20.67 0 37.83 6.67 51.5 20 13.67 13.33 22.17 30.67 25.5 52l26 211c2.67 21.33-1.5 38.67-12.5 52-11 13.33-26.83 20-47.5 20h-24c-20.67 0-38-6.5-52-19.5S58.33 653 55 631ZM49 0h75l315 700h-74Zm219 60c-2.67-18.67 1.5-33.83 12.5-45.5C291.5 2.83 307.33-3 328-3h25c20.67 0 37.67 5.67 51 17 13.33 11.33 21.33 26.67 24 46l8 61c3.33 26.67-3.33 46.33-20 59 20 14 31 33.67 33 59l7 45c2 20.67-2.33 37.33-13 50-10.67 12.67-26.33 19-47 19h-25c-20.67 0-37.83-6.33-51.5-19-13.67-12.67-21.83-29.33-24.5-50l-7-53h60l5 42c2 16.67 8.67 25 20 25h7c12 0 17-8.33 15-25l-5-45c-2-13.33-9-20-21-20h-23l-6-55h23c12 0 17-7.33 15-22l-8-58c-1.33-13.33-8-20-20-20h-7c-11.33 0-16.33 6.67-15 20l5 42h-59ZM104 403c-11.33 0-16 7-14 21l24 202c2 14.67 9 22 21 22h7c11.33 0 16-7.33 14-22l-24-202c-2-14-8.67-21-20-21Z" horiz-adv-x="485" vert-adv-y="1000"/><glyph glyph-name="uni2190" unicode="←" d="m20 350 187-114-6 79h219v70H201l6 79Z" horiz-adv-x="440" vert-adv-y="1000"/><glyph glyph-name="uni2191" unicode="↑" d="M185 369V150h70v219l79-6-114 187-114-187Z" horiz-adv-x="440" vert-adv-y="1000"/><glyph glyph-name="uni2192" unicode="→" d="M20 315h219l-6-79 187 114-187 114 6-79H20Z" horiz-adv-x="440" vert-adv-y="1000"/><glyph glyph-name="uni2193" unicode="↓" d="m220 150 114 187-79-6v219h-70V331l-79 6Z" horiz-adv-x="440" vert-adv-y="1000"/><glyph glyph-name="uni2196" unicode="↖" d="m79 491 51-213 52 61 154-155 50 50-155 154 61 52Z" horiz-adv-x="440" vert-adv-y="1000"/><glyph glyph-name="uni2197" unicode="↗" d="m128 184 155 155 52-61 51 213-213-51 60-52L79 234Z" horiz-adv-x="440" vert-adv-y="1000"/><glyph glyph-name="uni2198" unicode="↘" d="m233 287-60-51 213-52-51 213-52-60-155 154-49-49Z" horiz-adv-x="440" vert-adv-y="1000"/><glyph glyph-name="uni2199" unicode="↙" d="m79 184 213 52-61 51 155 155-50 49-154-154-52 60Z" horiz-adv-x="440" vert-adv-y="1000"/><glyph glyph-name="uni2202" unicode="∂" d="M-2 86C-6 59.33-.83 37.83 13.5 21.5S48.33-3 75-3h44c27.33 0 50.33 7.83 69 23.5S218 57 222 83l73 518c4.67 35.33-2 64-20 86s-43.67 33-77 33H94l-10-76h92c12.67 0 22.33-4.33 29-13 6.67-8.67 9-20.33 7-35l-20-133c-8 13.33-23 20-45 20h-8c-24.67 0-46-8.17-64-24.5S46 420.67 42 394ZM98 73c-13.33 0-19.33 6.67-18 20l43 294c1.33 13.33 8.67 20 22 20h20c13.33 0 19.33-6.67 18-20L140 93c-1.33-13.33-8.67-20-22-20Z" horiz-adv-x="283" vert-adv-y="1000"/><glyph glyph-name="uni2205" unicode="∅" d="M51 350c0-54.67 11.5-106 34.5-154S140 107.33 180 74l-59-85h79l33 48c54.67-32 114.67-48 180-48 99.33 0 184.33 35.17 255 105.5C738.67 164.83 774 250 774 350c0 54.67-11.5 106-34.5 154S685 592.67 645 626l60 85h-79l-34-48c-54.67 32-114.33 48-179 48-99.33 0-184.5-35.33-255.5-106S51 449.33 51 350Zm70 0c0 80.67 28.5 149.5 85.5 206.5S332.33 642 413 642c50.67 0 97-12.33 139-37L221 132c-66.67 58-100 130.67-100 218Zm484 219c66-58.67 99-131.67 99-219 0-80.67-28.33-149.5-85-206.5S493.67 58 413 58c-49.33 0-96 12.33-140 37Z" horiz-adv-x="825" vert-adv-y="1000"/><glyph glyph-name="uni220F" unicode="∏" d="M35-100h82v731h70v-731h82v800H35Z" horiz-adv-x="304" vert-adv-y="1000"/><glyph glyph-name="uni2211" unicode="∑" d="m30 637 126-338L30-37v-63h256v76H122l118 323-118 325h164v76H30Z" horiz-adv-x="296" vert-adv-y="1000"/><glyph glyph-name="uni2212" unicode="−" d="M30 315h224v70H30Z" horiz-adv-x="284" vert-adv-y="1000"/><glyph glyph-name="uni221A" unicode="√" d="m-12 214 30-59 60 41 59-296h71l171 850h-68L176 81c-5.33-23.33-8-48-8-74h-2c0 34-1.33 58-4 72l-37 227Z" horiz-adv-x="343" vert-adv-y="1000"/><glyph glyph-name="uni222B" unicode="∫" d="M48-100c29.33 0 52.83 9 70.5 27S145-31.67 145-3v650c0 8 2.5 14.5 7.5 19.5s11.83 7.5 20.5 7.5h27v76h-40c-29.33 0-52.83-9-70.5-27S63 681.67 63 653V3c0-8-2.5-14.5-7.5-19.5S44-24 36-24H8v-76Z" horiz-adv-x="208" vert-adv-y="1000"/><glyph glyph-name="uni2248" unicode="≈" d="M77 366c0 10 2.33 18.17 7 24.5 4.67 6.33 10.33 9.5 17 9.5 6 0 18-7.33 36-22s37.67-22 59-22c26.67 0 48.33 9.33 65 28s25 43.33 25 74h-68c0-22.67-7-34-21-34-5.33 0-17.17 7.17-35.5 21.5S123.67 467 103 467c-26.67 0-48-9.17-64-27.5S15 396.67 15 366Zm6-125c0 23.33 6.67 35 20 35 6 0 12.83-3.67 20.5-11s17.67-14.67 30-22c12.33-7.33 26.5-11 42.5-11 26.67 0 48.33 9.33 65 28s25 43.33 25 74h-61c0-10-2.5-18.17-7.5-24.5-5-6.33-11.17-9.5-18.5-9.5-6 0-18.33 7.17-37 21.5S123.67 343 103 343c-26.67 0-48-9.33-64-28s-24-43.33-24-74Z" horiz-adv-x="300" vert-adv-y="1000"/><glyph glyph-name="uni2260" unicode="≠" d="M30 320v-69h46l-21-60h59l22 60h118v69h-93l21 60h72v70h-47l22 59h-59l-22-59H30v-70h93l-22-60Z" horiz-adv-x="284" vert-adv-y="1000"/><glyph glyph-name="uni2264" unicode="≤" d="m20 383 233-135v80l-129 71 129 70v80L20 414Zm234-232v69H30v-69Z" horiz-adv-x="284" vert-adv-y="1000"/><glyph glyph-name="uni2265" unicode="≥" d="M30 328v-80l234 135v31L30 549v-80l130-70Zm0-177h224v69H30Z" horiz-adv-x="284" vert-adv-y="1000"/><glyph glyph-name="uni23F4" unicode="⏴" d="M228 237v228L41 350Z" horiz-adv-x="268" vert-adv-y="1000"/><glyph glyph-name="uni23F5" unicode="⏵" d="M41 465V237l187 114Z" horiz-adv-x="268" vert-adv-y="1000"/><glyph glyph-name="uni23F6" unicode="⏶" d="M20 257h228L134 444Z" horiz-adv-x="268" vert-adv-y="1000"/><glyph glyph-name="uni23F7" unicode="⏷" d="M248 444H20l114-187Z" horiz-adv-x="268" vert-adv-y="1000"/><glyph glyph-name="uni2460" unicode="①" d="M7 165C.33 114.33 10 73.33 36 42S99.33-5 148-5h55c48.67 0 89.67 15.5 123 46.5s53.33 72.17 60 123.5l45 371c6.67 50.67-2.83 91.5-28.5 122.5S339.67 705 291 705h-55c-48.67 0-89.67-15.5-123-46.5S59.67 586.67 53 536ZM155 55c-29.33 0-51.83 10-67.5 30-15.67 20-21.17 46.33-16.5 79l45 372c4 32.67 16.33 59 37 79s45.67 30 75 30h55c29.33 0 51.83-10 67.5-30 15.67-20 21.5-46.33 17.5-79l-46-372c-4-32.67-16.17-59-36.5-79S240.33 55 211 55Zm-6 377h62l-31-257h59l42 350h-54c-2-18-9.5-32-22.5-42s-30.17-15-51.5-15Z" horiz-adv-x="439" vert-adv-y="1000"/><glyph glyph-name="uni2461" unicode="②" d="M7 165C.33 114.33 10 73.33 36 42S99.33-5 148-5h55c48.67 0 89.67 15.5 123 46.5s53.33 72.17 60 123.5l45 371c6.67 50.67-2.83 91.5-28.5 122.5S339.67 705 291 705h-55c-48.67 0-89.67-15.5-123-46.5S59.67 586.67 53 536ZM155 55c-29.33 0-51.83 10-67.5 30-15.67 20-21.17 46.33-16.5 79l45 372c4 32.67 16.33 59 37 79s45.67 30 75 30h55c29.33 0 51.83-10 67.5-30 15.67-20 21.5-46.33 17.5-79l-46-372c-4-32.67-16.17-59-36.5-79S240.33 55 211 55Zm124 117 6 55H181l2 10c1.33 9.33 6.33 17.33 15 24l54 49c29.33 18.67 46.33 44.67 51 78l8 67c2.67 20.67-1.5 37.33-12.5 50-11 12.67-26.83 19-47.5 19h-25c-20.67 0-37.67-6.17-51-18.5-13.33-12.33-21.33-29.17-24-50.5l-8-61h59l6 51c2 16.67 9 25 21 25h7c12 0 17-8.33 15-25l-8-64c-2.67-11.33-8-19.33-16-24l-53-49c-13.33-8-24.83-19.17-34.5-33.5-9.67-14.33-15.17-29.17-16.5-44.5l-7-58Z" horiz-adv-x="439" vert-adv-y="1000"/><glyph glyph-name="uni2462" unicode="③" d="M7 165C.33 114.33 10 73.33 36 42S99.33-5 148-5h55c48.67 0 89.67 15.5 123 46.5s53.33 72.17 60 123.5l45 371c6.67 50.67-2.83 91.5-28.5 122.5S339.67 705 291 705h-55c-48.67 0-89.67-15.5-123-46.5S59.67 586.67 53 536ZM155 55c-29.33 0-51.83 10-67.5 30-15.67 20-21.17 46.33-16.5 79l45 372c4 32.67 16.33 59 37 79s45.67 30 75 30h55c29.33 0 51.83-10 67.5-30 15.67-20 21.5-46.33 17.5-79l-46-372c-4-32.67-16.17-59-36.5-79S240.33 55 211 55Zm-31 180c-2.67-18.67 1.5-33.67 12.5-45 11-11.33 26.83-17 47.5-17h25c20.67 0 37.83 5.67 51.5 17 13.67 11.33 21.83 26.33 24.5 45l7 61c3.33 26.67-3.33 46.33-20 59 19.33 13.33 30.67 33 34 59l6 45c2.67 20.67-1.5 37.33-12.5 50-11 12.67-26.83 19-47.5 19h-25c-20 0-36.83-6.33-50.5-19-13.67-12.67-22.17-29.33-25.5-50l-6-53h59l5 42c2 16.67 9 25 21 25h7c11.33 0 16-8.33 14-25l-5-45c-1.33-13.33-8-20-20-20h-23l-8-55h23c12 0 17.33-7.33 16-22l-7-58c-2-13.33-8.67-20-20-20h-7c-12 0-17.33 6.67-16 20l6 42h-59Z" horiz-adv-x="439" vert-adv-y="1000"/><glyph glyph-name="uni2463" unicode="④" d="M7 165C.33 114.33 10 73.33 36 42S99.33-5 148-5h55c48.67 0 89.67 15.5 123 46.5s53.33 72.17 60 123.5l45 371c6.67 50.67-2.83 91.5-28.5 122.5S339.67 705 291 705h-55c-48.67 0-89.67-15.5-123-46.5S59.67 586.67 53 536ZM155 55c-29.33 0-51.83 10-67.5 30-15.67 20-21.17 46.33-16.5 79l45 372c4 32.67 16.33 59 37 79s45.67 30 75 30h55c29.33 0 51.83-10 67.5-30 15.67-20 21.5-46.33 17.5-79l-46-372c-4-32.67-16.17-59-36.5-79S240.33 55 211 55Zm-45 188h103l-9-68h60l8 68h25l7 55h-25l27 227h-84L117 298Zm60 55 50 116c10 20 19.33 43 28 69h2c-9.33-28.67-15-52.67-17-72l-14-113Z" horiz-adv-x="439" vert-adv-y="1000"/><glyph glyph-name="uni2464" unicode="⑤" d="M7 165C.33 114.33 10 73.33 36 42S99.33-5 148-5h55c48.67 0 89.67 15.5 123 46.5s53.33 72.17 60 123.5l45 371c6.67 50.67-2.83 91.5-28.5 122.5S339.67 705 291 705h-55c-48.67 0-89.67-15.5-123-46.5S59.67 586.67 53 536ZM155 55c-29.33 0-51.83 10-67.5 30-15.67 20-21.17 46.33-16.5 79l45 372c4 32.67 16.33 59 37 79s45.67 30 75 30h55c29.33 0 51.83-10 67.5-30 15.67-20 21.5-46.33 17.5-79l-46-372c-4-32.67-16.17-59-36.5-79S240.33 55 211 55Zm-28 180c-2.67-18.67 1.5-33.67 12.5-45 11-11.33 26.83-17 47.5-17h25c20.67 0 37.83 6.33 51.5 19 13.67 12.67 21.83 29.67 24.5 51l10 82c2.67 22.67-.17 41.17-8.5 55.5-8.33 14.33-21.17 21.5-38.5 21.5h-22c-8.67 0-17-3-25-9l9 77h90l6 55H161l-24-195h60c1.33 14 7.67 21 19 21h8c12 0 17.33-7 16-21l-10-80c-1.33-14.67-8-22-20-22h-7c-12 0-17 6.67-15 20l5 42h-60Z" horiz-adv-x="439" vert-adv-y="1000"/><glyph glyph-name="uni2465" unicode="⑥" d="M7 165C.33 114.33 10 73.33 36 42S99.33-5 148-5h55c48.67 0 89.67 15.5 123 46.5s53.33 72.17 60 123.5l45 371c6.67 50.67-2.83 91.5-28.5 122.5S339.67 705 291 705h-55c-48.67 0-89.67-15.5-123-46.5S59.67 586.67 53 536ZM155 55c-29.33 0-51.83 10-67.5 30-15.67 20-21.17 46.33-16.5 79l45 372c4 32.67 16.33 59 37 79s45.67 30 75 30h55c29.33 0 51.83-10 67.5-30 15.67-20 21.5-46.33 17.5-79l-46-372c-4-32.67-16.17-59-36.5-79S240.33 55 211 55Zm-28 178c-2.67-18.67 1.67-33.67 13-45 11.33-11.33 27.33-17 48-17h25c20 0 37 6.33 51 19s22.33 29.67 25 51l9 70c2.67 22.67-.17 41.17-8.5 55.5-8.33 14.33-21.17 21.5-38.5 21.5h-21c-9.33 0-17.67-3-25-9l8 67c2 16.67 8.67 25 20 25h8c11.33 0 16-8.33 14-25l-5-34h60l6 45c2.67 20.67-1.5 37.33-12.5 50-11 12.67-26.83 19-47.5 19h-25c-20.67 0-37.83-6.33-51.5-19-13.67-12.67-22.17-29.33-25.5-50Zm76-7c-11.33 0-16.33 6.67-15 20l9 70c2 14 8.67 21 20 21h8c11.33 0 16-7 14-21l-8-68c-2-14.67-8.67-22-20-22Z" horiz-adv-x="439" vert-adv-y="1000"/><glyph glyph-name="uni2466" unicode="⑦" d="M7 165C.33 114.33 10 73.33 36 42S99.33-5 148-5h55c48.67 0 89.67 15.5 123 46.5s53.33 72.17 60 123.5l45 371c6.67 50.67-2.83 91.5-28.5 122.5S339.67 705 291 705h-55c-48.67 0-89.67-15.5-123-46.5S59.67 586.67 53 536ZM155 55c-29.33 0-51.83 10-67.5 30-15.67 20-21.17 46.33-16.5 79l45 372c4 32.67 16.33 59 37 79s45.67 30 75 30h55c29.33 0 51.83-10 67.5-30 15.67-20 21.5-46.33 17.5-79l-46-372c-4-32.67-16.17-59-36.5-79S240.33 55 211 55Zm-13 120h60l116 315 4 35H165l-6-55h92Z" horiz-adv-x="439" vert-adv-y="1000"/><glyph glyph-name="uni2467" unicode="⑧" d="M7 165C.33 114.33 10 73.33 36 42S99.33-5 148-5h55c48.67 0 89.67 15.5 123 46.5s53.33 72.17 60 123.5l45 371c6.67 50.67-2.83 91.5-28.5 122.5S339.67 705 291 705h-55c-48.67 0-89.67-15.5-123-46.5S59.67 586.67 53 536ZM155 55c-29.33 0-51.83 10-67.5 30-15.67 20-21.17 46.33-16.5 79l45 372c4 32.67 16.33 59 37 79s45.67 30 75 30h55c29.33 0 51.83-10 67.5-30 15.67-20 21.5-46.33 17.5-79l-46-372c-4-32.67-16.17-59-36.5-79S240.33 55 211 55Zm-31 180c-2.67-18.67 1.67-33.67 13-45 11.33-11.33 27.33-17 48-17h25c20 0 37 5.67 51 17s22 26.33 24 45l8 63c3.33 26.67-3.33 46.33-20 59 20 13.33 31.33 33 34 59l6 43c2.67 20.67-1.5 37.33-12.5 50-11 12.67-26.83 19-47.5 19h-25c-20.67 0-37.83-6.33-51.5-19-13.67-12.67-22.17-29.33-25.5-50l-5-43c-3.33-26 3.33-45.67 20-59-19.33-12-31-31.67-35-59Zm76-7c-12 0-17 6.67-15 20l8 61c1.33 14 8 21 20 21h7c11.33 0 16.33-7 15-21l-8-61c-2-13.33-8.33-20-19-20Zm19 157c-11.33 0-16 7-14 21l5 47c2 13.33 8.67 20 20 20h8c11.33 0 16-6.67 14-20l-5-47c-2-14-8.67-21-20-21Z" horiz-adv-x="439" vert-adv-y="1000"/><glyph glyph-name="uni2468" unicode="⑨" d="M7 165C.33 114.33 10 73.33 36 42S99.33-5 148-5h55c48.67 0 89.67 15.5 123 46.5s53.33 72.17 60 123.5l45 371c6.67 50.67-2.83 91.5-28.5 122.5S339.67 705 291 705h-55c-48.67 0-89.67-15.5-123-46.5S59.67 586.67 53 536ZM155 55c-29.33 0-51.83 10-67.5 30-15.67 20-21.17 46.33-16.5 79l45 372c4 32.67 16.33 59 37 79s45.67 30 75 30h55c29.33 0 51.83-10 67.5-30 15.67-20 21.5-46.33 17.5-79l-46-372c-4-32.67-16.17-59-36.5-79S240.33 55 211 55Zm-30 183c-2-21.33 2.33-38.17 13-50.5 10.67-12.33 26.33-18.5 47-18.5h25c20.67 0 37.83 6.33 51.5 19 13.67 12.67 21.83 29.33 24.5 50l28 224c2 18.67-2.5 33.67-13.5 45-11 11.33-26.83 17-47.5 17h-25c-20.67 0-37.83-6.33-51.5-19-13.67-12.67-21.83-29.67-24.5-51l-9-71c-2.67-22.67.17-41 8.5-55s21.17-21 38.5-21h22c8 0 16.33 2.67 25 8l-8-67c-2-16-9-24-21-24h-7c-12 0-17 8-15 24l4 35h-59Zm92 119c-11.33 0-16.33 7-15 21l9 68c1.33 15.33 8 23 20 23h7c12 0 17-6.67 15-20l-9-70v-2c-2-13.33-8.67-20-20-20Z" horiz-adv-x="439" vert-adv-y="1000"/><glyph glyph-name="uni24EA" unicode="⓪" d="M7 165C.33 114.33 10 73.33 36 42S99.33-5 148-5h55c48.67 0 89.67 15.5 123 46.5s53.33 72.17 60 123.5l45 371c6.67 50.67-2.83 91.5-28.5 122.5S339.67 705 291 705h-55c-48.67 0-89.67-15.5-123-46.5S59.67 586.67 53 536ZM155 55c-29.33 0-51.83 10-67.5 30-15.67 20-21.17 46.33-16.5 79l45 372c4 32.67 16.33 59 37 79s45.67 30 75 30h55c29.33 0 51.83-10 67.5-30 15.67-20 21.5-46.33 17.5-79l-46-372c-4-32.67-16.17-59-36.5-79S240.33 55 211 55Zm-30 190c-2-22 2.5-39.5 13.5-52.5S165.33 173 186 173h24c20.67 0 38 6.67 52 20s22.33 30.67 25 52l26 211c2.67 21.33-1.5 38.67-12.5 52-11 13.33-26.5 20-46.5 20h-25c-20.67 0-38-6.67-52-20s-22.33-30.67-25-52Zm76-17c-11.33 0-16.33 7-15 21l25 202c1.33 14.67 8 22 20 22h7c11.33 0 16.33-7.33 15-22l-25-202c-1.33-14-8-21-20-21Z" horiz-adv-x="439" vert-adv-y="1000"/><glyph glyph-name="uni25CA" unicode="◊" d="M30 350 169 0h51l140 350-140 350h-51Zm253 0-88-248-88 248 88 248Z" horiz-adv-x="389" vert-adv-y="1000"/><glyph glyph-name="uniFB00" unicode="ﬀ" d="M13 0h82l50 411h94L189 0h82l50 411h68l8 69h-68l17 137c3.33 18 14 27 32 27h39l9 76h-52c-28.67 0-53-8.83-73-26.5s-31.67-41.17-35-70.5l-18-143h-94l17 137c2 18 12.33 27 31 27h33l9 76h-46c-28.67 0-53-8.83-73-26.5S93.33 652.33 90 623L72 480H24l-8-69h48Z" horiz-adv-x="377" vert-adv-y="1000"/><glyph glyph-name="uniFB01" unicode="ﬁ" d="M13 0h82l50 411h68l8 69h-67l17 137c2 18 12.33 27 31 27h40l8 76h-52c-28.67 0-53-8.83-73-26.5S93.33 652.33 90 623L72 480H24l-8-69h48Zm178 0h82l59 480h-82Zm71 578h82l13 103h-82Z" horiz-adv-x="346" vert-adv-y="1000"/><glyph glyph-name="uniFB02" unicode="ﬂ" d="M13 0h82l50 411h68l8 69h-67l17 137c2 18 12.33 27 31 27h40l8 76h-52c-28.67 0-53-8.83-73-26.5S93.33 652.33 90 623L72 480H24l-8-69h48Zm178 0h82l88 720h-82Z" horiz-adv-x="346" vert-adv-y="1000"/></font>
</defs>
</svg>
